osu file format v14

[General]
AudioFilename: tomorrow.mp3
AudioLeadIn: 0
PreviewTime: 60257
Countdown: 0
SampleSet: Soft
StackLeniency: 0.3
Mode: 0
LetterboxInBreaks: 0
WidescreenStoryboard: 0

[Editor]
Bookmarks: 29025,75592
DistanceSpacing: 1.2
BeatDivisor: 4
GridSize: 32
TimelineZoom: 3.599998

[Metadata]
Title:TOMORROW
TitleUnicode:TOMORROW
Artist:Machico
ArtistUnicode:Machico
Creator:Little
Version:Irohas' Hard
Source:この素晴らしい世界に祝福を!2
Tags:Kono Subarashii Sekai ni Syukufuku wo! 2 Shukufuku o! KONOSUBA -God's blessing on this wonderful world! anime opening tv size まちこ CloudSplash16 Doormat Irohas MugiwaraSekai Sekaii Sekai-nyan RepL4y xxdeathx Meg iMage--
BeatmapID:1181103
BeatmapSetID:550035

[Difficulty]
HPDrainRate:5
CircleSize:3.9
OverallDifficulty:6
ApproachRate:7.8
SliderMultiplier:1.68
SliderTickRate:2

[Events]
//Background and Video events
0,0,"6c.jpg",0,0
Video,0,"lol.avi"
//Break Periods
//Storyboard Layer 0 (Background)
//Storyboard Layer 1 (Fail)
//Storyboard Layer 2 (Pass)
//Storyboard Layer 3 (Foreground)
//Storyboard Sound Samples

[TimingPoints]
-1422,447.761194029851,4,2,1,50,1,0
7085,-100,4,2,1,50,0,0
7533,-100,4,2,1,50,0,0
43354,-125,4,2,1,50,0,0
52309,-117.647058823529,4,2,1,50,0,0
54100,-111.111111111111,4,2,1,50,0,0
57458,-100,4,2,1,50,0,0
59697,-100,4,2,1,20,0,0
60816,-100,4,2,1,25,0,0
61264,-100,4,2,1,50,0,1
86339,-125,4,2,1,50,0,0
88130,-125,4,2,1,30,0,0

[Colours]
Combo1 : 0,162,224
Combo2 : 239,0,117
Combo3 : 249,139,0
Combo4 : 161,199,2

[HitObjects]
56,308,369,6,0,P|99:303|146:299,1,84,6|2,0:0|0:0,0:0:0:0:
216,234,816,2,0,P|246:206|329:211,1,126,8|8,0:0|0:0,0:0:0:0:
359,248,1264,2,0,P|354:275|351:303,2,42,2|8|0,0:0|0:0|0:0,0:0:0:0:
433,179,1712,2,0,P|430:158|426:137,1,42,8|2,0:0|0:0,0:0:0:0:
384,108,1936,2,0,P|386:87|390:66,1,42,2|0,0:0|0:0,0:0:0:0:
356,29,2160,6,0,P|314:33|267:38,1,84,6|2,0:0|0:0,0:0:0:0:
173,17,2607,2,0,P|194:73|176:139,1,126,8|8,0:0|0:0,0:0:0:0:
134,160,3055,2,0,P|107:153|77:150,2,42,2|8|0,0:0|0:0|0:0,0:0:0:0:
210,226,3503,2,0,P|230:222|250:217,1,42,8|2,0:0|0:0,0:0:0:0:
284,178,3727,2,0,P|304:172|324:169,1,42,2|0,0:0|0:0,0:0:0:0:
351,132,3951,6,0,P|396:128|450:124,1,84,6|2,0:0|0:0,0:0:0:0:
510,189,4398,2,0,P|498:238|485:319,1,126,8|8,0:0|0:0,0:0:0:0:
451,350,4846,2,0,P|422:339|402:335,2,42,2|8|0,0:0|0:0|0:0,0:0:0:0:
411,256,5294,2,8,P|380:263|362:271,1,42,8|2,0:0|0:0,0:0:0:0:
333,302,5518,2,8,P|307:297|279:296,1,42,2|0,0:0|0:0,0:0:0:0:
249,267,5742,6,0,P|207:268|162:273,1,84,6|0,0:0|0:0,0:0:0:0:
209,181,6189,2,0,P|159:182|113:185,1,84,6|0,0:0|0:0,0:0:0:0:
33,126,6637,2,0,P|43:168|48:217,1,84,6|0,0:0|0:0,0:0:0:0:
91,299,7085,2,8,P|136:292|149:290,1,42,2|0,0:0|0:0,0:0:0:0:
177,317,7309,2,8,P|197:313|218:310,1,42,0|0,0:0|0:0,0:0:0:0:
266,327,7533,6,0,P|322:319|367:314,1,84,6|8,0:0|0:0,0:0:0:0:
442,273,7980,2,0,P|477:276|497:278,2,42,0|2|8,0:0|0:0|0:0,0:0:0:0:
367,204,8428,2,0,P|371:162|381:121,1,84,2|8,0:0|0:0,0:0:0:0:
324,37,8876,2,0,P|284:41|260:46,1,42,2|0,0:0|0:0,0:0:0:0:
234,59,9100,2,0,P|213:56|192:54,1,42,8|0,0:0|0:0,0:0:0:0:
144,71,9324,6,0,P|136:114|151:164,1,84,2|8,0:0|0:0,0:0:0:0:
228,210,9772,2,0,P|231:237|229:268,2,42,0|2|8,0:0|0:0|0:0,0:0:0:0:
299,139,10219,2,0,P|344:143|393:148,1,84,2|8,0:0|0:0,0:0:0:0:
350,242,10667,2,0,P|391:237|433:234,1,84,2|8,0:0|0:0,0:0:0:0:
497,155,11115,6,0,P|492:113|482:72,1,84,2|8,0:0|0:0,0:0:0:0:
385,44,11563,2,0,P|385:23|387:2,2,42,0|2|8,0:0|0:0|0:0,0:0:0:0:
326,126,12010,1,2,0:0:0:0:
231,92,12234,1,8,0:0:0:0:
147,148,12458,2,0,P|105:143|57:140,1,84,2|8,0:0|0:0,0:0:0:0:
3,221,12906,6,0,P|31:260|34:348,2,126,6|6|14,0:0|0:0|0:0,0:0:0:0:
33,124,13801,2,8,P|52:127|94:134,3,42
109,167,14249,2,8,P|129:163|150:160,3,42
182,120,14697,5,6,0:0:0:0:
251,192,14921,2,0,B|330:211|331:156|424:178,1,168,8|8,0:0|0:0,0:0:0:0:
490,242,15592,1,2,0:0:0:0:
424,318,15816,2,0,P|393:309|325:306,1,84,8|2,0:0|0:0,0:0:0:0:
259,346,16264,1,8,0:0:0:0:
199,265,16488,6,0,P|157:269|115:275,1,84,2|8,0:0|0:0,0:0:0:0:
46,201,16936,2,0,P|11:198|-9:196,2,42,2|0|8,0:0|0:0|0:0,0:0:0:0:
138,160,17383,2,8,P|133:118|123:77,1,84,2|8,0:0|0:0,0:0:0:0:
155,38,17719,2,0,P|200:32|251:29,1,84,0|0,0:0|0:0,0:0:0:0:
284,7,18055,1,8,0:0:0:0:
380,36,18279,5,2,0:0:0:0:
323,119,18503,2,0,P|312:197|303:289,1,168,8|8,0:0|0:0,0:0:0:0:
229,215,19175,2,0,P|190:197|142:200,1,84,2|8,0:0|0:0,0:0:0:0:
54,231,19622,2,0,P|59:179|66:137,1,84,2|8,0:0|0:0,0:0:0:0:
21,55,20070,6,0,B|68:61|113:73,1,84,2|8,0:0|0:0,0:0:0:0:
196,110,20518,2,0,B|244:100|292:98,1,84,2|8,0:0|0:0,0:0:0:0:
373,62,20966,2,0,P|366:103|363:145,1,84,2|8,0:0|0:0,0:0:0:0:
325,178,21301,2,0,P|331:219|334:261,1,84,0|0,0:0|0:0,0:0:0:0:
318,309,21637,1,8,0:0:0:0:
248,235,21861,6,0,P|206:209|126:217,2,126,6|0|8,0:0|0:0|0:0,0:0:0:0:
318,309,22757,1,2,0:0:0:0:
237,369,22980,2,0,P|193:361|137:355,2,84,8|2|8,0:0|0:0|0:0,0:0:0:0:
318,309,23652,6,0,P|362:301|451:294,2,126,2|8|4,0:0|0:3|0:3,0:0:0:0:
237,369,24548,2,0,P|193:361|137:355,1,84,0|0,0:0|0:0,0:0:0:0:
74,294,24995,2,8,P|71:264|65:238,1,42,8|8,0:0|0:0,0:0:0:0:
33,228,25219,2,8,P|37:201|45:171,1,42,8|8,0:0|0:0,0:0:0:0:
75,149,25443,6,0,P|72:107|62:53,2,84,6|8|0,0:0|0:0|0:0,0:0:0:0:
138,227,26115,1,8,0:0:0:0:
138,227,26227,2,0,P|130:268|127:310,2,84,0|0|0,0:0|0:0|0:0,0:0:0:0:
165,184,26786,1,2,0:0:0:0:
249,128,27010,1,8,0:0:0:0:
329,188,27234,6,0,P|373:180|462:173,2,126,6|8|8,0:0|0:0|0:0,0:0:0:0:
227,195,28130,2,8,P|234:224|239:256,3,42,8|8|8|8,0:0|0:0|0:0|0:0,0:0:0:0:
198,270,28578,2,8,P|191:299|186:331,3,42,2|2|2|2,0:0|0:0|0:0|0:0,0:0:0:0:
168,357,29025,6,0,P|126:350|83:347,1,84,6|8,0:0|0:0,0:0:0:0:
55,249,29473,2,0,P|25:244|2:241,2,42,2|0|8,0:0|0:0|0:0,0:0:0:0:
145,202,29921,2,0,P|141:160|135:118,1,84,2|8,0:0|0:0,0:0:0:0:
72,39,30369,2,0,P|111:23|159:21,1,84,2|8,0:0|0:0,0:0:0:0:
230,84,30816,6,0,P|272:77|315:74,1,84,2|8,0:0|0:0,0:0:0:0:
401,124,31264,2,0,P|432:116|460:115,2,42,2|0|8,0:0|0:0|0:0,0:0:0:0:
325,191,31712,2,0,P|334:241|341:292,1,84,2|8,0:0|0:0,0:0:0:0:
320,321,32048,2,0,P|278:314|234:312,1,84,0|0,0:0|0:0,0:0:0:0:
189,328,32383,1,8,0:0:0:0:
105,271,32607,6,8,P|111:229|119:188,1,84,2|8,0:0|0:0,0:0:0:0:
90,91,33055,2,0,P|59:83|31:82,2,42,2|0|8,0:0|0:0|0:0,0:0:0:0:
184,127,33503,2,0,P|229:122|277:117,1,84,2|8,0:0|0:0,0:0:0:0:
318,30,33951,2,0,P|362:36|410:44,1,84,2|8,0:0|0:0,0:0:0:0:
501,32,34398,6,8,P|492:73|486:114,1,84,2|8,0:0|0:0,0:0:0:0:
445,144,34734,2,8,P|453:185|459:226,1,84,0|0,0:0|0:0,0:0:0:0:
454,275,35070,1,8,0:0:0:0:
370,331,35294,2,0,B|312:339|312:339|282:321|235:319,2,126,2|0|8,0:0|0:0|0:0,0:0:0:0:
454,275,36189,6,8,P|447:233|439:192,1,84,6|8,0:0|0:0,0:0:0:0:
397,163,36525,2,8,P|403:121|411:80,1,84,0|0,0:0|0:0,0:0:0:0:
399,30,36861,1,8,0:0:0:0:
305,66,37085,2,0,P|267:61|216:57,1,84,2|8,0:0|0:0,0:0:0:0:
123,32,37533,1,2,0:0:0:0:
159,125,37757,1,8,0:0:0:0:
103,208,37980,6,0,P|109:260|117:351,2,126,2|8|4,0:0|0:3|0:3,0:0:0:0:
159,125,38876,2,0,P|199:102|250:103,1,84,0|0,0:0|0:0,0:0:0:0:
336,83,39324,2,8,P|332:124|331:141,1,42,8|8,0:0|0:0,0:0:0:0:
296,161,39548,2,8,P|300:202|301:219,1,42,8|8,0:0|0:0,0:0:0:0:
339,234,39772,6,0,P|331:275|328:317,2,84,6|8|0,0:0|0:0|0:0,0:0:0:0:
428,187,40443,1,8,0:0:0:0:
428,187,40555,2,0,P|425:145|417:103,2,84,0|0|0,0:0|0:0|0:0,0:0:0:0:
438,236,41115,1,2,0:0:0:0:
339,234,41339,2,8,P|311:239|282:245,1,42,8|0,0:0|0:0,0:0:0:0:
258,273,41563,6,0,P|197:262|127:259,2,126,6|8|8,0:0|0:0|0:0,0:0:0:0:
342,327,42458,2,8,P|370:320|400:317,3,42,8|8|8|8,0:0|0:0|0:0|0:0,0:0:0:0:
404,272,42906,2,0,P|432:265|462:262,3,42,2|2|2|2,0:0|0:0|0:0|0:0,0:0:0:0:
481,232,43354,6,0,P|490:174|472:127,2,100.8,6|2|8,0:0|0:0|0:0,0:0:0:0:
404,272,44249,2,0,P|364:266|318:263,1,67.2,2|0,0:0|0:0,0:0:0:0:
262,217,44697,2,0,P|228:220|195:225,1,67.2,2|8,0:0|0:3,0:0:0:0:
110,247,45145,6,0,P|114:197|123:131,2,100.8,2|2|8,0:0|0:0|0:0,0:0:0:0:
88,331,46040,2,0,P|54:325|11:321,2,67.2,2|0|2,0:0|0:0|0:0,0:0:0:0:
160,379,46712,1,8,0:3:0:0:
219,315,46936,6,0,P|253:309|296:305,1,67.2,2|0,0:0|0:0,0:0:0:0:
368,332,47383,2,0,P|363:282|356:248,1,67.2,2|8,0:0|0:0,0:0:0:0:
312,191,47831,2,0,P|315:139|329:68,2,100.8,2|2|8,0:0|0:0|0:3,0:0:0:0:
359,265,48727,2,0,P|397:247|466:250,2,100.8,2|2|8,0:0|0:0|0:0,0:0:0:0:
290,319,49622,2,0,P|251:310|208:306,1,67.2,2|2,0:0|0:0,0:0:0:0:
140,334,50070,1,2,0:0:0:0:
96,257,50294,1,2,0:0:0:0:
153,190,50518,6,0,P|144:132|130:65,2,100.8,6|0|2,0:0|0:0|0:0,0:0:0:0:
96,257,51413,2,0,P|86:306|78:356,2,100.8,12|0|0,0:0|0:0|0:0,0:0:0:0:
153,190,52309,6,0,P|190:165|260:170,2,107.10000204277,6|0|2,0:0|0:0|0:0,0:0:0:0:
96,257,53204,2,0,P|43:260|-5:233,2,107.10000204277,12|0|0,0:0|0:0|0:0,0:0:0:0:
153,190,54100,6,0,P|149:132|138:60,1,113.399996539307,6|0,0:0|0:0,0:0:0:0:
172,43,54548,2,0,P|210:29|250:29,1,75.5999976928712,2|2,0:0|0:0,0:0:0:0:
321,76,54995,2,0,P|376:78|426:44,2,113.399996539307,12|0|0,0:0|0:0|0:0,0:0:0:0:
252,136,55891,6,0,P|261:210|271:299,2,151.199995385742,6|0|8,0:0|0:0|0:3,0:0:0:0:
202,59,57010,1,2,0:0:0:0:
274,4,57234,1,2,0:0:0:0:
202,59,57458,6,0,B|113:80|113:24|31:49,1,168,6|6,0:0|0:0,0:0:0:0:
0,127,58130,2,0,P|7:169|12:218,1,84,6|2,0:0|0:0,0:0:0:0:
35,255,58466,1,2,0:0:0:0:
35,255,58578,2,0,P|94:263|151:213,2,126,6|2|2,0:0|0:0|0:0,0:0:0:0:
236,78,59697,6,0,P|234:96|231:115,4,21,8|0|0|6|0,0:3|0:0|0:0|0:3|0:0,0:0:0:0:
236,78,60816,5,4,0:3:0:0:
236,78,61264,6,0,P|276:56|331:60,1,84,6|8,0:0|0:0,0:0:0:0:
409,22,61712,2,0,P|400:67|393:121,1,84,2|8,0:0|0:0,0:0:0:0:
303,148,62160,2,0,P|311:189|317:230,1,84,2|8,0:0|0:0,0:0:0:0:
394,295,62607,1,2,0:0:0:0:
307,347,62831,1,8,0:0:0:0:
394,295,63055,6,0,P|435:276|486:280,1,84,2|8,0:0|0:0,0:0:0:0:
512,184,63503,2,0,P|504:137|497:83,1,84,2|8,0:0|0:0,0:0:0:0:
430,28,63951,2,0,P|385:33|345:40,1,84,2|8,0:0|0:0,0:0:0:0:
268,100,64398,1,2,0:0:0:0:
178,52,64622,1,8,0:0:0:0:
268,100,64846,6,0,P|262:145|260:199,1,84,2|8,0:0|0:0,0:0:0:0:
325,260,65294,1,2,0:0:0:0:
248,325,65518,2,0,P|207:314|164:314,2,84,8|2|8,0:0|0:0|0:0,0:0:0:0:
325,260,66189,1,2,0:0:0:0:
360,354,66413,6,0,P|401:353|442:342,1,84,8|2,0:0|0:0,0:0:0:0:
499,259,66861,1,8,0:0:0:0:
420,195,67085,2,0,P|422:153|428:111,1,84,2|8,0:0|0:0,0:0:0:0:
352,44,67533,2,0,P|314:24|259:27,1,84,2|8,0:0|0:0,0:0:0:0:
192,82,67980,2,8,P|156:77|131:78,1,42,8|8,0:0|0:0,0:0:0:0:
112,42,68204,2,8,P|91:43|70:47,1,42,8|8,0:0|0:0,0:0:0:0:
24,76,68428,6,0,P|33:121|40:174,1,84,6|8,0:0|0:0,0:0:0:0:
126,208,68876,2,0,P|117:253|110:306,1,84,2|8,0:0|0:0,0:0:0:0:
185,360,69324,2,0,P|223:340|278:343,1,84,2|8,0:0|0:0,0:0:0:0:
310,320,69660,2,0,P|357:324|409:330,1,84,0|0,0:0|0:0,0:0:0:0:
443,318,69995,1,8,0:0:0:0:
512,245,70219,6,0,P|505:203|497:162,1,84,2|8,0:0|0:0,0:0:0:0:
399,136,70667,2,0,P|405:94|413:53,1,84,2|8,0:0|0:0,0:0:0:0:
320,12,71115,2,0,P|262:16|211:23,1,84,2|8,0:0|0:0,0:0:0:0:
196,50,71451,2,0,P|154:45|112:42,1,84,0|0,0:0|0:0,0:0:0:0:
65,62,71786,1,8,0:0:0:0:
125,142,72010,6,0,P|116:183|110:224,1,84,2|8,0:0|0:0,0:0:0:0:
111,325,72458,2,0,P|149:305|204:308,1,84,2|8,0:0|0:0,0:0:0:0:
282,344,72906,2,0,P|277:302|269:260,1,84,2|8,0:0|0:0,0:0:0:0:
199,187,73354,2,0,P|240:179|284:176,1,84,2|8,0:0|0:0,0:0:0:0:
372,131,73801,6,0,B|398:212|349:212|380:305,2,168,6|6|6,0:0|0:0|0:0,0:0:0:0:
293,66,74921,1,8,0:0:0:0:
204,114,75145,1,2,0:0:0:0:
204,114,75257,2,0,P|158:106|109:105,1,84,2|2,0:0|0:0,0:0:0:0:
75,81,75592,6,0,P|82:127|87:176,1,84,6|8,0:0|0:0,0:0:0:0:
172,217,76040,2,0,P|165:263|160:312,1,84,2|8,0:0|0:0,0:0:0:0:
222,381,76488,2,0,P|260:361|315:364,1,84,2|8,0:0|0:0,0:0:0:0:
349,346,76824,2,0,P|344:304|337:262,1,84,0|0,0:0|0:0,0:0:0:0:
323,214,77160,1,8,0:0:0:0:
233,168,77383,6,0,P|238:126|245:84,1,84,2|8,0:0|0:0,0:0:0:0:
156,35,77831,2,0,P|114:36|72:44,1,84,2|8,0:0|0:0,0:0:0:0:
0,115,78279,2,0,P|6:156|11:198,1,84,2|8,0:0|0:0,0:0:0:0:
81,257,78727,1,2,0:0:0:0:
0,318,78951,1,8,0:0:0:0:
81,257,79175,6,0,P|119:237|174:240,1,84,2|8,0:0|0:0,0:0:0:0:
239,297,79622,1,2,0:0:0:0:
322,240,79846,2,0,P|363:233|409:230,2,84,8|2|8,0:0|0:0|0:0,0:0:0:0:
239,297,80518,1,2,0:0:0:0:
322,240,80742,6,0,P|317:198|310:156,1,84,8|2,0:0|0:0,0:0:0:0:
328,57,81189,1,8,0:0:0:0:
328,57,81301,2,0,P|286:59|241:67,1,84,0|0,0:0|0:0,0:0:0:0:
200,40,81637,1,8,0:0:0:0:
114,93,81861,2,8,P|123:134|126:153,3,42,8|8|2|2,0:0|0:0|0:0|0:0,0:0:0:0:
156,172,82309,2,8,P|147:213|144:232,3,42,8|2|8|2,0:0|0:0|0:0|0:0,0:0:0:0:
163,261,82757,6,0,P|204:255|246:251,1,84,6|8,0:0|0:0,0:0:0:0:
313,176,83204,2,0,P|354:178|396:181,1,84,2|8,0:0|0:0,0:0:0:0:
483,129,83652,1,2,0:0:0:0:
410,58,83876,1,8,0:0:0:0:
483,129,84100,6,0,P|476:170|471:212,1,84,2|8,0:0|0:0,0:0:0:0:
441,308,84548,2,0,P|403:288|348:291,1,84,2|8,0:0|0:0,0:0:0:0:
270,327,84995,1,2,0:0:0:0:
196,257,85219,2,0,P|200:215|207:173,2,84,8|2|8,0:0|0:0|0:0,0:0:0:0:
270,327,85891,1,2,0:0:0:0:
294,229,86115,1,8,0:0:0:0:
196,257,86339,6,0,P|155:251|81:247,2,100.8,6|0|0,0:0|0:0|0:0,0:0:0:0:
294,229,87234,2,0,P|335:223|409:219,2,100.8,8|8|8,0:0|0:3|0:3,0:0:0:0:
187,160,88130,5,6,0:0:0:0:
186,160,88578,2,0,P|228:121|288:132,1,100.8,0|0,0:0|0:0,0:0:0:0:
308,139,89025,2,0,P|312:93|323:19,2,100.8,12|8|8,0:0|0:3|0:3,0:0:0:0:
