osu file format v14

[General]
AudioFilename: tomorrow.mp3
AudioLeadIn: 0
PreviewTime: 60257
Countdown: 0
SampleSet: Soft
StackLeniency: 0.7
Mode: 0
LetterboxInBreaks: 0
WidescreenStoryboard: 0

[Editor]
DistanceSpacing: 1.1
BeatDivisor: 4
GridSize: 4
TimelineZoom: 2.1

[Metadata]
Title:TOMORROW
TitleUnicode:TOMORROW
Artist:Machico
ArtistUnicode:Machico
Creator:Little
Version:Doormat's Normal
Source:この素晴らしい世界に祝福を!2
Tags:Kono Subarashii Sekai ni Syukufuku wo! 2 Shukufuku o! KONOSUBA -God's blessing on this wonderful world! anime opening tv size まちこ CloudSplash16 Doormat Irohas MugiwaraSekai Sekaii Sekai-nyan RepL4y xxdeathx Meg iMage--
BeatmapID:1179256
BeatmapSetID:550035

[Difficulty]
HPDrainRate:4
CircleSize:3.3
OverallDifficulty:4
ApproachRate:5.5
SliderMultiplier:1.48
SliderTickRate:2

[Events]
//Background and Video events
0,0,"6c.jpg",0,0
Video,0,"lol.avi"
//Break Periods
//Storyboard Layer 0 (Background)
//Storyboard Layer 1 (Fail)
//Storyboard Layer 2 (Pass)
//Storyboard Layer 3 (Foreground)
//Storyboard Sound Samples

[TimingPoints]
-1422,447.761194029851,4,2,1,50,1,0
7085,-100,4,2,2,50,0,0
7533,-100,4,2,1,50,0,0
61264,-100,4,2,1,50,0,1
86339,-100,4,2,1,50,0,0

[Colours]
Combo1 : 0,162,224
Combo2 : 239,0,117
Combo3 : 249,139,0
Combo4 : 161,199,2

[HitObjects]
432,108,369,6,0,L|425:181,1,74,6|2,0:0|0:0,0:0:0:0:
356,228,816,2,0,P|417:266|488:236,2,148,8|2|8,0:0|0:0|0:0,0:0:0:0:
240,112,2160,2,0,L|160:124,1,74,6|2,0:0|0:0,0:0:0:0:
124,52,2607,2,0,B|194:22|194:22|265:34,2,148,8|2|8,0:0|0:0|0:0,0:0:0:0:
36,192,3951,6,0,L|44:280,1,74,6|2,0:0|0:0,0:0:0:0:
124,288,4398,2,0,L|109:138,2,148,8|2|8,0:0|0:0|0:0,0:0:0:0:
272,356,5742,2,0,P|332:315|405:311,1,148,6|6,0:0|0:0,0:0:0:0:
488,172,6637,2,0,L|414:161,1,74,6|0,0:0|0:0,0:0:0:0:
336,184,7085,2,0,L|262:173,1,74,2|0,0:0|0:0,0:0:0:0:
228,100,7533,6,0,P|192:132|192:212,2,111,6|2|8,0:0|0:0|0:0,0:0:0:0:
196,24,8428,2,0,P|152:20|112:32,1,74,2|8,0:0|0:0,0:0:0:0:
52,68,8876,1,2,0:0:0:0:
76,228,9324,2,0,L|204:192,2,111,2|2|8,0:0|0:0|0:0,0:0:0:0:
60,308,10219,2,0,P|96:313|128:330,1,74,2|8,0:0|0:0,0:0:0:0:
196,380,10667,1,2,0:0:0:0:
347,307,11115,6,0,P|371:239|358:167,1,148,2|0,0:0|0:0,0:0:0:0:
308,100,11786,2,0,P|236:113|167:88,1,148,8|8,0:0|0:0,0:0:0:0:
108,28,12458,1,2,0:0:0:0:
24,168,12906,2,0,L|32:308,2,111,6|6|14,0:0|0:0|0:0,0:0:0:0:
108,168,13801,2,0,P|132:195|151:226,1,74,8|8,0:0|0:0,0:0:0:0:
216,280,14249,2,0,P|243:255|274:236,1,74,2|2,0:0|0:0,0:0:0:0:
356,220,14697,5,6,0:0:0:0:
324,60,15145,2,0,L|251:74,1,74,2|8,0:0|0:0,0:0:0:0:
180,116,15592,2,0,L|107:101,1,74,2|8,0:0|0:0,0:0:0:0:
28,76,16040,1,2,0:0:0:0:
12,239,16488,2,0,P|16:276|22:313,1,74,2|8,0:0|0:0,0:0:0:0:
100,344,16936,2,0,P|121:313|144:284,1,74,2|8,0:0|0:0,0:0:0:0:
224,268,17383,2,0,P|196:220|145:202,2,111,2|0|8,0:0|0:0|0:0,0:0:0:0:
244,348,18279,5,2,0:0:0:0:
396,292,18727,2,0,L|389:218,1,74,2|8,0:0|0:0,0:0:0:0:
332,160,19175,2,0,L|338:86,1,74,2|8,0:0|0:0,0:0:0:0:
344,4,19622,1,2,0:0:0:0:
188,55,20070,2,0,P|151:62|114:64,1,74,2|8,0:0|0:0,0:0:0:0:
56,124,20518,2,0,P|86:145|113:169,1,74,2|8,0:0|0:0,0:0:0:0:
136,248,20966,2,0,P|68:264|8:260,2,111,2|0|8,0:0|0:0|0:0,0:0:0:0:
192,189,21861,6,0,P|260:173|320:177,2,111,6|0|8,0:0|0:0|0:0,0:0:0:0:
136,248,22757,2,0,P|132:292|144:332,1,74,2|8,0:0|0:0,0:0:0:0:
196,380,23204,1,2,0:0:0:0:
336,296,23652,2,0,L|456:312,2,111,2|8|4,0:0|0:3|0:3,0:0:0:0:
296,224,24548,2,0,P|340:204|364:184,1,74,0|0,0:0|0:0,0:0:0:0:
420,132,24995,1,8,0:0:0:0:
289,24,25443,6,0,L|216:28,1,74,6|8,0:0|0:0,0:0:0:0:
140,64,25891,2,0,L|29:57,2,111,0|0|8,0:0|0:0|0:0,0:0:0:0:
209,108,26786,1,2,0:0:0:0:
192,272,27234,2,0,P|168:312|104:356,2,111,6|8|8,0:0|0:0|0:0,0:0:0:0:
264,232,28130,2,0,L|336:245,1,74,8|8,0:0|0:0,0:0:0:0:
392,308,28578,2,0,L|464:294,1,74,2|2,0:0|0:0,0:0:0:0:
504,224,29025,5,6,0:0:0:0:
424,80,29473,2,0,P|387:81|350:84,1,74,2|8,0:0|0:0,0:0:0:0:
276,120,29921,2,0,P|239:118|202:115,1,74,2|8,0:0|0:0,0:0:0:0:
128,80,30369,1,2,0:0:0:0:
16,200,30816,2,0,P|25:235|28:272,1,74,2|8,0:0|0:0,0:0:0:0:
96,320,31264,2,0,P|121:293|152:273,1,74,2|8,0:0|0:0,0:0:0:0:
236,272,31712,2,0,P|244:324|240:396,2,111,2|0|8,0:0|0:0|0:0,0:0:0:0:
196,200,32607,5,2,0:0:0:0:
264,52,33055,2,0,P|300:48|337:47,1,74,2|8,0:0|0:0,0:0:0:0:
403,96,33503,2,0,P|387:129|369:161,1,74,2|8,0:0|0:0,0:0:0:0:
300,208,33951,1,2,0:0:0:0:
364,356,34398,2,0,P|314:377|261:366,2,111,2|0|8,0:0|0:0|0:0,0:0:0:0:
386,276,35294,2,0,P|436:254|489:266,2,111,2|0|8,0:0|0:0|0:0,0:0:0:0:
307,298,36189,6,0,L|311:176,2,111,6|0|8,0:0|0:0|0:0,0:0:0:0:
228,276,37085,2,0,P|176:286|135:298,1,74,2|8,0:0|0:0,0:0:0:0:
81,326,37533,1,2,0:0:0:0:
8,180,37980,2,0,P|0:92|8:64,2,111,2|8|4,0:0|0:3|0:3,0:0:0:0:
84,211,38876,2,0,P|118:198|154:192,1,74,0|0,0:0|0:0,0:0:0:0:
236,208,39324,1,8,0:0:0:0:
392,152,39772,6,0,L|380:56,1,74,6|8,0:0|0:0,0:0:0:0:
464,84,40219,2,0,P|480:127|488:200,2,111,0|0|8,0:0|0:0|0:0,0:0:0:0:
428,8,41115,1,2,0:0:0:0:
272,56,41563,2,0,P|228:64|152:44,2,111,6|8|8,0:0|0:0|0:0,0:0:0:0:
312,128,42458,2,0,L|301:201,1,74,8|8,0:0|0:0,0:0:0:0:
236,252,42906,2,0,L|246:325,1,74,2|2,0:0|0:0,0:0:0:0:
314,372,43354,6,0,P|368:367|416:340,2,111,6|2|8,0:0|0:0|0:0,0:0:0:0:
246,325,44249,1,2,0:0:0:0:
84,352,44697,1,2,0:0:0:0:
12,204,45145,2,0,L|28:76,2,111,2|2|8,0:0|0:0|0:0,0:0:0:0:
84,243,46040,2,0,P|120:238|156:231,1,74,2|0,0:0|0:0,0:0:0:0:
224,184,46488,2,0,P|260:189|296:196,1,74,2|8,0:0|0:3,0:0:0:0:
372,232,46936,5,2,0:0:0:0:
460,96,47383,2,0,L|452:16,1,74,2|8,0:0|0:0,0:0:0:0:
372,40,47831,2,0,L|356:181,2,111,2|2|8,0:0|0:0|0:3,0:0:0:0:
291,57,48727,2,0,P|235:69|155:41,2,111,2|2|8,0:0|0:0|0:0,0:0:0:0:
372,40,49622,1,2,0:0:0:0:
464,176,50070,2,0,P|464:212|460:249,1,74,2|2,0:0|0:0,0:0:0:0:
444,332,50518,6,0,P|374:308|303:323,1,148,6|2,0:0|0:0,0:0:0:0:
232,364,51189,1,2,0:0:0:0:
160,324,51413,2,0,L|172:204,2,111,12|0|0,0:0|0:0|0:0,0:0:0:0:
88,364,52309,1,6,0:0:0:0:
32,212,52757,2,0,P|40:148|52:116,1,74,2|2,0:0|0:0,0:0:0:0:
116,100,53204,2,0,P|76:63|4:64,2,111,12|0|0,0:0|0:0|0:0,0:0:0:0:
148,176,54100,5,6,0:0:0:0:
268,68,54548,2,0,L|356:80,1,74,2|2,0:0|0:0,0:0:0:0:
400,136,54995,2,0,L|509:119,2,111,12|0|0,0:0|0:0|0:0,0:0:0:0:
336,188,55891,2,0,P|328:236|332:280,1,74,6|0,0:0|0:0,0:0:0:0:
352,340,56339,1,0,0:0:0:0:
192,368,56786,2,0,P|140:360|100:352,1,74,8|2,0:3|0:0,0:0:0:0:
48,312,57234,1,2,0:0:0:0:
96,244,57458,6,0,P|116:188|100:96,1,148,6|6,0:0|0:0,0:0:0:0:
60,32,58130,1,6,0:0:0:0:
223,8,58578,2,0,P|279:14|332:29,1,111,6|2,0:0|0:0,0:0:0:0:
408,128,59249,2,0,P|335:118|265:141,1,148,2|8,0:0|0:3,0:0:0:0:
204,196,59921,1,4,0:3:0:0:
484,364,60816,5,4,0:3:0:0:
344,280,61264,6,0,P|307:275|270:278,1,74,6|8,0:0|0:0,0:0:0:0:
200,320,61712,2,0,P|163:324|126:321,1,74,2|8,0:0|0:0,0:0:0:0:
48,291,62160,2,0,P|86:229|106:158,1,148,2|2,0:0|0:0,0:0:0:0:
172,108,62831,2,0,P|208:171|262:221,1,148,8|8,0:0|0:0,0:0:0:0:
340,256,63503,1,2,0:0:0:0:
476,164,63951,2,0,L|468:80,2,74,2|8|2,0:0|0:0|0:0,0:0:0:0:
456,244,64622,1,8,0:0:0:0:
416,316,64846,6,0,P|364:300|260:324,1,148,2|2,0:0|0:0,0:0:0:0:
200,356,65518,1,8,0:0:0:0:
132,308,65742,2,0,L|140:220,1,74,2|8,0:0|0:0,0:0:0:0:
144,152,66189,1,2,0:0:0:0:
224,176,66413,2,0,P|268:188|368:156,1,148,8|8,0:0|0:0,0:0:0:0:
416,96,67085,1,2,0:0:0:0:
504,231,67533,2,0,P|504:268|501:305,1,74,2|8,0:0|0:0,0:0:0:0:
436,356,67980,2,0,P|411:328|385:302,1,74,8|8,0:0|0:0,0:0:0:0:
316,256,68428,6,0,P|256:296|164:324,1,148,6|2,0:0|0:0,0:0:0:0:
104,304,69100,1,8,0:0:0:0:
48,244,69324,2,0,P|44:176|60:120,2,111,2|0|8,0:0|0:0|0:0,0:0:0:0:
128,223,70219,2,0,P|192:189|266:188,1,148,2|2,0:0|0:0,0:0:0:0:
424,228,71115,2,0,L|404:96,2,111,2|0|8,0:0|0:0|0:0,0:0:0:0:
488,277,72010,6,0,P|459:300|424:309,1,74,2|8,0:0|0:0,0:0:0:0:
352,268,72458,2,0,P|315:262|280:272,1,74,2|8,0:0|0:0,0:0:0:0:
216,324,72906,2,0,P|152:344|64:316,1,148,2|2,0:0|0:0,0:0:0:0:
28,256,73578,1,8,0:0:0:0:
8,176,73801,1,6,0:0:0:0:
127,66,74248,1,6,0:0:0:0:
268,146,74697,2,0,L|360:128,1,74,6|8,0:0|0:0,0:0:0:0:
412,92,75145,2,0,L|484:106,1,74,2|2,0:0|0:0,0:0:0:0:
512,184,75592,6,0,P|440:202|373:233,1,148,6|2,0:0|0:0,0:0:0:0:
308,284,76264,1,8,0:0:0:0:
244,232,76488,2,0,P|236:168|252:108,2,111,2|0|8,0:0|0:0|0:0,0:0:0:0:
184,288,77383,2,0,P|110:280|46:245,1,148,2|2,0:0|0:0,0:0:0:0:
24,84,78279,2,0,L|120:64,1,74,2|8,0:0|0:0,0:0:0:0:
178,84,78727,2,0,L|274:64,1,74,2|8,0:0|0:0,0:0:0:0:
320,24,79175,6,0,P|368:26|486:67,1,148,2|2,0:0|0:0,0:0:0:0:
508,124,79846,2,0,P|464:144|368:224,1,148,8|8,0:0|0:0,0:0:0:0:
328,264,80518,1,2,0:0:0:0:
176,200,80966,2,0,P|160:256|164:320,2,111,2|0|8,0:0|0:0|0:0,0:0:0:0:
128,132,81861,2,0,P|92:122|55:120,1,74,8|2,0:0|0:0,0:0:0:0:
76,40,82309,2,0,P|111:30|148:28,1,74,8|8,0:0|0:0,0:0:0:0:
232,40,82757,5,6,0:0:0:0:
300,88,82980,2,0,L|292:176,2,74,8|2|8,0:0|0:0|0:0,0:0:0:0:
356,28,83652,1,2,0:0:0:0:
480,136,84100,1,2,0:0:0:0:
460,216,84324,2,0,P|405:265|335:287,1,148,8|8,0:0|0:0,0:0:0:0:
260,256,84995,1,2,0:0:0:0:
184,287,85219,2,0,P|114:264|59:215,1,148,8|8,0:0|0:0,0:0:0:0:
40,137,85891,1,2,0:0:0:0:
172,44,86339,6,0,L|288:28,2,111,6|0|8,0:0|0:0|0:0,0:0:0:0:
188,124,87234,2,0,L|297:108,2,111,2|0|2,0:0|0:0|0:0,0:0:0:0:
139,191,88130,2,0,P|209:216|270:258,1,148,6|0,0:0|0:0,0:0:0:0:
420,328,89025,2,0,P|428:264|452:188,2,111,8|8|8,0:0|0:3|0:3,0:0:0:0:
