osu file format v14

[General]
AudioFilename: tomorrow.mp3
AudioLeadIn: 0
PreviewTime: 60257
Countdown: 0
SampleSet: Soft
StackLeniency: 0.7
Mode: 0
LetterboxInBreaks: 0
WidescreenStoryboard: 0

[Editor]
DistanceSpacing: 1.3
BeatDivisor: 4
GridSize: 4
TimelineZoom: 2.1

[Metadata]
Title:TOMORROW
TitleUnicode:TOMORROW
Artist:Machico
ArtistUnicode:Machico
Creator:Little
Version:Future
Source:この素晴らしい世界に祝福を!2
Tags:Kono Subarashii Sekai ni Syukufuku wo! 2 Shukufuku o! KONOSUBA -God's blessing on this wonderful world! anime opening tv size まちこ CloudSplash16 Doormat Irohas MugiwaraSekai Sekaii Sekai-nyan RepL4y xxdeathx Meg iMage--
BeatmapID:1164988
BeatmapSetID:550035

[Difficulty]
HPDrainRate:5.5
CircleSize:4
OverallDifficulty:8.5
ApproachRate:9.5
SliderMultiplier:3.24
SliderTickRate:2

[Events]
//Background and Video events
0,0,"6c.jpg",0,0
Video,0,"lol.avi"
//Break Periods
//Storyboard Layer 0 (Background)
//Storyboard Layer 1 (Fail)
//Storyboard Layer 2 (Pass)
//Storyboard Layer 3 (Foreground)
//Storyboard Sound Samples

[TimingPoints]
-1422,447.761194029851,4,2,1,50,1,0
369,-83.3333333333333,4,2,1,50,0,0
536,-83.3333333333333,4,2,1,5,0,0
592,-83.3333333333333,4,2,1,50,0,0
760,-83.3333333333333,4,2,1,5,0,0
816,-100,4,2,1,50,0,0
2160,-83.3333333333333,4,2,1,50,0,0
2327,-83.3333333333333,4,2,1,5,0,0
2383,-83.3333333333333,4,2,1,50,0,0
2551,-83.3333333333333,4,2,1,5,0,0
2607,-100,4,2,1,50,0,0
3951,-83.3333333333333,4,2,1,50,0,0
4119,-83.3333333333333,4,2,1,5,0,0
4174,-83.3333333333333,4,2,1,50,0,0
4342,-83.3333333333333,4,2,1,5,0,0
4398,-100,4,2,1,50,0,0
5742,-111.111111111111,4,2,1,50,0,0
6637,-100,4,2,1,50,0,0
7085,-55.5555555555556,4,2,2,50,0,0
7533,-100,4,2,1,60,0,0
14697,-100,4,2,1,50,0,0
23652,-125,4,2,1,50,0,0
24995,-100,4,2,1,50,0,0
37980,-125,4,2,1,50,0,0
39324,-100,4,2,1,50,0,0
43354,-166.666666666667,4,2,1,50,0,0
58577,-100,4,2,1,50,0,0
59249,-166.666666666667,4,2,1,50,0,0
59697,-125,4,2,1,50,0,0
61264,-90.9090909090909,4,2,1,70,0,1
86339,-166.666666666667,4,2,1,60,0,0

[Colours]
Combo1 : 0,162,224
Combo2 : 239,0,117
Combo3 : 249,139,0
Combo4 : 161,199,2

[HitObjects]
440,194,369,6,0,P|384:235|318:212,1,145.799995550537,6|0,0:0|0:0,0:0:0:0:
240,188,592,2,0,B|236:212|236:212|244:264|244:264|235:332,1,145.799995550537,2|0,0:0|0:0,0:0:0:0:
373,161,816,5,8,0:0:0:0:
292,108,928,2,0,B|289:89|289:89|292:64|292:64|288:27,1,81,2|0,0:0|0:0,0:0:0:0:
52,108,1152,5,8,0:0:0:0:
12,196,1264,1,2,0:0:0:0:
75,268,1376,2,0,P|115:276|154:265,1,81,8|0,0:0|0:0,0:0:0:0:
373,161,1600,5,2,0:0:0:0:
360,264,1712,1,8,0:0:0:0:
455,223,1824,1,2,0:0:0:0:
436,324,1936,2,0,P|405:350|367:361,1,81,2|2,0:0|0:0,0:0:0:0:
240,352,2160,6,0,P|184:311|118:334,1,145.799995550537,6|0,0:0|0:0,0:0:0:0:
41,356,2383,2,0,B|37:332|37:332|45:280|45:280|36:212,1,145.799995550537,2|0,0:0|0:0,0:0:0:0:
248,136,2607,5,8,0:0:0:0:
208,224,2719,2,0,L|127:213,1,81,2|0,0:0|0:0,0:0:0:0:
44,72,2943,5,8,0:0:0:0:
132,28,3055,1,2,0:0:0:0:
214,82,3167,1,8,0:0:0:0:
301,37,3279,2,0,L|381:26,1,81,8|2,0:0|0:0,0:0:0:0:
460,184,3503,5,8,0:0:0:0:
364,148,3615,1,2,0:0:0:0:
376,244,3727,2,0,L|384:324,1,81,2|0,0:0|0:0,0:0:0:0:
252,368,3951,6,0,P|211:312|234:246,1,145.799995550537,6|0,0:0|0:0,0:0:0:0:
256,169,4174,2,0,B|232:165|232:165|180:173|180:173|112:164,1,145.799995550537,2|0,0:0|0:0,0:0:0:0:
287,300,4398,5,8,0:0:0:0:
384,324,4510,2,0,P|422:312|462:307,1,81,2|0,0:0|0:0,0:0:0:0:
435,146,4734,5,8,0:0:0:0:
338,170,4846,1,2,0:0:0:0:
241,194,4958,2,0,P|203:182|163:177,1,81,8|0,0:0|0:0,0:0:0:0:
125,307,5182,5,2,0:0:0:0:
210,356,5294,1,8,0:0:0:0:
294,309,5406,1,2,0:0:0:0:
379,357,5518,1,2,0:0:0:0:
463,307,5630,1,2,0:0:0:0:
462,196,5742,6,0,P|406:153|337:170,1,145.799995550537,6|2,0:0|0:0,0:0:0:0:
241,194,6077,1,2,0:0:0:0:
148,156,6189,6,0,B|136:48|136:48|168:66,1,145.799995550537,6|2,0:0|0:0,0:0:0:0:
268,92,6525,1,2,0:0:0:0:
380,75,6637,5,6,0:0:0:0:
337,169,6749,1,8,0:0:0:0:
384,264,6861,1,8,0:0:0:0:
341,358,6973,1,8,0:0:0:0:
232,364,7085,2,0,L|195:359,14,36.4499988876343,2|0|0|0|0|0|0|0|0|0|0|0|0|0|0,0:0|0:0|0:0|0:0|0:0|0:0|0:0|0:0|0:0|0:0|0:0|0:0|0:0|0:0|0:0,0:0:0:0:
101,352,7533,6,0,P|67:283|113:221,1,162,6|8,0:0|0:0,0:0:0:0:
208,148,7869,1,2,0:0:0:0:
112,136,7980,2,0,L|31:125,1,81,0|2,0:0|0:0,0:0:0:0:
142,290,8204,2,0,L|222:279,1,81,8|0,0:0|0:0,0:0:0:0:
412,204,8428,6,0,P|427:166|423:127,1,81,2|0,0:0|0:0,0:0:0:0:
268,44,8652,2,0,B|248:92|248:92|272:199,1,162,8|2,0:0|0:0,0:0:0:0:
408,288,8988,1,0,0:0:0:0:
320,356,9100,1,8,0:0:0:0:
212,324,9212,1,0,0:0:0:0:
104,352,9324,6,0,B|92:312|92:312|96:280|96:280|72:195,1,162,2|8,0:0|0:0,0:0:0:0:
160,76,9660,1,2,0:0:0:0:
248,148,9771,2,0,P|252:187|236:224,1,81,0|2,0:0|0:0,0:0:0:0:
96,280,9995,2,0,L|15:269,1,81,8|0,0:0|0:0,0:0:0:0:
212,324,10219,6,0,L|293:313,1,81,2|0,0:0|0:0,0:0:0:0:
84,168,10443,1,8,0:0:0:0:
84,168,10555,1,0,0:0:0:0:
191,79,10667,2,0,L|272:68,1,81,2|0,0:0|0:0,0:0:0:0:
445,167,10891,2,0,L|364:156,1,81,8|0,0:0|0:0,0:0:0:0:
240,179,11115,5,2,0:0:0:0:
216,272,11227,1,0,0:0:0:0:
288,336,11339,2,0,P|327:330|368:329,1,81,8|2,0:0|0:0,0:0:0:0:
240,179,11563,2,0,P|200:173|160:172,1,81,0|2,0:0|0:0,0:0:0:0:
402,140,11786,2,0,L|385:301,1,162,8|2,0:0|0:0,0:0:0:0:
288,336,12122,5,0,0:0:0:0:
191,370,12234,2,0,P|154:353|114:357,1,81,8|0,0:0|0:0,0:0:0:0:
44,200,12458,5,2,0:0:0:0:
140,234,12570,1,0,0:0:0:0:
237,268,12682,2,0,P|273:251|313:255,1,81,8|0,0:0|0:0,0:0:0:0:
477,124,12906,6,0,P|424:67|349:85,1,162,6|0,0:0|0:0,0:0:0:0:
328,201,13242,2,0,B|368:235|368:235|419:199|402:141,1,162,6|0,0:0|0:0,0:0:0:0:
280,132,13578,2,0,B|241:120|241:120|201:128,1,81,14|0,0:0|0:0,0:0:0:0:
41,189,13801,5,8,0:0:0:0:
48,228,13913,1,8,0:0:0:0:
74,256,14025,1,8,0:0:0:0:
113,268,14136,1,8,0:0:0:0:
152,260,14248,5,2,0:0:0:0:
252,228,14361,1,2,0:0:0:0:
328,300,14473,1,2,0:0:0:0:
428,268,14586,1,2,0:0:0:0:
400,168,14697,6,0,P|365:148|325:149,1,81,6|0,0:0|0:0,0:0:0:0:
152,260,14921,2,0,L|135:99,1,162,8|2,0:0|0:0,0:0:0:0:
264,52,15257,1,0,0:0:0:0:
325,149,15369,2,0,P|325:189|305:223,1,81,8|0,0:0|0:0,0:0:0:0:
152,260,15592,6,0,L|71:249,1,81,2|0,0:0|0:0,0:0:0:0:
56,80,15816,1,8,0:0:0:0:
160,66,15928,1,0,0:0:0:0:
264,52,16040,2,0,L|345:41,1,81,2|0,0:0|0:0,0:0:0:0:
379,204,16264,2,0,P|345:224|305:224,1,81,8|0,0:0|0:0,0:0:0:0:
200,340,16488,6,0,L|361:357,1,162,2|8,0:0|0:0,0:0:0:0:
443,289,16824,1,0,0:0:0:0:
379,204,16936,2,0,P|338:204|304:224,1,81,2|0,0:0|0:0,0:0:0:0:
199,232,17160,1,8,0:0:0:0:
138,145,17271,1,0,0:0:0:0:
259,75,17383,6,0,L|248:156,1,81,2|0,0:0|0:0,0:0:0:0:
108,232,17607,2,0,L|119:313,1,81,8|0,0:0|0:0,0:0:0:0:
216,352,17831,1,2,0:0:0:0:
308,304,17943,1,0,0:0:0:0:
400,352,18055,2,0,P|439:346|480:345,1,81,8|0,0:0|0:0,0:0:0:0:
508,184,18279,6,0,B|466:179|466:179|435:188|435:188|347:179,1,162,2|8,0:0|0:0,0:0:0:0:
256,128,18615,1,0,0:0:0:0:
172,192,18727,2,0,L|183:273,1,81,2|0,0:0|0:0,0:0:0:0:
387,306,18950,1,8,0:0:0:0:
291,340,19062,1,0,0:0:0:0:
194,374,19174,6,0,P|158:357|118:361,1,81,2|0,0:0|0:0,0:0:0:0:
10,272,19398,2,0,P|50:276|87:259,1,81,8|0,0:0|0:0,0:0:0:0:
204,208,19622,1,2,0:0:0:0:
299,241,19734,1,0,0:0:0:0:
397,276,19846,2,0,P|433:259|473:263,1,81,8|0,0:0|0:0,0:0:0:0:
508,120,20070,6,0,L|347:103,1,162,2|8,0:0|0:0,0:0:0:0:
204,208,20406,1,0,0:0:0:0:
292,272,20518,2,0,P|331:276|368:259,1,81,2|0,0:0|0:0,0:0:0:0:
254,148,20742,2,0,P|217:130|177:135,1,81,8|0,0:0|0:0,0:0:0:0:
76,200,20966,6,0,L|65:281,1,81,2|0,0:0|0:0,0:0:0:0:
158,346,21189,1,8,0:0:0:0:
264,306,21301,2,0,B|276:258|276:258|254:148,1,162,0|0,0:0|0:0,0:0:0:0:
76,200,21637,1,8,0:0:0:0:
180,256,21749,1,0,0:0:0:0:
329,132,21861,6,0,P|276:75|201:93,1,162,6|8,0:0|0:0,0:0:0:0:
104,184,22197,1,0,0:0:0:0:
180,256,22309,2,0,P|220:250|260:249,1,81,2|0,0:0|0:0,0:0:0:0:
424,248,22533,1,8,0:0:0:0:
506,182,22645,1,0,0:0:0:0:
409,138,22757,6,0,P|369:132|329:132,1,81,2|0,0:0|0:0,0:0:0:0:
184,136,22980,1,8,0:0:0:0:
264,216,23092,1,0,0:0:0:0:
180,292,23204,2,0,P|139:298|99:298,1,81,2|0,0:0|0:0,0:0:0:0:
260,372,23428,2,0,P|300:365|340:365,1,81,8|0,0:0|0:0,0:0:0:0:
444,308,23652,5,8,0:0:0:0:
264,216,23988,1,8,0:3:0:0:
444,68,24324,2,0,B|440:104|440:104|448:132|448:132|441:195,1,129.6,4|0,0:3|0:0,0:0:0:0:
204,264,24771,6,0,P|189:235|188:203,1,64.8,0|0,0:0|0:0,0:0:0:0:
308,120,24995,1,8,0:0:0:0:
264,216,25107,1,8,0:0:0:0:
370,207,25219,1,8,0:0:0:0:
325,304,25331,1,8,0:0:0:0:
218,313,25443,6,0,P|181:295|141:300,1,81,6|0,0:0|0:0,0:0:0:0:
28,213,25667,2,0,P|68:217|104:200,1,81,8|2,0:0|0:0,0:0:0:0:
235,152,25891,2,0,L|218:313,1,162,0|8,0:0|0:0,0:0:0:0:
379,352,26227,6,0,P|397:315|392:275,1,81,0|2,0:0|0:0,0:0:0:0:
264,168,26451,1,0,0:0:0:0:
375,155,26563,2,0,L|456:144,1,81,8|0,0:0|0:0,0:0:0:0:
325,304,26786,2,0,L|164:287,1,162,2|8,0:0|0:0,0:0:0:0:
36,212,27122,1,0,0:0:0:0:
112,139,27234,6,0,P|186:122|235:181,1,162,6|2,0:0|0:0,0:0:0:0:
328,272,27570,2,0,L|409:261,1,81,8|0,0:0|0:0,0:0:0:0:
488,128,27794,1,2,0:0:0:0:
385,115,27906,2,0,L|304:104,1,81,8|0,0:0|0:0,0:0:0:0:
164,190,28130,5,8,0:0:0:0:
169,227,28242,1,8,0:0:0:0:
174,264,28354,1,8,0:0:0:0:
179,301,28466,1,8,0:0:0:0:
184,338,28577,5,2,0:0:0:0:
288,344,28689,1,2,0:0:0:0:
345,256,28801,1,2,0:0:0:0:
297,162,28913,1,2,0:0:0:0:
192,148,29025,6,0,L|111:137,1,81,6|0,0:0|0:0,0:0:0:0:
28,296,29249,2,0,P|87:345|161:322,1,162,8|2,0:0|0:0,0:0:0:0:
241,251,29585,1,0,0:0:0:0:
340,288,29697,2,0,L|329:369,1,81,8|0,0:0|0:0,0:0:0:0:
104,268,29921,6,0,P|99:228|117:192,1,81,2|0,0:0|0:0,0:0:0:0:
288,128,30145,1,8,0:0:0:0:
184,114,30257,1,0,0:0:0:0:
80,100,30369,2,0,L|-1:89,1,81,2|0,0:0|0:0,0:0:0:0:
171,241,30592,2,0,L|252:230,1,81,8|0,0:0|0:0,0:0:0:0:
440,152,30816,6,0,B|431:193|431:193|437:225|437:225|420:311,1,162,2|8,0:0|0:0,0:0:0:0:
328,364,31152,1,0,0:0:0:0:
239,306,31264,2,0,P|234:266|252:230,1,81,2|0,0:0|0:0,0:0:0:0:
332,160,31488,1,8,0:0:0:0:
318,56,31600,1,0,0:0:0:0:
212,64,31712,6,0,L|201:145,1,81,2|0,0:0|0:0,0:0:0:0:
76,204,31936,2,0,L|87:285,1,81,8|0,0:0|0:0,0:0:0:0:
180,336,32160,1,2,0:0:0:0:
276,296,32271,1,0,0:0:0:0:
376,332,32383,2,0,P|411:314|451:319,1,81,8|0,0:0|0:0,0:0:0:0:
493,177,32607,6,0,L|332:160,1,162,2|8,0:0|0:0,0:0:0:0:
184,144,32943,1,0,0:0:0:0:
76,204,33055,2,0,L|87:285,1,81,2|0,0:0|0:0,0:0:0:0:
239,310,33279,1,8,0:0:0:0:
253,206,33391,1,0,0:0:0:0:
267,102,33503,6,0,L|278:21,1,81,2|0,0:0|0:0,0:0:0:0:
92,52,33727,2,0,P|86:91|104:127,1,81,8|0,0:0|0:0,0:0:0:0:
253,206,33951,1,2,0:0:0:0:
352,168,34063,1,0,0:0:0:0:
448,212,34174,2,0,P|453:251|435:287,1,81,8|0,0:0|0:0,0:0:0:0:
280,340,34398,6,0,L|119:323,1,162,2|8,0:0|0:0,0:0:0:0:
59,190,34734,2,0,P|94:171|134:176,1,81,0|2,0:0|0:0,0:0:0:0:
253,206,34958,1,0,0:0:0:0:
119,323,35070,2,0,L|108:242,1,81,8|0,0:0|0:0,0:0:0:0:
328,260,35294,6,0,P|369:254|409:254,1,81,2|0,0:0|0:0,0:0:0:0:
480,144,35518,1,8,0:0:0:0:
308,101,35630,2,0,B|317:142|317:142|311:174|311:174|328:260,1,162,0|0,0:0|0:0,0:0:0:0:
492,252,35966,1,8,0:0:0:0:
414,334,36078,1,0,0:0:0:0:
305,365,36189,6,0,L|144:348,1,162,6|8,0:0|0:0,0:0:0:0:
48,236,36525,1,0,0:0:0:0:
132,172,36637,2,0,P|171:167|206:186,1,81,2|0,0:0|0:0,0:0:0:0:
296,336,36861,1,8,0:0:0:0:
310,232,36973,1,0,0:0:0:0:
324,128,37085,6,0,L|335:47,1,81,2|0,0:0|0:0,0:0:0:0:
132,172,37309,1,8,0:0:0:0:
108,69,37421,1,0,0:0:0:0:
0,216,37533,2,0,P|34:235|74:230,1,81,2|0,0:0|0:0,0:0:0:0:
249,142,37757,2,0,P|284:123|324:128,1,81,8|0,0:0|0:0,0:0:0:0:
472,196,37980,5,2,0:0:0:0:
192,248,38316,1,8,0:3:0:0:
396,364,38652,2,0,B|392:328|392:328|400:300|400:300|393:237,1,129.6,4|0,0:3|0:0,0:0:0:0:
246,122,39100,6,0,P|231:151|230:183,1,64.8,0|0,0:0|0:0,0:0:0:0:
350,266,39324,1,8,0:0:0:0:
306,170,39436,1,8,0:0:0:0:
412,179,39548,1,8,0:0:0:0:
458,276,39660,1,8,0:0:0:0:
396,364,39771,6,0,P|356:359|321:378,1,81,6|0,0:0|0:0,0:0:0:0:
169,285,39995,2,0,P|204:304|244:300,1,81,8|2,0:0|0:0,0:0:0:0:
367,105,40219,2,0,L|350:266,1,162,0|8,0:0|0:0,0:0:0:0:
140,198,40555,6,0,L|129:117,1,81,0|2,0:0|0:0,0:0:0:0:
268,164,40779,1,0,0:0:0:0:
169,285,40891,2,0,L|158:366,1,81,8|0,0:0|0:0,0:0:0:0:
396,364,41115,2,0,P|347:303|272:320,1,162,2|8,0:0|0:0,0:0:0:0:
169,285,41451,1,0,0:0:0:0:
268,164,41563,6,0,B|309:155|309:155|341:161|341:161|427:144,1,162,6|2,0:0|0:0,0:0:0:0:
432,40,41898,2,0,P|397:21|357:25,1,81,8|0,0:0|0:0,0:0:0:0:
160,80,42122,1,2,0:0:0:0:
193,179,42234,2,0,P|232:183|268:164,1,81,8|0,0:0|0:0,0:0:0:0:
427,144,42458,5,8,0:0:0:0:
422,181,42570,1,8,0:0:0:0:
417,218,42682,1,8,0:0:0:0:
412,255,42794,1,8,0:0:0:0:
407,292,42906,5,2,0:0:0:0:
319,349,43018,1,2,0:0:0:0:
226,301,43130,1,2,0:0:0:0:
221,196,43242,1,2,0:0:0:0:
309,138,43354,6,0,P|381:130|452:142,1,145.799995550537,6|2,0:0|0:0,0:0:0:0:
226,301,44025,1,8,0:0:0:0:
226,301,44249,2,0,P|178:304|130:296,1,97.1999970336915,2|0,0:0|0:0,0:0:0:0:
32,244,44585,1,2,0:0:0:0:
8,224,44697,2,0,L|19:127,1,97.1999970336915,2|8,0:0|0:3,0:0:0:0:
216,56,45145,6,0,P|228:127|220:199,1,145.799995550537,2|2,0:0|0:0,0:0:0:0:
19,127,45816,1,8,0:0:0:0:
19,127,46040,2,0,P|66:118|115:121,1,97.1999970336915,2|0,0:0|0:0,0:0:0:0:
232,172,46376,1,2,0:0:0:0:
252,196,46488,2,0,L|300:190,1,48.5999985168458,2|0,0:0|0:0,0:0:0:0:
400,180,46712,1,8,0:3:0:0:
388,336,46936,6,0,P|340:344|291:341,1,97.1999970336915,2|0,0:0|0:0,0:0:0:0:
188,304,47271,1,2,0:0:0:0:
164,284,47383,2,0,L|169:235,1,48.5999985168458,2|0,0:0|0:0,0:0:0:0:
180,136,47607,1,8,0:0:0:0:
340,96,47831,6,0,P|348:143|345:192,1,97.1999970336915,2|0,0:0|0:0,0:0:0:0:
308,296,48166,1,2,0:0:0:0:
288,320,48279,2,0,L|239:314,1,48.5999985168458,2|0,0:0|0:0,0:0:0:0:
140,304,48502,1,8,0:3:0:0:
100,144,48727,6,0,P|147:135|196:138,1,97.1999970336915,2|0,0:0|0:0,0:0:0:0:
304,160,49062,1,2,0:0:0:0:
324,184,49174,2,0,L|372:178,1,48.5999985168458,2|0,0:0|0:0,0:0:0:0:
472,168,49398,1,8,0:0:0:0:
312,284,49622,6,0,L|306:332,1,48.5999985168458,2|8,0:0|0:3,0:0:0:0:
152,224,49846,1,2,0:0:0:0:
152,224,50070,2,0,L|157:272,1,48.5999985168458,2|8,0:0|0:3,0:0:0:0:
324,184,50294,1,2,0:0:0:0:
208,104,50518,6,0,B|68:88|68:88|94:134,1,194.399994067383,6|2,0:0|0:0,0:0:0:0:
152,224,51189,1,2,0:0:0:0:
323,184,51413,2,0,P|372:179|420:184,1,97.1999970336915,12|0,0:0|0:0,0:0:0:0:
508,196,51749,1,0,0:0:0:0:
508,196,51861,1,2,0:0:0:0:
412,344,52085,1,0,0:0:0:0:
284,284,52309,6,0,B|179:269|202:330|96:317,1,194.399994067383,6|2,0:0|0:0,0:0:0:0:
4,264,52980,1,2,0:0:0:0:
144,139,53204,2,0,P|190:128|237:138,1,97.1999970336915,12|0,0:0|0:0,0:0:0:0:
316,180,53540,1,0,0:0:0:0:
316,180,53652,1,2,0:0:0:0:
236,336,53876,1,0,0:0:0:0:
371,368,54100,6,0,P|441:307|413:220,1,194.399994067383,6|2,0:0|0:0,0:0:0:0:
316,180,54771,1,2,0:0:0:0:
156,236,54995,2,0,P|202:248|250:244,1,97.1999970336915,12|0,0:0|0:0,0:0:0:0:
236,336,55331,2,0,P|187:331|141:344,1,97.1999970336915,0|0,0:0|0:0,0:0:0:0:
68,278,55667,1,0,0:0:0:0:
0,148,55891,6,0,L|11:51,1,97.1999970336915,6|0,0:0|0:0,0:0:0:0:
164,24,56339,2,0,L|153:121,1,97.1999970336915,0|0,0:0|0:0,0:0:0:0:
132,316,56786,1,8,0:3:0:0:
280,156,57010,1,2,0:0:0:0:
64,196,57234,1,2,0:0:0:0:
260,291,57458,6,0,P|330:276|403:278,1,145.799995550537,6|0,0:0|0:0,0:0:0:0:
492,288,57906,1,6,0:0:0:0:
280,156,58130,1,6,0:0:0:0:
480,68,58354,1,2,0:0:0:0:
480,68,58466,1,2,0:0:0:0:
480,68,58577,6,0,B|468:176|468:176|423:147,1,162,6|0,0:0|0:0,0:0:0:0:
336,74,58913,2,0,B|292:46|292:46|280:156,1,162,8|0,0:0|0:0,0:0:0:0:
268,275,59249,2,0,P|340:335|429:307,1,194.4,2|8,0:0|0:3,0:0:0:0:
476,244,59753,1,2,0:0:0:0:
480,224,59809,2,0,L|476:192,2,32.4,2|2|4,0:0|0:0|0:3,0:0:0:0:
76,140,60816,5,4,0:3:0:0:
76,140,61264,6,0,B|72:176|72:176|80:192|80:192|83:226,1,89.1000027191163,6|0,0:0|0:0,0:0:0:0:
212,320,61488,2,0,B|208:284|208:284|216:268|216:268|219:233,1,89.1000027191163,8|0,0:0|0:0,0:0:0:0:
396,156,61712,1,2,0:0:0:0:
284,136,61824,1,0,0:0:0:0:
324,280,61936,2,0,P|367:286|408:270,1,89.1000027191163,8|0,0:0|0:0,0:0:0:0:
440,84,62160,6,0,B|398:64|398:64|353:68|353:68|316:49|316:49|270:54,1,178.200005438233,2|8,0:0|0:0,0:0:0:0:
76,140,62495,2,0,P|116:156|160:150,1,89.1000027191163,0|2,0:0|0:0,0:0:0:0:
284,136,62719,1,0,0:0:0:0:
368,228,62831,2,0,L|353:316,1,89.1000027191163,8|0,0:0|0:0,0:0:0:0:
236,364,63055,6,0,P|192:370|151:354,1,89.1000027191163,2|0,0:0|0:0,0:0:0:0:
0,257,63279,2,0,P|40:241|84:248,1,89.1000027191163,8|0,0:0|0:0,0:0:0:0:
203,286,63503,1,2,0:0:0:0:
305,231,63615,1,0,0:0:0:0:
407,176,63727,2,0,L|485:134,1,89.1000027191163,8|0,0:0|0:0,0:0:0:0:
356,36,63951,6,0,P|312:28|271:44,1,89.1000027191163,2|0,0:0|0:0,0:0:0:0:
124,108,64174,2,0,P|80:115|39:99,1,89.1000027191163,8|0,0:0|0:0,0:0:0:0:
203,286,64398,1,2,0:0:0:0:
305,231,64510,2,0,P|312:187|296:146,1,89.1000027191163,0|8,0:0|0:0,0:0:0:0:
124,108,64734,1,0,0:0:0:0:
60,191,64846,6,0,B|120:219|120:219|229:197,1,178.200005438233,2|8,0:0|0:0,0:0:0:0:
408,160,65182,1,0,0:0:0:0:
368,296,65294,2,0,P|324:303|283:287,1,89.1000027191163,2|0,0:0|0:0,0:0:0:0:
84,316,65518,1,8,0:0:0:0:
192,360,65630,1,0,0:0:0:0:
283,287,65742,6,0,L|298:199,1,89.1000027191163,2|0,0:0|0:0,0:0:0:0:
45,103,65966,2,0,L|60:191,1,89.1000027191163,8|0,0:0|0:0,0:0:0:0:
198,295,66189,2,0,P|241:302|283:287,1,89.1000027191163,2|0,0:0|0:0,0:0:0:0:
392,131,66413,1,8,0:0:0:0:
272,111,66525,1,0,0:0:0:0:
152,91,66637,6,0,L|64:76,1,89.1000027191163,2|0,0:0|0:0,0:0:0:0:
157,309,66861,1,8,0:0:0:0:
233,216,66973,1,0,0:0:0:0:
113,196,67085,2,0,L|25:181,1,89.1000027191163,2|0,0:0|0:0,0:0:0:0:
37,329,67309,1,8,0:0:0:0:
157,309,67421,1,0,0:0:0:0:
277,289,67533,6,0,L|365:274,1,89.1000027191163,2|0,0:0|0:0,0:0:0:0:
113,196,67757,2,0,L|25:181,1,89.1000027191163,8|0,0:0|0:0,0:0:0:0:
265,58,67980,1,8,0:0:0:0:
369,110,68092,1,8,0:0:0:0:
375,226,68204,1,8,0:0:0:0:
277,289,68316,1,8,0:0:0:0:
173,235,68428,6,0,P|131:220|87:226,1,89.1000027191163,6|0,0:0|0:0,0:0:0:0:
12,84,68652,2,0,P|55:90|97:75,1,89.1000027191163,8|0,0:0|0:0,0:0:0:0:
265,58,68876,2,0,L|250:146,1,89.1000027191163,2|0,0:0|0:0,0:0:0:0:
277,289,69100,1,8,0:0:0:0:
375,226,69212,1,0,0:0:0:0:
484,268,69324,6,0,L|499:356,1,89.1000027191163,2|0,0:0|0:0,0:0:0:0:
277,289,69548,1,8,0:0:0:0:
375,226,69660,2,0,L|390:138,1,89.1000027191163,0|2,0:0|0:0,0:0:0:0:
179,226,69883,1,0,0:0:0:0:
277,289,69995,2,0,L|292:377,1,89.1000027191163,8|0,0:0|0:0,0:0:0:0:
81,289,70219,6,0,L|110:113,1,178.200005438233,2|8,0:0|0:0,0:0:0:0:
256,44,70555,1,0,0:0:0:0:
305,165,70667,2,0,P|261:170|220:156,1,89.1000027191163,2|0,0:0|0:0,0:0:0:0:
81,289,70891,2,0,P|124:294|166:279,1,89.1000027191163,8|0,0:0|0:0,0:0:0:0:
416,341,71115,6,0,P|361:276|277:289,1,178.200005438233,2|8,0:0|0:0,0:0:0:0:
113,196,71451,2,0,L|98:108,1,89.1000027191163,0|2,0:0|0:0,0:0:0:0:
310,87,71674,1,0,0:0:0:0:
292,201,71786,2,0,L|277:289,1,89.1000027191163,8|0,0:0|0:0,0:0:0:0:
152,360,72010,6,0,B|116:372|116:372|65:361,1,89.1000027191163,2|0,0:0|0:0,0:0:0:0:
27,197,72234,2,0,B|63:185|63:185|114:196,1,89.1000027191163,8|0,0:0|0:0,0:0:0:0:
277,289,72458,1,2,0:0:0:0:
384,256,72570,1,0,0:0:0:0:
491,223,72682,2,0,L|506:135,1,89.1000027191163,8|0,0:0|0:0,0:0:0:0:
237,49,72906,5,2,0:0:0:0:
257,169,73018,1,0,0:0:0:0:
277,289,73130,2,0,L|292:377,1,89.1000027191163,8|0,0:0|0:0,0:0:0:0:
364,136,73354,1,2,0:0:0:0:
257,169,73466,1,0,0:0:0:0:
150,202,73578,2,0,L|135:290,1,89.1000027191163,8|0,0:0|0:0,0:0:0:0:
393,312,73801,6,0,L|364:136,1,178.200005438233,6|8,0:0|0:0,0:0:0:0:
276,60,74137,1,2,0:0:0:0:
150,202,74249,2,0,P|216:256|300:235,1,178.200005438233,6|8,0:0|0:0,0:0:0:0:
364,136,74585,1,2,0:0:0:0:
164,116,74697,6,0,P|120:120|83:145,1,89.1000027191163,6|0,0:0|0:0,0:0:0:0:
16,292,74921,2,0,P|52:317|96:321,1,89.1000027191163,8|0,0:0|0:0,0:0:0:0:
208,288,75145,1,2,0:0:0:0:
312,340,75257,1,2,0:0:0:0:
409,275,75369,1,2,0:0:0:0:
401,158,75480,1,2,0:0:0:0:
295,106,75592,6,0,P|270:69|263:25,1,89.1000027191163,6|0,0:0|0:0,0:0:0:0:
111,147,75816,2,0,B|102:194|102:194|113:224|113:224|96:321,1,178.200005438233,8|2,0:0|0:0,0:0:0:0:
200,376,76152,1,0,0:0:0:0:
312,340,76264,2,0,P|318:297|302:256,1,89.1000027191163,8|0,0:0|0:0,0:0:0:0:
111,147,76488,6,0,L|199:132,1,89.1000027191163,2|0,0:0|0:0,0:0:0:0:
368,104,76712,1,8,0:0:0:0:
302,255,76824,2,0,L|214:240,1,89.1000027191163,0|2,0:0|0:0,0:0:0:0:
44,212,77048,1,0,0:0:0:0:
111,363,77160,2,0,L|199:348,1,89.1000027191163,8|0,0:0|0:0,0:0:0:0:
367,307,77383,6,0,P|383:266|377:222,1,89.1000027191163,2|0,0:0|0:0,0:0:0:0:
209,47,77607,2,0,P|193:88|199:132,1,89.1000027191163,8|0,0:0|0:0,0:0:0:0:
302,255,77831,1,2,0:0:0:0:
204,316,77943,1,0,0:0:0:0:
90,296,78055,2,0,L|2:281,1,89.1000027191163,8|0,0:0|0:0,0:0:0:0:
0,120,78279,6,0,P|41:104|85:110,1,89.1000027191163,2|0,0:0|0:0,0:0:0:0:
284,164,78503,2,0,P|327:169|368:153,1,89.1000027191163,8|0,0:0|0:0,0:0:0:0:
496,256,78727,1,2,0:0:0:0:
416,352,78839,2,0,L|328:337,1,89.1000027191163,0|8,0:0|0:0,0:0:0:0:
204,316,79063,1,0,0:0:0:0:
317,82,79174,6,0,B|326:129|326:129|315:159|315:159|332:256,1,178.200005438233,2|8,0:0|0:0,0:0:0:0:
204,316,79510,1,0,0:0:0:0:
92,264,79622,2,0,P|87:221|103:180,1,89.1000027191163,2|0,0:0|0:0,0:0:0:0:
317,82,79846,1,8,0:0:0:0:
188,48,79958,1,0,0:0:0:0:
212,188,80070,6,0,L|227:276,1,89.1000027191163,2|0,0:0|0:0,0:0:0:0:
416,352,80294,2,0,L|431:264,1,89.1000027191163,8|0,0:0|0:0,0:0:0:0:
402,92,80518,2,0,P|361:76|318:82,1,89.1000027191163,2|0,0:0|0:0,0:0:0:0:
103,209,80742,1,8,0:0:0:0:
223,229,80854,1,0,0:0:0:0:
343,249,80966,6,0,L|431:264,1,89.1000027191163,2|0,0:0|0:0,0:0:0:0:
265,342,81189,1,8,0:0:0:0:
223,229,81301,1,0,0:0:0:0:
301,136,81413,2,0,L|389:121,1,89.1000027191163,2|0,0:0|0:0,0:0:0:0:
103,209,81637,2,0,L|15:194,1,89.1000027191163,8|0,0:0|0:0,0:0:0:0:
265,342,81861,5,8,0:0:0:0:
223,229,81973,1,8,0:0:0:0:
343,249,82085,1,2,0:0:0:0:
301,136,82197,1,2,0:0:0:0:
421,156,82309,1,8,0:0:0:0:
463,269,82421,1,2,0:0:0:0:
386,361,82533,1,8,0:0:0:0:
265,342,82645,1,2,0:0:0:0:
145,322,82757,6,0,L|57:307,1,89.1000027191163,6|0,0:0|0:0,0:0:0:0:
4,156,82980,2,0,P|45:140|88:146,1,89.1000027191163,8|0,0:0|0:0,0:0:0:0:
223,229,83204,2,0,P|264:245|307:239,1,89.1000027191163,2|0,0:0|0:0,0:0:0:0:
432,108,83428,1,8,0:0:0:0:
315,88,83540,1,0,0:0:0:0:
198,68,83652,6,0,L|110:53,1,89.1000027191163,2|0,0:0|0:0,0:0:0:0:
55,228,83876,2,0,L|70:316,1,89.1000027191163,8|0,0:0|0:0,0:0:0:0:
192,348,84100,1,2,0:0:0:0:
292,272,84212,1,0,0:0:0:0:
257,151,84324,2,0,P|213:144|172:160,1,89.1000027191163,8|0,0:0|0:0,0:0:0:0:
100,305,84548,6,0,L|276:334,1,178.200005438233,2|8,0:0|0:0,0:0:0:0:
440,264,84883,1,0,0:0:0:0:
297,225,84995,2,0,P|266:193|257:151,1,89.1000027191163,2|0,0:0|0:0,0:0:0:0:
480,30,85219,1,8,0:0:0:0:
460,147,85331,1,0,0:0:0:0:
440,264,85443,6,0,L|425:352,1,89.1000027191163,2|0,0:0|0:0,0:0:0:0:
255,182,85667,1,8,0:0:0:0:
372,162,85779,2,0,L|460:147,1,89.1000027191163,0|2,0:0|0:0,0:0:0:0:
305,340,86003,1,0,0:0:0:0:
188,320,86115,2,0,L|100:305,1,89.1000027191163,8|0,0:0|0:0,0:0:0:0:
16,156,86339,6,0,P|68:109|137:122,1,145.799995550537,6|0,0:0|0:0,0:0:0:0:
248,140,86786,2,0,L|259:43,1,97.1999970336915,0|0,0:0|0:0,0:0:0:0:
90,184,87234,5,8,0:0:0:0:
380,217,87570,1,8,0:3:0:0:
93,288,87906,1,8,0:3:0:0:
93,288,88130,6,0,B|92:340|132:368|132:368|165:327,1,145.799995550537,6|0,0:0|0:0,0:0:0:0:
216,224,88578,2,0,B|217:172|177:144|177:144|144:185,1,145.799995550537
93,288,89025,5,8,0:0:0:0:
444,108,89361,1,8,0:0:0:0:
52,64,89697,1,8,0:0:0:0:
