osu file format v14

[General]
AudioFilename: tomorrow.mp3
AudioLeadIn: 0
PreviewTime: 60257
Countdown: 0
SampleSet: Soft
StackLeniency: 0.7
Mode: 0
LetterboxInBreaks: 0
WidescreenStoryboard: 0

[Editor]
DistanceSpacing: 1
BeatDivisor: 4
GridSize: 4
TimelineZoom: 2.1

[Metadata]
Title:TOMORROW
TitleUnicode:TOMORROW
Artist:Machico
ArtistUnicode:Machico
Creator:Little
Version:Easy
Source:この素晴らしい世界に祝福を!2
Tags:Kono Subarashii Sekai ni Syukufuku wo! 2 Shukufuku o! KONOSUBA -God's blessing on this wonderful world! anime opening tv size まちこ CloudSplash16 Doormat Irohas MugiwaraSekai Sekaii Sekai-nyan RepL4y xxdeathx Meg iMage--
BeatmapID:1166979
BeatmapSetID:550035

[Difficulty]
HPDrainRate:1.5
CircleSize:3
OverallDifficulty:2
ApproachRate:3.5
SliderMultiplier:1.24
SliderTickRate:2

[Events]
//Background and Video events
0,0,"6c.jpg",0,0
Video,0,"lol.avi"
//Break Periods
//Storyboard Layer 0 (Background)
//Storyboard Layer 1 (Fail)
//Storyboard Layer 2 (Pass)
//Storyboard Layer 3 (Foreground)
//Storyboard Sound Samples

[TimingPoints]
-1422,447.761194029851,4,2,1,50,1,0
7085,-100,4,2,2,50,0,0
7533,-100,4,2,1,60,0,0
14697,-100,4,2,1,50,0,0
61264,-100,4,2,1,70,0,1
86339,-100,4,2,1,60,0,0

[Colours]
Combo1 : 0,162,224
Combo2 : 239,0,117
Combo3 : 249,139,0
Combo4 : 161,199,2

[HitObjects]
120,56,369,5,6,0:0:0:0:
48,156,816,2,0,P|138:232|250:191,1,248,8|8,0:0|0:0,0:0:0:0:
340,108,2160,5,6,0:0:0:0:
448,168,2607,2,0,B|436:332|436:332|358:300,1,248,8|8,0:0|0:0,0:0:0:0:
244,252,3951,5,6,0:0:0:0:
124,280,4398,2,0,L|4:308,2,124,8|2|8,0:0|0:0|0:0,0:0:0:0:
243,252,5742,6,0,P|275:199|267:139,1,124,6|6,0:0|0:0,0:0:0:0:
172,60,6637,2,0,P|140:112|148:172,1,124,6|2,0:0|0:0,0:0:0:0:
243,252,7533,6,0,B|304:272|304:272|483:232,1,248,6|2,0:0|0:0,0:0:0:0:
504,112,8876,1,2,0:0:0:0:
396,52,9324,2,0,P|306:54|259:130,2,186,2|8|2,0:0|0:0|0:0,0:0:0:0:
504,112,11115,5,2,0:0:0:0:
384,254,11786,2,0,L|198:235,1,186,8|2,0:0|0:0,0:0:0:0:
84,188,12906,2,0,B|52:120|104:68|104:68|152:96,2,186,6|14|2,0:0|0:0|0:0,0:0:0:0:
200,236,14697,5,6,0:0:0:0:
324,216,15145,2,0,L|446:196,2,124,2|2|2,0:0|0:0|0:0,0:0:0:0:
200,236,16488,2,0,P|168:289|176:349,1,124,2|2,0:0|0:0,0:0:0:0:
300,368,17383,2,0,B|320:307|320:307|280:128,1,248,2|2,0:0|0:0,0:0:0:0:
364,36,18727,5,2,0:0:0:0:
472,96,19175,2,0,P|479:156|447:208,1,124,2|2,0:0|0:0,0:0:0:0:
324,216,20070,2,0,L|202:196,1,124,2|2,0:0|0:0,0:0:0:0:
80,176,20966,1,2,0:0:0:0:
236,368,21861,6,0,P|315:323|403:344,1,186,6|8,0:0|0:0,0:0:0:0:
492,180,23204,1,2,0:0:0:0:
400,96,23652,2,0,L|214:77,2,186,2|4|8,0:0|0:3|0:0,0:0:0:0:
492,180,25443,5,6,0:0:0:0:
408,272,25891,2,0,P|347:279|295:247,1,124,0|2,0:0|0:0,0:0:0:0:
224,148,26786,1,2,0:0:0:0:
331,89,27234,2,0,B|384:60|384:60|370:185,2,186,6|8|2,0:0|0:0|0:0,0:0:0:0:
224,148,29025,5,6,0:0:0:0:
56,332,29921,2,0,B|116:352|116:352|173:332,1,124,2|2,0:0|0:0,0:0:0:0:
292,296,30816,2,0,B|352:276|352:276|409:295,1,124,2|2,0:0|0:0,0:0:0:0:
488,200,31712,2,0,L|370:159,1,124,2|2,0:0|0:0,0:0:0:0:
252,120,32607,5,2,0:0:0:0:
68,288,33503,2,0,P|120:319|180:312,1,124,2|2,0:0|0:0,0:0:0:0:
288,252,34398,2,0,P|405:241|473:338,2,248,2|2|6,0:0|0:0|0:0,0:0:0:0:
180,312,36637,5,2,0:0:0:0:
72,252,37085,2,0,L|52:130,1,124,2|2,0:0|0:0,0:0:0:0:
152,56,37980,2,0,P|214:121|193:208,2,186,2|4|8,0:0|0:3|0:0,0:0:0:0:
51,129,39772,5,6,0:0:0:0:
72,252,40219,2,0,L|92:374,1,124,0|2,0:0|0:0,0:0:0:0:
204,320,41115,1,2,0:0:0:0:
320,364,41563,2,0,B|364:352|364:352|399:318|399:318|443:306|443:306|475:274,2,186,6|8|2,0:0|0:0|0:0,0:0:0:0:
203,319,43354,6,0,P|222:204|336:181,1,248,6|2,0:0|0:0,0:0:0:0:
452,228,44697,1,2,0:0:0:0:
392,338,45145,2,0,P|332:324|296:276,2,124,2|2|2,0:0|0:0|0:0,0:0:0:0:
444,96,46936,6,0,B|324:64|324:64|204:96,1,248,2|2,0:0|0:0,0:0:0:0:
148,208,48279,1,2,0:0:0:0:
264,252,48727,2,0,B|324:272|324:272|381:253,2,124,2|2|2,0:0|0:0|0:0,0:0:0:0:
148,208,50070,1,2,0:0:0:0:
204,96,50518,6,0,B|324:64|324:64|444:96,1,248,6|12,0:0|0:0,0:0:0:0:
364,332,52309,2,0,P|252:372|162:296,1,248,6|12,0:0|0:0,0:0:0:0:
388,192,54100,6,0,B|480:152|480:152|461:298,1,248,6|12,0:0|0:0,0:0:0:0:
226,223,55891,2,0,P|170:198|111:213,1,124,6|0,0:0|0:0,0:0:0:0:
4,276,56786,1,8,0:3:0:0:
168,364,57458,6,0,L|354:345,1,186,6|6,0:0|0:0,0:0:0:0:
376,224,58578,2,0,P|311:162|224:183,2,186,6|2|4,0:0|0:0|0:3,0:0:0:0:
168,364,60816,5,4,0:3:0:0:
52,320,61264,6,0,B|44:272|44:272|72:200|72:200|53:79,1,248,6|2,0:0|0:0,0:0:0:0:
160,16,62607,1,2,0:0:0:0:
264,84,63055,2,0,P|271:144|239:196,1,124,2|2,0:0|0:0,0:0:0:0:
152,284,63951,2,0,L|274:304,1,124,2|2,0:0|0:0,0:0:0:0:
396,280,64846,6,0,B|436:220|436:220|420:172|420:172|436:124|436:124|396:60,1,248,2|2,0:0|0:0,0:0:0:0:
276,32,66189,1,2,0:0:0:0:
168,96,66637,2,0,P|161:156|193:208,1,124,2|2,0:0|0:0,0:0:0:0:
314,240,67533,2,0,L|436:220,1,124,2|8,0:0|0:0,0:0:0:0:
504,324,68428,6,0,L|260:364,1,248,6|2,0:0|0:0,0:0:0:0:
142,321,69772,1,2,0:0:0:0:
202,213,70219,2,0,P|262:206|313:239,1,124,2|2,0:0|0:0,0:0:0:0:
436,219,71115,2,0,L|456:97,1,124,2|2,0:0|0:0,0:0:0:0:
344,40,72010,6,0,P|241:92|262:205,2,248,2|2|6,0:0|0:0|0:0,0:0:0:0:
456,96,74249,1,6,0:0:0:0:
436,219,74697,2,0,L|416:341,1,124,6|2,0:0|0:0,0:0:0:0:
296,368,75592,6,0,B|248:368|216:320|216:320|140:360|71:324,1,248,6|2,0:0|0:0,0:0:0:0:
4,220,76936,1,2,0:0:0:0:
100,144,77383,2,0,P|160:137|211:170,1,124,2|2,0:0|0:0,0:0:0:0:
328,212,78279,2,0,P|388:219|439:186,1,124,2|2,0:0|0:0,0:0:0:0:
468,64,79175,6,0,B|408:40|408:40|288:64,2,186,2|8|2,0:0|0:0|0:0,0:0:0:0:
439,185,80966,2,0,P|388:218|328:212,1,124,2|2,0:0|0:0,0:0:0:0:
211,170,81861,2,0,L|191:48,2,124,8|8|6,0:0|0:0|0:0,0:0:0:0:
327,211,83204,6,0,L|307:333,2,124,2|2|2,0:0|0:0|0:0,0:0:0:0:
448,184,84548,2,0,P|481:235|475:295,1,124,2|2,0:0|0:0,0:0:0:0:
366,356,85443,2,0,L|244:336,1,124,2|2,0:0|0:0,0:0:0:0:
120,316,86339,5,6,0:0:0:0:
328,180,87234,1,8,0:0:0:0:
92,100,88130,1,6,0:0:0:0:
328,180,89025,2,0,L|419:165,2,93,8|8|8,0:0|0:0|0:0,0:0:0:0:
