osu file format v14

[General]
AudioFilename: audio.mp3
AudioLeadIn: 0
PreviewTime: 60235
Countdown: 1
SampleSet: Soft
StackLeniency: 0.7
Mode: 3
LetterboxInBreaks: 0
SpecialStyle: 0
WidescreenStoryboard: 1

[Editor]
DistanceSpacing: 1
BeatDivisor: 4
GridSize: 4
TimelineZoom: 1.6

[Metadata]
Title:TOMORROW
TitleUnicode:TOMORROW
Artist:Machico
ArtistUnicode:Machico
Creator:Kien io
Version:Easy
Source:この素晴らしい世界に祝福を!2
Tags:Kono Subarashii Sekai ni Syukufuku wo! 2 Shukufuku o! KONOSUBA -God's blessing on this wonderful world! anime opening tv size
BeatmapID:1672220
BeatmapSetID:796340

[Difficulty]
HPDrainRate:6
CircleSize:4
OverallDifficulty:6
ApproachRate:5
SliderMultiplier:1.4
SliderTickRate:1

[Events]
//Background and Video events
0,0,"Konosuba-Gods-Blessing.jpg",0,0
Video,0,"uvu.avi"
//Break Periods
//Storyboard Layer 0 (Background)
//Storyboard Layer 1 (Fail)
//Storyboard Layer 2 (Pass)
//Storyboard Layer 3 (Foreground)
//Storyboard Layer 4 (Overlay)
//Storyboard Sound Samples

[TimingPoints]
-1422,447.761194029851,4,2,0,100,1,0
-100,-100,4,2,0,35,0,0
7533,-100,4,2,0,35,0,1
14697,-100,4,2,0,35,0,0
25443,-100,4,2,0,35,0,1
29025,-100,4,2,0,35,0,0
39772,-100,4,2,0,35,0,1
43354,-100,4,2,0,35,0,0
61264,-100,4,2,0,35,0,1
73689,-100,4,2,0,35,0,0
73801,-100,4,2,0,35,0,1
73913,-100,4,2,0,35,0,0
74249,-100,4,2,0,35,0,1
74361,-100,4,2,0,35,0,0
74697,-100,4,2,0,35,0,1
74809,-100,4,2,0,35,0,0
75592,-100,4,2,0,35,0,1
86339,-100,4,2,0,35,0,0

[HitObjects]
64,192,369,128,2,816:0:0:0:0:
448,192,816,5,0,0:0:0:0:
320,192,1264,1,0,0:0:0:0:
192,192,1712,1,0,0:0:0:0:
64,192,2160,128,2,2607:0:0:0:0:
192,192,2607,1,0,0:0:0:0:
320,192,3055,1,0,0:0:0:0:
448,192,3503,1,0,0:0:0:0:
64,192,3951,128,2,4398:0:0:0:0:
320,192,4398,1,0,0:0:0:0:
448,192,4846,1,0,0:0:0:0:
192,192,5294,1,0,0:0:0:0:
64,192,5742,128,2,6189:0:0:0:0:
448,192,6189,128,2,6637:0:0:0:0:
64,192,6637,128,2,7085:0:0:0:0:
448,192,7085,128,2,7533:0:0:0:0:
64,192,7533,1,0,0:0:0:0:
192,192,7980,1,0,0:0:0:0:
448,192,8428,1,0,0:0:0:0:
320,192,8876,1,0,0:0:0:0:
320,192,9324,1,0,0:0:0:0:
448,192,9324,1,0,0:0:0:0:
192,192,9772,1,0,0:0:0:0:
64,192,10219,1,0,0:0:0:0:
320,192,10667,1,0,0:0:0:0:
192,192,11115,1,0,0:0:0:0:
64,192,11115,1,0,0:0:0:0:
320,192,11563,1,0,0:0:0:0:
64,192,12010,1,0,0:0:0:0:
320,192,12458,1,0,0:0:0:0:
192,192,12906,128,0,14249:0:0:0:0:
64,192,12906,1,0,0:0:0:0:
448,192,13242,1,0,0:0:0:0:
320,192,13578,128,0,14249:0:0:0:0:
448,192,14249,128,0,14697:0:0:0:0:
64,192,14697,1,2,0:0:0:0:
320,192,15592,1,0,0:0:0:0:
64,192,16040,1,0,0:0:0:0:
320,192,16488,1,0,0:0:0:0:
192,192,16488,1,2,0:0:0:0:
320,192,16936,1,0,0:0:0:0:
64,192,17383,1,0,0:0:0:0:
448,192,17831,1,0,0:0:0:0:
448,192,18279,1,0,0:0:0:0:
320,192,18279,1,2,0:0:0:0:
64,192,18727,1,0,0:0:0:0:
320,192,19175,1,0,0:0:0:0:
192,192,19622,1,0,0:0:0:0:
64,192,20070,1,0,0:0:0:0:
192,192,20070,1,2,0:0:0:0:
320,192,20518,1,0,0:0:0:0:
192,192,20966,1,0,0:0:0:0:
448,192,21413,1,0,0:0:0:0:
192,192,21861,1,0,0:0:0:0:
320,192,21861,1,2,0:0:0:0:
320,192,22309,1,0,0:0:0:0:
64,192,22757,1,0,0:0:0:0:
448,192,23204,1,0,0:0:0:0:
320,192,23652,128,2,24324:0:0:0:0:
192,192,24324,128,2,24995:0:0:0:0:
64,192,24995,128,0,25443:0:0:0:0:
448,192,25443,1,4,0:0:0:0:
320,192,25891,1,0,0:0:0:0:
64,192,26339,1,0,0:0:0:0:
192,192,26786,1,0,0:0:0:0:
448,192,27234,128,0,29025:0:0:0:0:
64,192,27906,128,0,29025:0:0:0:0:
192,192,29025,1,2,0:0:0:0:
192,192,29921,1,0,0:0:0:0:
320,192,30369,1,0,0:0:0:0:
64,192,30816,1,0,0:0:0:0:
192,192,30816,1,2,0:0:0:0:
320,192,31264,1,0,0:0:0:0:
192,192,31712,1,0,0:0:0:0:
448,192,32160,1,0,0:0:0:0:
192,192,32607,1,2,0:0:0:0:
320,192,32607,1,0,0:0:0:0:
320,192,33055,1,0,0:0:0:0:
64,192,33503,1,0,0:0:0:0:
192,192,33951,1,0,0:0:0:0:
448,192,34398,1,2,0:0:0:0:
320,192,34398,1,0,0:0:0:0:
64,192,34846,1,0,0:0:0:0:
320,192,35294,1,0,0:0:0:0:
192,192,35294,1,2,0:0:0:0:
448,192,35742,1,0,0:0:0:0:
64,192,36189,1,2,0:0:0:0:
192,192,36189,1,0,0:0:0:0:
320,192,36637,1,0,0:0:0:0:
64,192,37085,1,0,0:0:0:0:
448,192,37533,1,0,0:0:0:0:
64,192,37980,128,2,38652:0:0:0:0:
192,192,38652,128,2,39772:0:0:0:0:
448,192,39324,128,0,39772:0:0:0:0:
320,192,39772,1,8,0:0:0:0:
192,192,40219,1,0,0:0:0:0:
320,192,40667,1,0,0:0:0:0:
64,192,41115,1,0,0:0:0:0:
320,192,41563,128,2,43354:0:0:0:0:
192,192,42234,128,2,43354:0:0:0:0:
64,192,43354,128,2,45145:0:0:0:0:
448,192,43354,1,0,0:0:0:0:
320,192,44249,1,0,0:0:0:0:
192,192,45145,128,0,46936:0:0:0:0:
320,192,45145,1,0,0:0:0:0:
448,192,46040,1,0,0:0:0:0:
320,192,46936,128,0,47831:0:0:0:0:
64,192,46936,1,0,0:0:0:0:
448,192,47831,128,0,48727:0:0:0:0:
192,192,48727,128,0,50518:0:0:0:0:
320,192,49622,128,0,50518:0:0:0:0:
448,192,50518,1,8,0:0:0:0:
64,192,50518,128,0,51413:0:0:0:0:
192,192,51413,128,0,52309:0:0:0:0:
320,192,51413,1,8,0:0:0:0:
448,192,52309,128,0,53204:0:0:0:0:
64,192,52309,1,8,0:0:0:0:
320,192,53204,128,0,54100:0:0:0:0:
192,192,53204,1,8,0:0:0:0:
64,192,53540,1,0,0:0:0:0:
192,192,53876,1,0,0:0:0:0:
64,192,54100,128,0,54995:0:0:0:0:
448,192,54100,1,8,0:0:0:0:
448,192,54995,128,0,55891:0:0:0:0:
320,192,54995,1,8,0:0:0:0:
192,192,55891,128,0,56786:0:0:0:0:
64,192,55891,1,8,0:0:0:0:
448,192,56786,1,8,0:0:0:0:
320,192,57122,1,8,0:0:0:0:
320,192,57458,128,0,59697:0:0:0:0:
192,192,57458,128,0,59697:0:0:0:0:
64,192,60816,128,0,61264:0:0:0:0:
448,192,60816,128,0,61264:0:0:0:0:
320,192,61264,1,4,0:0:0:0:
64,192,61712,1,0,0:0:0:0:
320,192,62160,1,0,0:0:0:0:
192,192,62607,1,0,0:0:0:0:
448,192,63055,1,0,0:0:0:0:
64,192,63503,1,0,0:0:0:0:
320,192,63951,1,0,0:0:0:0:
192,192,64398,1,0,0:0:0:0:
320,192,64846,1,0,0:0:0:0:
448,192,64846,1,2,0:0:0:0:
64,192,65294,1,0,0:0:0:0:
192,192,65742,1,2,0:0:0:0:
64,192,65742,1,0,0:0:0:0:
320,192,66189,1,0,0:0:0:0:
320,192,66637,1,0,0:0:0:0:
448,192,66637,1,2,0:0:0:0:
192,192,67085,1,0,0:0:0:0:
320,192,67533,1,0,0:0:0:0:
448,192,67980,128,2,68428:0:0:0:0:
64,192,68428,1,2,0:0:0:0:
320,192,68428,1,0,0:0:0:0:
192,192,68876,1,0,0:0:0:0:
320,192,69324,1,0,0:0:0:0:
64,192,69772,1,0,0:0:0:0:
192,192,70219,1,0,0:0:0:0:
448,192,70219,1,2,0:0:0:0:
320,192,70667,1,0,0:0:0:0:
64,192,71115,1,0,0:0:0:0:
192,192,71115,1,2,0:0:0:0:
320,192,71563,1,0,0:0:0:0:
64,192,72010,1,0,0:0:0:0:
448,192,72010,128,2,73801:0:0:0:0:
320,192,72458,1,0,0:0:0:0:
192,192,72906,1,0,0:0:0:0:
320,192,73354,1,0,0:0:0:0:
64,192,73801,128,2,74249:0:0:0:0:
192,192,74249,128,8,74697:0:0:0:0:
320,192,74697,128,2,75145:0:0:0:0:
448,192,75145,1,8,0:0:0:0:
448,192,75592,128,10,77383:0:0:0:0:
192,192,75592,1,0,0:0:0:0:
320,192,76040,1,0,0:0:0:0:
64,192,76488,1,0,0:0:0:0:
320,192,76936,1,0,0:0:0:0:
192,192,77383,1,0,0:0:0:0:
320,192,77831,1,0,0:0:0:0:
64,192,78279,1,0,0:0:0:0:
320,192,78727,1,0,0:0:0:0:
320,192,79175,1,0,0:0:0:0:
448,192,79175,1,2,0:0:0:0:
192,192,79622,1,0,0:0:0:0:
192,192,80070,1,2,0:0:0:0:
320,192,80070,1,0,0:0:0:0:
64,192,80518,1,0,0:0:0:0:
192,192,80966,1,0,0:0:0:0:
64,192,80966,128,2,82757:0:0:0:0:
192,192,81413,1,0,0:0:0:0:
320,192,81861,1,0,0:0:0:0:
448,192,81861,128,0,82757:0:0:0:0:
192,192,82309,1,0,0:0:0:0:
320,192,82757,1,2,0:0:0:0:
64,192,83204,1,0,0:0:0:0:
320,192,83652,1,0,0:0:0:0:
192,192,84100,1,0,0:0:0:0:
64,192,84548,1,0,0:0:0:0:
320,192,84548,1,2,0:0:0:0:
448,192,84995,1,0,0:0:0:0:
320,192,85443,1,0,0:0:0:0:
192,192,85443,1,2,0:0:0:0:
192,192,85891,1,0,0:0:0:0:
64,192,86339,128,2,87234:0:0:0:0:
448,192,87234,128,2,88130:0:0:0:0:
192,192,88130,128,2,89025:0:0:0:0:
448,192,88578,1,0,0:0:0:0:
320,192,89025,1,8,0:0:0:0:
64,192,89361,1,8,0:0:0:0:
448,192,89697,1,8,0:0:0:0:
192,192,89697,1,0,0:0:0:0:
