osu file format v14

[General]
AudioFilename: audio.mp3
AudioLeadIn: 0
PreviewTime: -1
Countdown: 1
SampleSet: Soft
StackLeniency: 0.2
Mode: 0
LetterboxInBreaks: 0
WidescreenStoryboard: 0

[Editor]
Bookmarks: 44194
DistanceSpacing: 1
BeatDivisor: 4
GridSize: 32
TimelineZoom: 1

[Metadata]
Title:TOMORROW
TitleUnicode:TOMORROW
Artist:Machico
ArtistUnicode:Machico
Creator:Electrovoid
Version:not today
Source:
Tags:
BeatmapID:1243070
BeatmapSetID:587027

[Difficulty]
HPDrainRate:8.8
CircleSize:4.2
OverallDifficulty:8.9
ApproachRate:9.9
SliderMultiplier:1.9
SliderTickRate:1

[Events]
//Background and Video events
0,0,"1jn63u0eyqiERq3fNzFoLkz0wlTecfru0KUnyvKLdLE.jpg",0,0
//Break Periods
2,44394,50893
//Storyboard Layer 0 (Background)
//Storyboard Layer 1 (Fail)
//Storyboard Layer 2 (Pass)
//Storyboard Layer 3 (Foreground)
//Storyboard Sound Samples

[TimingPoints]
1209,447.761194029851,4,2,0,60,1,0
6134,-66.6666666666667,4,2,0,60,0,0
13746,-66.6666666666667,4,2,0,60,0,0
15537,-66.6666666666667,4,2,0,60,0,0
62104,-66.6666666666667,4,2,0,60,0,1
87179,-66.6666666666667,4,2,0,60,0,0

[HitObjects]
256,190,1209,5,0,0:0:0:0:
256,190,1432,1,0,0:0:0:0:
131,241,2776,5,0,0:0:0:0:
131,241,3000,1,0,0:0:0:0:
390,139,3223,1,0,0:0:0:0:
121,138,4567,5,0,0:0:0:0:
121,138,4791,1,0,0:0:0:0:
380,240,5014,1,0,0:0:0:0:
147,149,6134,5,0,0:0:0:0:
329,133,6246,1,0,0:0:0:0:
220,262,6358,1,0,0:0:0:0:
329,133,6470,1,0,0:0:0:0:
350,303,6582,6,0,B|408:243,1,71.2500027179719
457,175,6806,1,0,0:0:0:0:
425,83,6917,1,0,0:0:0:0:
162,81,7029,2,0,B|94:165,1,71.2500027179719
48,216,7253,1,0,0:0:0:0:
329,133,7365,1,0,0:0:0:0:
329,133,7477,2,0,L|238:205,1,71.2500027179719
254,192,7701,1,0,0:0:0:0:
254,192,7813,1,0,0:0:0:0:
133,227,7925,5,0,0:0:0:0:
201,301,8037,1,0,0:0:0:0:
309,298,8149,1,0,0:0:0:0:
381,200,8261,1,0,0:0:0:0:
452,47,8373,6,0,L|358:81,1,71.2500027179719
293,104,8597,1,0,0:0:0:0:
188,93,8709,5,0,0:0:0:0:
94,33,8820,6,0,B|48:145,1,71.2500027179719
34,198,9044,1,0,0:0:0:0:
74,300,9156,1,0,0:0:0:0:
189,329,9268,6,0,B|270:251,1,71.2500027179719
240,279,9492,1,0,0:0:0:0:
331,190,9604,1,0,0:0:0:0:
331,190,9716,5,0,0:0:0:0:
312,91,9828,1,0,0:0:0:0:
219,36,9940,1,0,0:0:0:0:
106,81,10052,1,0,0:0:0:0:
88,220,10164,6,0,L|193:261,1,71.2500027179719
244,286,10388,1,0,0:0:0:0:
348,322,10500,1,0,0:0:0:0:
386,238,10611,6,0,B|373:140,1,71.2500027179719
369,74,10835,1,0,0:0:0:0:
272,30,10947,1,0,0:0:0:0:
175,66,11059,6,0,B|139:172,1,71.2500027179719
123,226,11283,1,0,0:0:0:0:
98,322,11395,1,0,0:0:0:0:
257,341,11507,6,0,B|346:281,1,71.2500027179719
384,245,11731,1,0,0:0:0:0:
455,177,11843,1,0,0:0:0:0:
435,39,11955,6,0,L|325:75,1,71.2500027179719
274,79,12179,1,0,0:0:0:0:
184,106,12291,1,0,0:0:0:0:
184,106,12403,2,0,L|67:157,1,71.2500027179719
29,173,12626,1,0,0:0:0:0:
73,276,12738,6,0,L|159:302,1,71.2500027179719
230,264,12962,1,0,0:0:0:0:
332,200,13074,1,0,0:0:0:0:
366,88,13186,1,0,0:0:0:0:
366,88,13298,5,0,0:0:0:0:
332,200,13410,1,0,0:0:0:0:
230,264,13522,1,0,0:0:0:0:
230,264,13634,1,0,0:0:0:0:
92,77,13746,6,0,B|135:53|135:53|266:83,1,142.500005435944
413,93,14082,2,0,B|404:141|404:141|298:224,1,142.500005435944
131,316,14417,2,0,B|174:292|174:292|305:322,1,142.500005435944
369,303,14753,1,0,0:0:0:0:
399,204,14865,1,0,0:0:0:0:
359,111,14977,1,0,0:0:0:0:
197,49,15089,6,0,L|111:175,1,142.500005435944
48,258,15425,1,0,0:0:0:0:
48,258,15537,6,0,B|109:292|109:292|253:282|253:282|346:313,1,285.000010871888
407,240,16097,1,0,0:0:0:0:
390,134,16209,1,0,0:0:0:0:
281,83,16320,1,0,0:0:0:0:
281,83,16432,2,0,P|287:158|242:219,1,142.500005435944
140,206,16768,1,0,0:0:0:0:
56,122,16880,6,0,P|122:68|196:67,1,142.500005435944
281,83,17216,1,0,0:0:0:0:
92,288,17328,6,0,P|180:288|246:242,1,142.500005435944
137,159,17664,1,0,0:0:0:0:
137,159,17776,2,0,P|212:134|292:153,1,142.500005435944
313,258,18111,1,0,0:0:0:0:
313,258,18223,2,0,P|354:201|340:120,1,142.500005435944
137,159,18559,1,0,0:0:0:0:
137,159,18671,2,0,P|87:212|93:295,1,142.500005435944
179,316,19007,1,0,0:0:0:0:
264,256,19119,5,0,0:0:0:0:
413,232,19231,1,0,0:0:0:0:
328,182,19343,1,0,0:0:0:0:
264,256,19455,1,0,0:0:0:0:
328,182,19567,2,0,L|168:176,1,142.500005435944
80,173,19903,1,0,0:0:0:0:
167,273,20014,5,0,0:0:0:0:
264,256,20126,1,0,0:0:0:0:
328,182,20238,2,0,L|261:102,1,71.2500027179719
235,49,20462,1,0,0:0:0:0:
347,34,20574,1,0,0:0:0:0:
448,86,20686,2,0,L|430:174,1,71.2500027179719
418,313,20910,5,0,0:0:0:0:
305,295,21022,1,0,0:0:0:0:
191,272,21134,2,0,L|106:195,1,71.2500027179719
71,88,21358,5,0,0:0:0:0:
191,117,21470,1,0,0:0:0:0:
313,147,21582,2,0,L|411:170,1,71.2500027179719
305,295,21806,6,0,L|217:245,1,71.2500027179719
144,307,22029,2,0,L|156:213,1,71.2500027179719
42,198,22253,2,0,L|134:140,1,71.2500027179719
192,104,22477,1,0,0:0:0:0:
300,55,22589,1,0,0:0:0:0:
425,204,22701,6,0,L|334:264,1,71.2500027179719
257,278,22925,1,0,0:0:0:0:
257,278,23037,2,0,L|156:238,1,71.2500027179719
88,209,23261,1,0,0:0:0:0:
191,148,23373,2,0,L|279:100,1,71.2500027179719
374,67,23597,5,0,0:0:0:0:
374,67,23709,1,0,0:0:0:0:
445,196,23820,2,0,L|401:271,1,71.2500027179719
418,353,24044,2,0,L|306:333,1,71.2500027179719
258,362,24268,2,0,L|222:287,1,71.2500027179719
71,267,24492,6,0,B|103:260|103:260|190:178,1,142.500005435944
449,207,24828,2,0,B|416:213|416:213|330:296,1,142.500005435944
157,66,25164,2,0,B|187:78|187:78|305:58,1,142.500005435944
410,44,25500,1,0,0:0:0:0:
345,142,25611,2,0,L|286:216,1,71.2500027179719
297,210,25835,1,0,0:0:0:0:
297,210,25910,1,0,0:0:0:0:
172,223,26059,1,0,0:0:0:0:
99,133,26171,1,0,0:0:0:0:
144,28,26283,6,0,L|235:88,1,71.2500027179719
298,43,26507,2,0,L|324:137,1,71.2500027179719
428,136,26731,2,0,L|402:221,1,71.2500027179719
351,289,26955,1,0,0:0:0:0:
234,282,27067,6,0,L|177:197,1,71.2500027179719
96,261,27291,2,0,L|128:177,1,71.2500027179719
51,128,27514,2,0,L|136:83,2,71.2500027179719
211,52,27850,1,0,0:0:0:0:
211,52,27962,1,0,0:0:0:0:
277,149,28074,6,0,B|320:125|320:125|451:155,1,142.500005435944
189,244,28410,2,0,B|232:220|232:220|363:250,1,142.500005435944
113,339,28746,2,0,B|156:315|156:315|287:345,1,142.500005435944
350,306,29082,1,0,0:0:0:0:
411,186,29194,1,0,0:0:0:0:
351,55,29306,1,0,0:0:0:0:
215,62,29417,5,0,0:0:0:0:
212,97,29529,1,0,0:0:0:0:
207,132,29641,1,0,0:0:0:0:
203,167,29753,1,0,0:0:0:0:
198,207,29865,6,0,L|177:357,1,142.500005435944
280,311,30201,1,0,0:0:0:0:
361,238,30313,6,0,L|371:148,1,71.2500027179719
337,70,30537,1,0,0:0:0:0:
231,60,30649,1,0,0:0:0:0:
131,102,30761,6,0,L|109:212,1,71.2500027179719
94,260,30985,1,0,0:0:0:0:
70,348,31097,1,0,0:0:0:0:
235,328,31209,5,0,0:0:0:0:
335,287,31320,1,0,0:0:0:0:
429,234,31432,2,0,L|497:202,1,71.2500027179719
115,80,31656,6,0,B|158:56|158:56|289:86,1,142.500005435944
156,179,31992,1,0,0:0:0:0:
156,179,32104,2,0,B|199:155|199:155|330:185,1,142.500005435944
396,201,32440,1,0,0:0:0:0:
428,313,32552,6,0,B|385:289|385:289|254:319,1,142.500005435944
84,71,32888,2,0,B|127:95|127:95|258:65,1,142.500005435944
433,221,33223,2,0,B|390:197|390:197|352:221|259:227,1,142.500005435944
197,223,33559,1,0,0:0:0:0:
80,217,33671,2,0,L|125:143,1,71.2500027179719
168,59,33895,5,0,0:0:0:0:
280,95,34007,1,0,0:0:0:0:
391,129,34119,2,0,L|471:156,1,71.2500027179719
463,249,34343,5,0,0:0:0:0:
351,285,34455,1,0,0:0:0:0:
81,267,34567,5,0,0:0:0:0:
124,157,34679,1,0,0:0:0:0:
226,93,34791,1,0,0:0:0:0:
350,112,34903,1,0,0:0:0:0:
439,189,35014,2,0,L|352:275,1,71.2500027179719
295,301,35238,6,0,B|252:325|252:325|121:295,1,142.500005435944
155,163,35574,2,0,B|198:139|198:139|329:169,1,142.500005435944
391,183,35910,1,0,0:0:0:0:
491,212,36022,1,0,0:0:0:0:
431,67,36134,6,0,B|388:91|388:91|257:61,1,142.500005435944
186,36,36470,1,0,0:0:0:0:
88,154,36582,2,0,B|131:130|131:130|262:160,1,142.500005435944
316,181,36917,1,0,0:0:0:0:
451,275,37029,6,0,L|293:321,1,142.500005435944
213,337,37365,1,0,0:0:0:0:
120,285,37477,2,0,L|92:212,1,71.2500027179719
42,142,37701,2,0,L|115:58,1,71.2500027179719
148,14,37925,1,0,0:0:0:0:
148,14,38037,5,0,0:0:0:0:
264,56,38149,2,0,L|351:90,1,71.2500027179719
443,115,38373,1,0,0:0:0:0:
355,192,38485,1,0,0:0:0:0:
257,266,38597,2,0,L|186:316,1,71.2500027179719
61,177,38820,6,0,B|104:201|104:201|235:171,1,142.500005435944
215,71,39156,2,0,B|258:47|258:47|389:77,1,142.500005435944
223,284,39492,2,0,B|266:308|266:308|397:278,1,142.500005435944
447,221,39828,1,0,0:0:0:0:
336,166,39940,2,0,L|256:124,1,71.2500027179719
57,52,40164,5,0,0:0:0:0:
66,183,40276,1,0,0:0:0:0:
176,278,40388,1,0,0:0:0:0:
317,276,40500,1,0,0:0:0:0:
447,221,40611,6,0,L|335:160,1,71.2500027179719
288,188,40835,2,0,L|255:103,1,71.2500027179719
193,48,41059,2,0,L|121:207,1,142.500005435944
50,231,41395,2,0,L|107:325,1,71.2500027179719
97,367,41619,2,0,L|219:314,1,71.2500027179719
264,291,41843,1,0,0:0:0:0:
378,340,41955,2,0,L|391:174,1,142.500005435944
394,92,42291,1,0,0:0:0:0:
302,160,42403,6,0,L|125:197,1,142.500005435944
70,160,42738,2,0,L|61:250,1,71.2500027179719
56,321,42962,1,0,0:0:0:0:
157,290,43074,2,0,L|310:240,1,142.500005435944
388,212,43410,1,0,0:0:0:0:
318,129,43522,1,0,0:0:0:0:
375,38,43634,1,0,0:0:0:0:
478,64,43746,5,0,0:0:0:0:
483,100,43858,1,0,0:0:0:0:
488,134,43970,1,0,0:0:0:0:
493,169,44082,1,0,0:0:0:0:
496,204,44194,1,0,0:0:0:0:
256,193,51358,5,0,0:0:0:0:
256,193,52253,1,0,0:0:0:0:
256,193,53149,1,0,0:0:0:0:
256,193,54044,2,0,B|241:154|241:154|391:40,2,213.750008153916
256,193,54940,1,0,0:0:0:0:
153,234,55611,5,0,0:0:0:0:
256,303,55835,2,0,L|399:232,1,142.500005435944
463,265,56171,2,0,L|464:104,1,142.500005435944
464,35,56507,2,0,L|351:83,1,71.2500027179719
319,41,56731,2,0,L|263:257,1,213.750008153916
263,333,57179,6,0,L|82:241,1,142.500005435944
102,106,57626,5,0,0:0:0:0:
426,254,57850,1,0,0:0:0:0:
90,156,58074,1,0,0:0:0:0:
433,69,58298,1,0,0:0:0:0:
411,82,58746,1,0,0:0:0:0:
411,82,58970,5,0,0:0:0:0:
378,222,59194,1,0,0:0:0:0:
378,222,59268,1,0,0:0:0:0:
378,222,59343,1,0,0:0:0:0:
378,222,59417,2,0,L|221:175,1,142.500005435944
235,48,59753,2,0,L|84:125,1,142.500005435944
15,181,60089,2,0,L|157:258,1,142.500005435944
184,62,60537,5,0,0:0:0:0:
231,62,60611,1,0,0:0:0:0:
278,62,60686,1,0,0:0:0:0:
326,62,60760,1,0,0:0:0:0:
128,128,62104,5,0,0:0:0:0:
194,298,62216,1,0,0:0:0:0:
336,116,62328,1,0,0:0:0:0:
116,279,62440,1,0,0:0:0:0:
421,265,62552,5,0,0:0:0:0:
216,61,62664,1,0,0:0:0:0:
300,278,62776,1,0,0:0:0:0:
436,94,62888,1,0,0:0:0:0:
161,178,63000,5,0,0:0:0:0:
345,67,63111,1,0,0:0:0:0:
218,295,63223,1,0,0:0:0:0:
209,46,63335,1,0,0:0:0:0:
376,285,63447,5,0,0:0:0:0:
135,200,63559,1,0,0:0:0:0:
377,104,63671,1,0,0:0:0:0:
217,311,63783,1,0,0:0:0:0:
377,104,63895,5,0,0:0:0:0:
307,169,64007,1,0,0:0:0:0:
213,211,64119,2,0,L|101:197,1,71.2500027179719
45,179,64343,6,0,L|117:96,1,71.2500027179719
178,56,64567,1,0,0:0:0:0:
299,63,64679,1,0,0:0:0:0:
436,150,64791,6,0,L|371:230,1,71.2500027179719
405,310,65014,2,0,L|284:304,1,71.2500027179719
211,289,65238,1,0,0:0:0:0:
89,270,65350,1,0,0:0:0:0:
173,190,65462,2,0,L|243:133,1,71.2500027179719
417,72,65686,5,0,0:0:0:0:
303,229,65798,1,0,0:0:0:0:
283,43,65910,1,0,0:0:0:0:
442,204,66022,1,0,0:0:0:0:
137,48,66134,6,0,L|110:159,1,71.2500027179719
54,204,66358,2,0,L|136:259,1,71.2500027179719
206,298,66582,1,0,0:0:0:0:
301,347,66694,1,0,0:0:0:0:
301,243,66806,2,0,L|291:162,1,71.2500027179719
152,81,67029,6,0,L|244:47,1,71.2500027179719
356,82,67253,1,0,0:0:0:0:
178,237,67365,1,0,0:0:0:0:
422,230,67477,5,0,0:0:0:0:
238,69,67589,1,0,0:0:0:0:
295,293,67701,1,0,0:0:0:0:
94,149,67813,1,0,0:0:0:0:
344,196,67925,5,0,0:0:0:0:
128,288,68037,1,0,0:0:0:0:
238,69,68149,1,0,0:0:0:0:
295,293,68261,1,0,0:0:0:0:
90,125,68373,6,0,L|186:196,1,71.2500027179719
251,217,68597,1,0,0:0:0:0:
372,235,68709,1,0,0:0:0:0:
437,134,68820,5,0,0:0:0:0:
255,84,68932,1,0,0:0:0:0:
75,134,69044,1,0,0:0:0:0:
75,134,69156,1,0,0:0:0:0:
118,297,69268,6,0,L|204:272,1,71.2500027179719
288,241,69492,1,0,0:0:0:0:
395,209,69604,1,0,0:0:0:0:
413,70,69716,6,0,L|331:108,1,71.2500027179719
236,144,69940,1,0,0:0:0:0:
126,197,70052,1,0,0:0:0:0:
84,53,70164,6,0,L|191:61,1,71.2500027179719
273,65,70388,1,0,0:0:0:0:
371,147,70500,1,0,0:0:0:0:
346,263,70611,1,0,0:0:0:0:
263,326,70723,1,0,0:0:0:0:
97,283,70835,2,0,L|132:187,1,71.2500027179719
148,129,71059,5,0,0:0:0:0:
241,62,71171,1,0,0:0:0:0:
357,74,71283,2,0,L|411:138,1,71.2500027179719
337,207,71507,5,0,0:0:0:0:
257,271,71619,1,0,0:0:0:0:
161,321,71731,2,0,L|70:288,1,71.2500027179719
52,187,71955,5,0,0:0:0:0:
135,98,72067,1,0,0:0:0:0:
259,88,72179,2,0,L|339:93,1,71.2500027179719
267,199,72403,5,0,0:0:0:0:
379,228,72514,1,0,0:0:0:0:
459,302,72626,2,0,L|363:329,1,71.2500027179719
300,335,72850,5,0,0:0:0:0:
110,178,72962,1,0,0:0:0:0:
349,111,73074,1,0,0:0:0:0:
170,308,73186,1,0,0:0:0:0:
145,98,73298,5,0,0:0:0:0:
332,257,73410,1,0,0:0:0:0:
267,37,73522,1,0,0:0:0:0:
141,247,73634,1,0,0:0:0:0:
389,215,73746,6,0,L|316:268,1,71.2500027179719
232,284,73970,1,0,0:0:0:0:
118,334,74082,1,0,0:0:0:0:
71,124,74194,6,0,L|202:131,1,71.2500027179719
219,186,74417,2,0,L|300:123,1,71.2500027179719
374,60,74641,6,0,L|422:218,1,142.500005435944
451,299,74977,1,0,0:0:0:0:
138,60,75089,6,0,L|90:218,1,142.500005435944
62,299,75425,1,0,0:0:0:0:
195,294,75537,5,0,0:0:0:0:
230,262,75611,1,0,0:0:0:0:
252,221,75686,1,0,0:0:0:0:
259,174,75760,1,0,0:0:0:0:
249,128,75835,1,0,0:0:0:0:
236,74,75911,1,0,0:0:0:0:
212,32,75985,5,0,0:0:0:0:
258,41,76060,1,0,0:0:0:0:
291,73,76134,1,0,0:0:0:0:
314,114,76209,1,0,0:0:0:0:
329,159,76284,1,0,0:0:0:0:
349,201,76358,1,0,0:0:0:0:
392,218,76432,5,0,0:0:0:0:
120,166,76544,1,0,0:0:0:0:
248,343,76656,1,0,0:0:0:0:
294,105,76768,1,0,0:0:0:0:
152,298,76880,5,0,0:0:0:0:
189,51,76992,1,0,0:0:0:0:
296,249,77104,1,0,0:0:0:0:
379,47,77216,1,0,0:0:0:0:
169,161,77328,5,0,0:0:0:0:
415,209,77440,1,0,0:0:0:0:
187,330,77552,1,0,0:0:0:0:
277,117,77664,1,0,0:0:0:0:
169,161,77776,5,0,0:0:0:0:
387,245,77888,1,0,0:0:0:0:
172,308,78000,1,0,0:0:0:0:
310,87,78111,1,0,0:0:0:0:
350,313,78223,6,0,L|321:226,1,71.2500027179719
286,153,78447,1,0,0:0:0:0:
183,75,78559,1,0,0:0:0:0:
53,32,78671,6,0,L|69:172,1,71.2500027179719
33,187,78895,2,0,L|138:239,1,71.2500027179719
190,338,79119,6,0,L|303:300,1,71.2500027179719
423,344,79343,2,0,L|384:235,1,71.2500027179719
481,182,79567,2,0,L|371:120,1,71.2500027179719
319,92,79791,1,0,0:0:0:0:
193,98,79903,1,0,0:0:0:0:
46,189,80014,6,0,L|112:260,1,71.2500027179719
190,338,80238,2,0,L|299:287,1,71.2500027179719
428,228,80462,6,0,L|335:153,1,71.2500027179719
259,196,80686,2,0,L|225:92,1,71.2500027179719
201,32,80910,1,0,0:0:0:0:
133,131,81022,1,0,0:0:0:0:
68,233,81134,2,0,L|153:298,1,71.2500027179719
180,350,81358,6,0,L|274:325,1,71.2500027179719
400,303,81582,1,0,0:0:0:0:
178,136,81694,1,0,0:0:0:0:
460,165,81806,5,0,0:0:0:0:
180,350,81917,1,0,0:0:0:0:
433,306,82029,1,0,0:0:0:0:
149,206,82141,1,0,0:0:0:0:
408,94,82253,5,0,0:0:0:0:
299,331,82365,1,0,0:0:0:0:
251,62,82477,1,0,0:0:0:0:
433,306,82589,1,0,0:0:0:0:
127,77,82701,5,0,0:0:0:0:
414,193,82813,1,0,0:0:0:0:
113,268,82925,1,0,0:0:0:0:
312,30,83037,1,0,0:0:0:0:
291,341,83149,1,0,0:0:0:0:
127,77,83261,1,0,0:0:0:0:
415,193,83373,1,0,0:0:0:0:
113,268,83485,1,0,0:0:0:0:
312,30,83597,6,0,L|267:136,1,71.2500027179719
237,186,83820,1,0,0:0:0:0:
239,294,83932,1,0,0:0:0:0:
141,334,84044,6,0,L|95:228,1,71.2500027179719
65,178,84267,1,0,0:0:0:0:
16,81,84379,1,0,0:0:0:0:
185,85,84492,6,0,L|292:109,1,71.2500027179719
392,119,84716,2,0,L|435:214,1,71.2500027179719
440,316,84940,6,0,L|345:306,1,71.2500027179719
246,347,85164,2,0,L|147:254,1,71.2500027179719
77,88,85388,6,0,L|188:125,1,71.2500027179719
170,204,85611,2,0,L|258:155,1,71.2500027179719
327,109,85835,1,0,0:0:0:0:
442,106,85947,1,0,0:0:0:0:
396,204,86059,2,0,L|342:291,1,71.2500027179719
280,345,86283,6,0,L|126:278,1,142.500005435944
64,309,86619,2,0,L|87:149,1,142.500005435944
33,98,86955,2,0,L|161:50,1,71.2500027179719
185,177,87179,6,0,L|345:88,1,142.500005435944
395,33,87514,2,0,L|402:190,1,142.500005435944
404,297,87850,1,0,0:0:0:0:
313,346,87962,1,0,0:0:0:0:
77,346,88074,6,0,L|154:263,1,71.2500027179719
75,210,88298,2,0,L|171:157,1,71.2500027179719
241,119,88522,5,0,0:0:0:0:
377,58,88634,1,0,0:0:0:0:
477,169,88746,1,0,0:0:0:0:
402,298,88858,1,0,0:0:0:0:
252,267,88970,2,0,L|77:213,1,142.500005435944
84,63,89417,6,0,L|205:159,1,142.500005435944
401,96,89865,5,0,0:0:0:0:
343,222,90201,1,0,0:0:0:0:
203,260,90537,1,0,0:0:0:0:
