osu file format v14

[General]
AudioFilename: audio.mp3
AudioLeadIn: 0
PreviewTime: 57982
Countdown: 0
SampleSet: Soft
StackLeniency: 0.7
Mode: 0
LetterboxInBreaks: 0
WidescreenStoryboard: 1

[Editor]
Bookmarks: 11490,21700,34265,44160
DistanceSpacing: 1
BeatDivisor: 4
GridSize: 32
TimelineZoom: 2.799999

[Metadata]
Title:STAND UP!
TitleUnicode:STAND UP!
Artist:Machico
ArtistUnicode:Machico
Creator:Riene
Version:A New Adventure
Source:この素晴らしい世界に祝福を! 〜希望の迷宮と集いし冒険者たち〜
Tags:kono subarashii sekai ni syukufuku wo! meeting with the labyrinth of hope and adventure tv size machico game opening
BeatmapID:1978853
BeatmapSetID:928467

[Difficulty]
HPDrainRate:6.2
CircleSize:4
OverallDifficulty:9.2
ApproachRate:9.4
SliderMultiplier:1.9
SliderTickRate:1

[Events]
//Background and Video events
0,0,"chrome_2019-02-11_14-36-33.jpg",0,0
//Break Periods
//Storyboard Layer 0 (Background)
//Storyboard Layer 1 (Fail)
//Storyboard Layer 2 (Pass)
//Storyboard Layer 3 (Foreground)
//Storyboard Layer 4 (Overlay)
//Storyboard Sound Samples

[TimingPoints]
332,314.13612565445,4,2,1,60,1,0
1431,314.13612565445,4,2,1,60,1,0
5199,-86.9565217391304,4,2,1,60,0,0
5200,-86.9565217391304,4,2,1,50,0,0
5670,-100,4,2,1,50,0,0
10225,-83.3333333333333,4,2,1,50,0,0
10697,-100,4,2,1,50,0,0
11482,-100,4,2,1,60,0,0
21377,-83.3333333333333,4,2,1,60,0,0
21613,-83.3333333333333,4,2,1,60,0,0
21691,-83.3333333333333,4,2,1,60,0,0
21692,314.13612565445,4,2,1,60,1,0
22006,-125,4,2,1,40,0,0
23734,-125,4,2,1,50,0,0
24205,-125,4,2,1,60,0,0
24519,-125,4,2,1,40,0,0
26090,-125,4,2,1,50,0,0
26718,-100,4,2,1,50,0,0
29231,-111.111111111111,4,2,1,50,0,0
31744,-111.111111111111,4,2,1,60,0,0
32058,-111.111111111111,4,2,1,50,0,0
33943,-83.3333333333333,4,2,1,50,0,0
34179,-83.3333333333333,4,2,1,5,0,0
34257,-100,4,2,1,60,0,0
36770,-111.111111111111,4,2,1,50,0,0
37791,-111.111111111111,4,2,1,5,0,0
37870,-111.111111111111,4,2,1,50,0,0
39125,-100,4,2,1,50,0,0
39126,314.13612565445,4,2,1,50,1,0
43365,-76.9230769230769,4,2,1,50,0,0
43680,-100,4,2,1,50,0,0
44151,-100,4,2,1,70,0,0
49178,-100,4,2,1,50,0,0
54204,-125,4,2,1,50,0,0
54518,-125,4,2,1,60,0,0
57973,-250,4,2,1,60,0,0
58916,-250,4,2,1,5,0,0
59073,-250,4,2,1,60,0,0
59230,-83.3333333333333,4,2,1,80,0,1
84518,314.13612565445,4,2,1,80,1,1
84518,-83.3333333333333,4,2,1,80,0,1
84832,-83.3333333333333,4,2,1,90,0,1
89387,314.13612565445,4,2,1,90,1,1
89387,-83.3333333333333,4,2,1,90,0,1
89701,-83.3333333333333,4,2,1,80,0,1
93156,-117.64705882353,4,2,1,80,0,0
93235,-105.263157894737,4,2,1,80,0,0
94256,-100,4,2,1,80,0,0
94413,-100,4,2,1,60,0,0
98182,-83.3333333333333,4,2,1,60,0,0
98496,-83.3333333333333,4,2,1,60,0,0
98497,-83.3333333333333,4,2,1,5,0,0

[Colours]
Combo1 : 168,85,49
Combo2 : 196,55,55
Combo3 : 119,187,255
Combo4 : 255,236,125

[HitObjects]
428,68,331,5,2,1:2:0:0:
428,68,645,1,2,1:2:0:0:
428,68,959,1,2,1:2:0:0:
475,158,1273,1,2,1:2:0:0:
409,231,1431,6,0,P|379:174|443:59,1,190,14|2,0:2|0:2,0:0:0:0:
424,243,1902,2,0,P|364:256|325:235,1,95,2|0,1:2|0:2,0:0:0:0:
215,84,2216,1,2,1:2:0:0:
215,84,2373,2,0,L|322:74,1,95,8|0,0:2|0:0,0:0:0:0:
251,210,2687,6,0,B|187:196|187:196|139:217|139:217|58:200,1,190,6|2,0:2|0:2,0:0:0:0:
174,367,3158,2,0,P|201:322|194:274,1,95,2|0,1:2|0:2,0:0:0:0:
129,134,3472,1,2,1:2:0:0:
129,134,3629,2,0,L|20:116,1,95,8|0,0:2|0:0,0:0:0:0:
47,270,3944,6,0,B|100:299|140:280|140:280|189:256|241:285,1,190,6|2,0:2|0:2,0:0:0:0:
353,366,4415,2,0,L|364:266,1,95,2|0,1:2|0:0,0:0:0:0:
269,83,4729,1,2,1:2:0:0:
269,83,4886,2,0,L|279:177,1,95,8|0,0:2|0:0,0:0:0:0:
132,60,5200,6,0,B|149:222|149:222|182:161,1,218.500004167557,6|2,0:2|1:2,0:0:0:0:
51,103,5671,1,10,0:2:0:0:
210,278,5828,1,8,0:2:0:0:
210,278,5907,1,8,0:2:0:0:
210,278,5985,5,8,0:2:0:0:
59,240,6143,1,2,1:2:0:0:
43,228,6457,6,0,B|44:263|76:289|76:289|102:252|110:203|83:141,1,190,6|2,0:2|0:2,0:0:0:0:
34,93,6928,2,0,P|78:71|127:77,1,95,2|0,1:2|0:2,0:0:0:0:
237,145,7242,1,2,1:2:0:0:
237,145,7399,2,0,P|281:167|330:161,1,95,8|0,0:2|0:0,0:0:0:0:
464,119,7713,6,0,B|424:89|424:89|437:243,1,190,6|2,0:2|0:2,0:0:0:0:
332,354,8184,2,0,L|343:245,1,95,2|0,1:2|0:2,0:0:0:0:
218,357,8499,1,2,1:2:0:0:
218,357,8656,2,0,L|207:248,1,95,8|0,0:2|0:0,0:0:0:0:
72,169,8970,6,0,B|125:198|165:179|165:179|214:155|266:184,1,190,6|2,0:2|0:2,0:0:0:0:
126,97,9441,2,0,P|78:80|31:92,1,95,2|0,1:2|0:0,0:0:0:0:
65,266,9755,1,2,1:0:0:0:
65,266,9912,2,0,P|113:283|160:271,1,95,8|0,0:0|0:0,0:0:0:0:
307,102,10226,6,0,B|307:69|281:33|281:33|228:106|259:194,1,227.999993041992,6|2,0:2|0:2,0:0:0:0:
300,326,10698,1,8,0:2:0:0:
154,273,10855,1,8,0:2:0:0:
154,273,10933,1,8,0:2:0:0:
154,273,11012,5,8,0:2:0:0:
407,217,11169,1,2,1:2:0:0:
428,210,11483,6,0,B|370:235|317:213|317:213|277:197|234:213,1,190,6|0,1:2|1:2,0:0:0:0:
75,376,11954,1,8,0:2:0:0:
263,287,12111,1,0,0:2:0:0:
80,141,12268,1,2,1:2:0:0:
214,350,12425,2,0,P|265:370|315:345,1,95,2|8,1:2|0:2,0:0:0:0:
198,187,12739,6,0,B|120:172|120:172|87:187|87:187|-9:169,1,190,2|2,1:2|1:2,0:0:0:0:
245,97,13211,1,10,0:2:0:0:
105,297,13368,1,0,0:2:0:0:
70,52,13525,1,2,1:2:0:0:
287,183,13682,2,0,P|242:199|197:186,1,95,2|8,1:2|0:2,0:0:0:0:
381,71,13996,6,0,B|371:138|371:138|380:172|380:172|367:268,1,190,6|2,0:2|1:2,0:0:0:0:
470,117,14467,1,10,0:2:0:0:
277,196,14624,1,0,0:2:0:0:
469,300,14781,1,2,1:2:0:0:
324,127,14938,2,0,P|274:112|233:125,1,95,2|8,1:2|0:2,0:0:0:0:
53,287,15252,6,0,B|113:256|113:256|265:275,1,190,2|2,1:2|1:2,0:0:0:0:
478,317,15724,2,0,B|427:331|427:331|376:317,1,95,8|0,0:2|0:2,0:0:0:0:
372,300,15959,1,0,0:0:0:0:
372,300,16038,5,2,1:2:0:0:
426,56,16195,1,2,1:2:0:0:
512,246,16352,1,8,0:2:0:0:
275,350,16509,6,0,B|284:270|284:270|267:237|267:237|276:165,1,190,4|2,0:2|1:2,0:0:0:0:
117,36,16980,1,10,0:2:0:0:
178,248,17137,1,0,0:2:0:0:
305,28,17294,1,2,1:2:0:0:
61,115,17451,2,0,P|107:135|156:119,1,95,2|8,1:2|0:2,0:0:0:0:
426,56,17766,6,0,B|344:38|344:38|306:48|306:48|230:36,1,190,2|2,1:2|1:2,0:0:0:0:
103,209,18237,1,10,0:2:0:0:
330,125,18394,1,0,0:2:0:0:
148,0,18551,1,2,1:2:0:0:
178,248,18708,2,0,L|192:348,1,95,2|8,1:2|0:2,0:0:0:0:
11,264,19022,6,0,B|23:178|23:178|41:153|41:153|56:61,1,190,6|2,0:2|1:2,0:0:0:0:
267,246,19493,2,0,P|222:260|171:243,1,95,10|0,0:2|0:2,0:0:0:0:
284,87,19807,1,2,1:2:0:0:
370,304,19965,1,8,0:2:0:0:
370,304,20043,1,8,0:2:0:0:
370,304,20122,1,8,0:2:0:0:
478,177,20279,6,0,B|420:153|381:173|381:173|339:195|288:167,1,190,4|0,0:2|1:2,0:0:0:0:
86,263,20750,2,0,P|152:243|182:249,1,95,8|0,0:2|1:2,0:0:0:0:
436,314,21064,1,8,0:2:0:0:
405,331,21143,1,0,1:2:0:0:
370,337,21221,1,0,1:2:0:0:
335,331,21300,1,0,1:2:0:0:
304,313,21378,2,0,B|292:182|292:182|320:210,1,170.999994781494,12|0,0:2|0:0,0:0:0:0:
340,230,21692,5,8,0:2:0:0:
220,351,21849,1,8,0:2:0:0:
129,245,22006,6,0,L|29:251,1,76,2|0,1:2|0:0,0:0:0:0:
219,176,22320,2,0,L|294:171,2,76,2|0|2,1:2|0:0|0:0,0:0:0:0:
375,127,22791,1,2,0:0:0:0:
375,127,22948,2,0,P|386:172|375:200,1,76,2|0,1:2|0:0,0:0:0:0:
257,96,23262,1,2,1:2:0:0:
314,259,23419,2,0,P|368:282|394:277,1,76,2|0,0:0|0:0,0:0:0:0:
485,195,23733,5,2,0:2:0:0:
485,195,23812,1,2,0:2:0:0:
485,195,23890,1,2,0:2:0:0:
296,268,24048,1,2,0:2:0:0:
471,368,24205,5,8,0:2:0:0:
401,132,24362,1,8,0:2:0:0:
216,314,24519,6,0,P|204:277|213:237,1,76,2|0,1:2|0:0,0:0:0:0:
378,311,24833,2,0,P|351:339|312:352,1,76,2|0,1:2|0:0,0:0:0:0:
298,180,25147,2,0,P|336:188|366:215,1,76,2|0,1:2|0:0,0:0:0:0:
216,314,25461,1,2,1:2:0:0:
99,217,25618,2,0,L|12:225,2,76,2|0|2,0:0|0:0|0:0,0:0:0:0:
216,314,26089,5,8,0:2:0:0:
192,330,26168,1,0,1:2:0:0:
165,339,26246,1,0,1:2:0:0:
137,339,26325,1,0,1:2:0:0:
110,331,26404,2,0,L|98:205,1,114,8|0,0:2|0:0,0:0:0:0:
127,124,26718,6,0,B|171:165|171:165|189:313,1,190,6|8,0:2|0:2,0:0:0:0:
260,122,27189,1,2,0:2:0:0:
375,241,27346,2,0,L|361:358,1,95,2|0,0:2|0:2,0:0:0:0:
465,186,27660,1,8,0:2:0:0:
273,231,27817,1,2,1:2:0:0:
416,112,27974,6,0,P|465:97|508:109,1,95,6|0,0:2|0:0,0:0:0:0:
375,241,28288,1,8,0:2:0:0:
260,122,28445,2,0,P|246:73|267:20,1,95,2|0,0:2|1:2,0:0:0:0:
416,112,28760,1,10,0:2:0:0:
416,112,28838,1,8,0:2:0:0:
416,112,28917,1,10,0:2:0:0:
273,231,29074,1,0,1:2:0:0:
115,127,29231,5,8,0:2:0:0:
167,346,29388,1,8,0:2:0:0:
80,213,29545,6,0,P|33:200|-3:213,1,85.4999973907472,2|2,1:2|0:0,0:0:0:0:
167,346,29859,2,0,L|263:332,1,85.4999973907472,2|0,0:2|0:0,0:0:0:0:
352,225,30173,2,0,P|311:215|257:243,1,85.4999973907472,2|0,1:2|0:0,0:0:0:0:
375,365,30487,2,0,L|471:351,1,85.4999973907472,2|0,1:2|0:0,0:0:0:0:
272,230,30801,1,2,1:2:0:0:
272,230,30959,2,0,L|187:242,1,85.4999973907472,2|0,0:2|0:0,0:0:0:0:
88,308,31273,2,0,B|72:262|72:262|86:211,1,85.4999973907472,2|0,0:0|0:0,0:0:0:0:
132,72,31587,1,2,0:0:0:0:
0,158,31744,5,8,2:2:0:0:
272,230,31901,1,8,2:2:0:0:
132,72,32058,6,0,P|92:53|44:65,1,85.4999973907472,2|0,1:2|0:0,0:0:0:0:
177,150,32372,2,0,P|213:124|227:77,1,85.4999973907472,2|0,1:2|0:0,0:0:0:0:
84,139,32686,2,0,P|87:183|121:218,1,85.4999973907472,2|0,1:2|0:0,0:0:0:0:
132,72,33000,1,2,1:2:0:0:
6,181,33157,2,0,L|14:275,1,85.4999973907472,2|0,0:2|0:0,0:0:0:0:
123,366,33472,5,8,0:2:0:0:
123,366,33550,1,8,0:2:0:0:
123,366,33629,1,8,0:2:0:0:
113,213,33786,1,0,1:2:0:0:
220,336,33943,2,0,B|254:363|301:342|301:342|315:355|315:355|351:333|411:365,1,170.999994781494,8|0,0:2|0:0,0:0:0:0:
458,269,34257,6,0,P|474:220|396:264,1,190,6|8,0:2|0:2,0:0:0:0:
470,364,34728,1,2,0:2:0:0:
383,236,34885,2,0,P|335:218|276:229,1,95,2|0,1:2|1:2,0:0:0:0:
200,349,35199,1,8,0:2:0:0:
325,294,35356,1,2,1:2:0:0:
144,176,35513,6,0,P|161:237|146:288,1,95,6|0,0:2|0:2,0:0:0:0:
64,125,35828,1,8,0:2:0:0:
202,57,35985,1,2,0:2:0:0:
65,219,36142,1,0,1:2:0:0:
68,254,36220,1,0,1:2:0:0:
71,289,36299,1,0,1:2:0:0:
74,325,36377,1,0,1:2:0:0:
77,360,36456,2,0,P|129:332|237:330,1,142.5,4|0,0:2|0:2,0:0:0:0:
231,336,36770,5,6,0:2:0:0:
393,273,36927,2,0,P|337:260|301:271,1,85.4999973907472,10|0,0:2|0:0,0:0:0:0:
214,352,37241,1,0,1:2:0:0:
53,185,37398,1,10,0:0:0:0:
53,185,37555,2,0,B|107:191|107:191|136:177|136:177|190:187,1,128.249996086121,2|0,1:2|0:0,0:0:0:0:
244,239,37870,6,0,P|262:195|249:156,1,85.4999973907472,10|0,0:2|0:0,0:0:0:0:
171,78,38184,1,14,0:2:0:0:
254,258,38341,1,2,1:2:0:0:
261,48,38498,1,0,1:2:0:0:
110,242,38655,5,10,0:2:0:0:
381,186,38812,1,10,0:2:0:0:
395,176,39126,6,0,B|344:196|296:176|296:176|252:157|207:181,1,190,6|2,0:2|1:2,0:0:0:0:
66,302,39597,2,0,B|46:357|97:387|97:387|151:355|136:301,1,190,8|2,0:2|1:2,0:0:0:0:
94,146,40068,1,2,1:2:0:0:
94,146,40225,2,0,L|-25:138,1,95,8|0,0:2|0:0,0:0:0:0:
155,229,40539,5,2,1:2:0:0:
128,56,40696,1,2,1:2:0:0:
254,198,40853,2,0,P|260:257|239:294,1,95,8|0,0:2|1:0,0:0:0:0:
161,331,41089,1,0,1:2:0:0:
149,339,41167,2,0,L|34:327,1,95,2|0,1:2|0:0,0:0:0:0:
173,220,41482,1,8,0:2:0:0:
260,384,41639,6,0,B|281:329|264:284|264:284|248:239|280:196,1,190,6|2,0:2|1:2,0:0:0:0:
435,232,42110,2,0,P|447:288|391:227,1,190,8|2,0:2|1:2,0:0:0:0:
286,82,42581,1,2,1:2:0:0:
286,82,42738,2,0,L|186:77,1,95,8|2,0:2|1:2,0:0:0:0:
111,127,42974,1,0,1:2:0:0:
98,133,43052,2,0,P|82:82|98:32,1,95,0|2,1:2|1:2,0:0:0:0:
225,190,43366,6,0,B|215:245|215:245|223:267|223:267|213:327,1,123.499994346619,10|0,0:2|0:2,0:0:0:0:
364,158,43680,1,2,1:2:0:0:
315,339,43838,1,2,1:2:0:0:
209,177,43995,1,8,0:2:0:0:
441,104,44152,6,0,B|456:160|456:160|422:292,1,190,6|0,0:2|1:2,0:0:0:0:
263,103,44623,2,0,P|214:86|165:98,1,95,10|0,0:2|1:2,0:0:0:0:
85,318,44937,1,10,0:2:0:0:
209,177,45094,1,2,1:2:0:0:
12,89,45251,1,8,0:2:0:0:
172,263,45408,5,2,1:2:0:0:
0,349,45565,2,0,L|9:228,1,95,8|0,0:2|1:2,0:0:0:0:
201,82,45879,2,0,L|208:176,1,95,10|0,0:2|1:2,0:0:0:0:
96,40,46194,1,10,0:2:0:0:
119,259,46351,1,2,1:2:0:0:
286,130,46508,1,8,0:2:0:0:
96,40,46665,6,0,P|51:112|127:106,1,190,6|0,0:2|1:2,0:0:0:0:
355,53,47136,2,0,P|292:32|259:38,1,95,10|0,2:2|2:2,0:0:0:0:
438,239,47450,1,10,0:2:0:0:
444,14,47607,1,2,1:2:0:0:
318,245,47764,1,8,0:2:0:0:
496,135,47921,5,2,1:2:0:0:
265,36,48078,2,0,L|277:137,1,95,8|0,0:2|1:2,0:0:0:0:
426,333,48393,2,0,L|437:238,1,95,10|0,0:2|1:2,0:0:0:0:
271,328,48707,1,10,0:2:0:0:
366,155,48864,1,10,0:2:0:0:
393,132,48942,1,8,0:2:0:0:
427,121,49021,1,8,0:2:0:0:
462,121,49099,1,8,0:2:0:0:
495,134,49178,6,0,B|480:222|480:222|490:253|490:253|479:349,1,190,6|2,0:2|1:2,0:0:0:0:
233,203,49649,2,0,B|202:196|184:219|184:219|219:254|279:256|334:210,1,190,12|2,0:2|1:2,0:0:0:0:
109,171,50120,1,2,1:2:0:0:
109,171,50277,2,0,P|94:224|108:273,1,95,8|0,0:2|0:0,0:0:0:0:
208,113,50591,5,2,1:2:0:0:
58,68,50749,1,2,1:2:0:0:
186,220,50906,2,0,L|297:205,1,95,8|0,0:2|1:2,0:0:0:0:
356,155,51141,1,0,1:2:0:0:
369,150,51220,2,0,P|389:194|377:241,1,95,2|2,1:2|1:2,0:0:0:0:
243,358,51534,1,8,0:2:0:0:
186,220,51691,6,0,B|144:201|98:222|98:222|54:246|0:217,1,190,6|2,0:2|1:2,0:0:0:0:
163,310,52162,2,0,P|219:309|278:197,1,190,10|2,0:2|1:2,0:0:0:0:
181,107,52633,1,2,1:2:0:0:
181,107,52790,2,0,L|70:100,1,95,8|2,0:2|1:2,0:0:0:0:
14,174,53026,1,0,1:2:0:0:
4,184,53105,2,0,L|98:189,1,95,0|2,1:2|1:2,0:0:0:0:
352,125,53419,6,0,P|288:85|155:132,1,190,10|2,0:2|1:2,0:0:0:0:
315,242,53890,2,0,L|425:230,1,95,2|8,1:2|0:2,0:0:0:0:
501,122,54204,6,0,B|427:131|427:131|403:121|403:121|323:127,1,152,6|10,0:2|0:2,0:0:0:0:
227,255,54675,1,0,1:2:0:0:
409,231,54832,1,0,1:2:0:0:
272,92,54989,2,0,P|261:133|275:169,1,76,10|0,0:2|0:2,0:0:0:0:
364,320,55304,1,0,1:2:0:0:
364,320,55461,6,0,L|497:310,1,114,2|0,1:2|0:2,0:0:0:0:
409,231,55775,2,0,L|308:226,1,76,10|0,0:2|1:2,0:0:0:0:
181,155,56089,1,0,1:2:0:0:
349,49,56246,2,0,P|361:95|338:138,1,76,10|0,0:2|0:2,0:0:0:0:
219,23,56560,1,10,0:2:0:0:
137,233,56717,6,0,B|177:258|217:240|217:240|254:224|288:246,1,152,6|2,0:2|1:2,0:0:0:0:
374,355,57188,1,10,0:2:0:0:
246,312,57345,1,0,1:2:0:0:
407,227,57502,5,2,1:2:0:0:
295,381,57660,1,0,1:2:0:0:
252,159,57817,1,10,0:2:0:0:
456,326,57974,6,0,B|418:302|361:326|361:326|342:304|342:304|292:334|234:306,1,228,6|0,0:2|0:0,0:0:0:0:
133,244,59073,1,8,0:2:0:0:
323,200,59230,6,0,P|347:126|258:178,1,227.999993041992,6|2,0:2|1:2,0:0:0:0:
344,306,59701,2,0,L|474:290,1,113.999996520996,10|0,0:2|0:2,0:0:0:0:
251,158,60016,1,2,1:2:0:0:
358,328,60173,1,2,1:2:0:0:
400,108,60330,1,8,0:2:0:0:
264,265,60487,6,0,P|248:332|267:382,1,113.999996520996,2|0,1:2|0:2,0:0:0:0:
417,209,60801,1,2,1:2:0:0:
251,158,60958,2,0,L|122:172,1,113.999996520996,10|2,0:2|0:2,0:0:0:0:
281,276,61272,1,2,1:2:0:0:
172,83,61429,1,2,1:2:0:0:
114,307,61586,1,8,0:2:0:0:
344,345,61743,6,0,B|373:288|373:288|346:126,1,227.999993041992,6|2,0:2|1:2,0:0:0:0:
478,248,62215,2,0,L|456:127,1,113.999996520996,8|0,0:2|0:2,0:0:0:0:
281,276,62529,1,2,1:2:0:0:
440,342,62686,1,2,1:2:0:0:
346,126,62843,1,8,0:2:0:0:
227,351,63000,6,0,P|272:369|339:350,1,113.999996520996,2|0,1:2|0:2,0:0:0:0:
239,156,63314,1,2,1:2:0:0:
121,269,63471,2,0,L|128:396,1,113.999996520996,8|0,0:2|0:2,0:0:0:0:
46,155,63785,1,2,1:2:0:0:
231,254,63942,1,2,1:2:0:0:
19,326,64099,1,8,0:2:0:0:
182,132,64256,6,0,B|244:104|300:137|300:137|348:163|413:131,1,227.999993041992,4|0,0:2|1:2,0:0:0:0:
227,363,64728,2,0,P|215:308|231:254,1,113.999996520996,10|2,0:2|0:2,0:0:0:0:
401,231,65042,2,0,P|417:290|401:347,1,113.999996520996,2|2,1:2|1:2,0:0:0:0:
218,240,65356,1,8,0:2:0:0:
417,174,65513,6,0,P|457:263|423:388,1,227.999993041992,6|2,0:2|1:2,0:0:0:0:
199,231,65984,1,10,0:2:0:0:
334,92,66141,2,0,L|469:78,1,113.999996520996,6|0,0:2|0:2,0:0:0:0:
294,255,66455,2,0,L|159:241,1,113.999996520996,2|8,1:2|0:2,0:0:0:0:
3,377,66769,6,0,B|98:365|98:365|131:338|131:338|255:323,1,227.999993041992,6|2,0:2|1:2,0:0:0:0:
343,180,67241,2,0,L|478:194,1,113.999996520996,10|0,0:2|0:2,0:0:0:0:
306,345,67555,1,2,1:2:0:0:
181,244,67712,2,0,P|162:185|184:124,1,113.999996520996,2|8,1:2|0:2,0:0:0:0:
395,63,68026,6,0,B|369:231|369:231|333:161,1,227.999993041992,6|2,0:2|1:2,0:0:0:0:
479,120,68497,1,10,0:2:0:0:
384,335,68654,1,2,1:2:0:0:
395,63,68811,5,8,0:2:0:0:
485,339,68968,1,2,0:2:0:0:
498,357,69283,6,0,B|436:378|381:354|381:354|324:331|266:362,1,227.999993041992,6|2,0:2|1:2,0:0:0:0:
439,275,69754,2,0,P|464:220|449:162,1,113.999996520996,10|2,0:2|0:2,0:0:0:0:
299,59,70068,1,2,1:2:0:0:
376,209,70225,1,0,1:2:0:0:
431,9,70382,1,10,0:2:0:0:
278,163,70539,6,0,L|153:156,1,113.999996520996,2|0,1:2|0:2,0:0:0:0:
84,65,70853,2,0,P|140:42|199:61,1,113.999996520996,2|8,1:2|0:2,0:0:0:0:
19,251,71167,2,0,L|-1:134,1,113.999996520996,2|0,1:2|0:2,0:0:0:0:
278,163,71482,1,2,1:2:0:0:
214,347,71639,1,8,0:2:0:0:
117,235,71796,6,0,B|179:205|231:238|231:238|278:266|341:234,1,227.999993041992,6|2,0:2|1:2,0:0:0:0:
446,125,72267,1,10,0:2:0:0:
377,337,72424,1,2,0:2:0:0:
278,163,72581,1,2,1:2:0:0:
478,251,72738,1,2,1:2:0:0:
259,156,72895,1,8,0:2:0:0:
479,23,73052,6,0,B|506:79|506:79|461:263,1,227.999993041992,2|0,1:2|1:2,0:0:0:0:
304,384,73523,2,0,P|291:326|310:271,1,113.999996520996,8|0,0:2|0:0,0:0:0:0:
446,125,73838,1,2,1:2:0:0:
373,331,73995,1,2,1:2:0:0:
233,146,74152,1,8,0:2:0:0:
446,125,74309,6,0,P|464:197|447:243,1,113.999996520996,6|0,0:2|0:0,0:0:0:0:
196,343,74623,1,0,1:2:0:0:
196,343,74780,2,0,L|203:218,1,113.999996520996,8|2,0:2|1:2,0:0:0:0:
345,75,75094,1,10,0:2:0:0:
305,315,75251,1,0,1:2:0:0:
224,52,75408,1,8,0:2:0:0:
310,337,75565,1,0,1:2:0:0:
419,143,75722,6,0,B|359:176|313:154|313:154|255:129|189:161,1,227.999993041992,6|10,0:2|0:2,0:0:0:0:
128,283,76194,1,10,0:2:0:0:
128,283,76272,1,8,0:2:0:0:
128,283,76351,2,0,L|250:265,1,113.999996520996,10|2,0:2|1:2,0:0:0:0:
76,185,76665,1,8,0:2:0:0:
240,266,76822,6,0,P|302:249|214:220,1,227.999993041992,6|2,0:2|1:2,0:0:0:0:
40,363,77293,2,0,P|21:309|38:234,1,113.999996520996,10|0,0:2|1:2,0:0:0:0:
198,89,77607,1,2,1:2:0:0:
128,283,77764,1,0,1:2:0:0:
50,82,77921,1,10,0:2:0:0:
231,204,78078,6,0,B|275:228|334:225|389:197|389:197|336:201|297:187,1,227.999993041992,4|0,0:2|1:2,0:0:0:0:
249,340,78550,2,0,L|380:327,1,113.999996520996,10|0,0:2|1:2,0:0:0:0:
150,182,78864,1,10,0:2:0:0:
113,182,78942,1,8,0:2:0:0:
86,207,79021,1,10,0:2:0:0:
82,244,79099,1,8,0:2:0:0:
103,275,79178,1,8,0:2:0:0:
139,284,79256,1,8,0:2:0:0:
172,266,79335,6,0,B|196:209|166:150|166:150|146:98|181:41,1,227.999993041992,6|2,0:2|1:2,0:0:0:0:
410,43,79806,2,0,P|427:103|407:158,1,113.999996520996,10|0,0:2|0:0,0:0:0:0:
258,285,80120,1,2,1:2:0:0:
343,101,80277,1,2,1:2:0:0:
421,317,80434,1,8,0:2:0:0:
235,172,80591,6,0,L|115:186,1,113.999996520996,2|0,1:2|0:2,0:0:0:0:
267,299,80906,1,2,1:2:0:0:
419,152,81063,2,0,P|437:92|415:39,1,113.999996520996,10|2,0:2|0:2,0:0:0:0:
220,181,81377,1,2,1:2:0:0:
446,147,81534,1,2,1:2:0:0:
284,4,81691,1,8,0:2:0:0:
135,236,81848,6,0,B|186:273|186:273|377:245,1,227.999993041992,6|2,0:2|1:2,0:0:0:0:
181,70,82319,2,0,P|106:59|62:90,1,113.999996520996,10|0,0:2|0:2,0:0:0:0:
242,295,82633,1,2,1:2:0:0:
285,62,82790,1,2,1:2:0:0:
86,166,82947,1,8,0:2:0:0:
316,352,83105,6,0,P|333:291|304:239,1,113.999996520996,2|0,1:2|0:0,0:0:0:0:
193,138,83419,1,2,1:2:0:0:
49,324,83576,2,0,L|187:305,1,113.999996520996,10|0,0:2|1:2,0:0:0:0:
251,72,83890,1,4,0:2:0:0:
214,51,83968,1,0,0:0:0:0:
171,49,84047,1,8,0:2:0:0:
133,67,84125,1,8,0:2:0:0:
107,101,84204,1,8,0:2:0:0:
100,143,84283,1,8,0:2:0:0:
113,183,84361,1,8,0:2:0:0:
143,213,84440,1,8,0:2:0:0:
183,226,84518,6,0,B|255:203|307:234|307:234|351:261|416:223,1,227.999993041992,4|10,0:2|0:2,0:0:0:0:
227,341,84989,1,2,1:2:0:0:
314,52,85146,1,10,0:2:0:0:
364,381,85303,1,2,1:2:0:0:
310,29,85460,5,8,0:2:0:0:
479,301,85617,1,2,1:2:0:0:
183,226,85774,2,0,L|200:95,1,113.999996520996,8|2,0:2|1:2,0:0:0:0:
367,291,86088,5,10,0:2:0:0:
83,360,86245,1,2,1:2:0:0:
311,183,86402,2,0,P|371:163|433:186,1,113.999996520996,8|0,0:2|1:2,0:0:0:0:
245,377,86716,5,8,0:2:0:0:
112,71,86874,1,0,1:2:0:0:
372,271,87031,2,0,L|359:401,1,113.999996520996,12|0,0:2|0:0,0:0:0:0:
392,49,87345,5,10,0:2:0:0:
228,346,87502,1,2,1:2:0:0:
506,209,87659,1,10,0:2:0:0:
203,99,87816,1,2,1:2:0:0:
387,376,87973,1,8,0:2:0:0:
406,26,88130,5,2,1:2:0:0:
228,346,88287,1,8,0:2:0:0:
264,15,88444,5,2,1:2:0:0:
395,358,88601,1,10,0:2:0:0:
164,118,88758,5,2,1:2:0:0:
511,238,88915,1,10,0:2:0:0:
179,259,89072,5,2,1:2:0:0:
494,71,89230,1,8,0:2:0:0:
95,37,89387,6,0,B|64:100|64:100|92:277,1,227.999993041992,6|2,0:2|1:2,0:0:0:0:
264,326,89858,2,0,P|285:258|260:204,1,113.999996520996,8|0,0:2|0:2,0:0:0:0:
95,37,90172,1,2,1:2:0:0:
179,259,90329,1,2,1:2:0:0:
357,18,90486,2,0,L|239:30,1,113.999996520996,8|0,0:2|0:2,0:0:0:0:
29,172,90800,6,0,B|126:183|126:183|165:168|165:168|252:181,1,227.999993041992,2|10,1:2|0:2,0:0:0:0:
445,346,91271,2,0,B|382:311|328:336|328:336|271:364|210:316,1,227.999993041992,2|2,1:2|1:2,0:0:0:0:
127,182,91743,1,8,0:2:0:0:
429,132,91900,6,0,P|444:216|351:162,1,227.999993041992,6|0,0:2|1:2,0:0:0:0:
357,33,92371,1,8,0:2:0:0:
206,169,92528,1,0,1:0:0:0:
210,197,92606,1,0,1:0:0:0:
215,225,92685,1,0,1:0:0:0:
113,166,92842,1,0,1:0:0:0:
308,297,92999,1,8,0:0:0:0:
501,118,93156,6,0,B|353:51|249:185|249:185|137:333|3:227,1,565.250010781288,6|0,1:2|0:0,0:0:0:0:
305,131,94413,6,0,P|336:183|296:315,1,190,6|0,0:2|1:2,0:0:0:0:
76,178,94884,2,0,L|89:66,1,95,2|0,1:2|1:2,0:0:0:0:
235,215,95198,1,10,0:2:0:0:
235,215,95355,2,0,L|224:309,1,95,2|0,1:2|1:2,0:0:0:0:
76,178,95669,6,0,B|149:164|149:164|178:133|178:133|275:117,1,190,6|0,0:2|1:2,0:0:0:0:
435,211,96140,2,0,P|375:223|326:198,1,95,2|0,1:2|1:2,0:0:0:0:
461,29,96455,1,10,0:2:0:0:
461,29,96612,2,0,L|446:135,1,95,2|0,1:2|1:2,0:0:0:0:
259,336,96926,6,0,B|287:285|267:242|267:242|244:196|283:147,1,190,6|8,0:2|0:2,0:0:0:0:
346,73,97318,1,0,1:0:0:0:
356,63,97397,2,0,L|244:57,1,95,0|0,1:2|1:2,0:0:0:0:
84,165,97711,1,10,0:2:0:0:
84,165,97868,2,0,L|178:159,1,95,2|0,0:2|0:0,0:0:0:0:
372,247,98182,6,0,P|388:179|315:243,1,227.999993041992,14|0,0:2|0:2,0:0:0:0:
