osu file format v14

[General]
AudioFilename: audio.mp3
AudioLeadIn: 0
PreviewTime: 51047
Countdown: 0
SampleSet: Soft
StackLeniency: 0.4
Mode: 0
LetterboxInBreaks: 0
WidescreenStoryboard: 0

[Editor]
Bookmarks: 36372
DistanceSpacing: 1.8
BeatDivisor: 4
GridSize: 16
TimelineZoom: 3.099999

[Metadata]
Title:Million Smile
TitleUnicode:Million Smile
Artist:Machico
ArtistUnicode:Machico
Creator:joker-
Version:RepL4y's Insane
Source:この素晴らしい世界に祝福を! -この欲深いゲームに審判を!-
Tags:opening RepL4y 園田智也 Tomoya Sonoda OP Kono Subarashii Sekai ni Syukufuku Yokubukai Game Shinpan wo PS4 PS Vita PlayStation NIPPON COLUMBIA KONOSUBA God's blessing on this wonderful world
BeatmapID:1377033
BeatmapSetID:640013

[Difficulty]
HPDrainRate:6
CircleSize:4
OverallDifficulty:8
ApproachRate:9
SliderMultiplier:1.6
SliderTickRate:1

[Events]
//Background and Video events
0,0,"bg.jpg",0,0
//Break Periods
//Storyboard Layer 0 (Background)
//Storyboard Layer 1 (Fail)
//Storyboard Layer 2 (Pass)
//Storyboard Layer 3 (Foreground)
//Storyboard Sound Samples

[TimingPoints]
-694,337.078651685393,4,2,1,30,1,0
654,-100,4,2,1,50,0,0
4783,-100,4,2,1,5,0,0
4867,-100,4,2,1,50,0,0
5120,-100,4,2,1,5,0,0
5204,-100,4,2,1,50,0,0
5457,-100,4,2,1,5,0,0
5541,-125,4,2,1,50,0,0
5879,-125,4,2,2,50,0,0
6384,-83.3333333333333,4,2,1,60,0,0
6637,-100,4,2,1,5,0,0
6721,-100,4,2,1,60,0,0
6890,-100,4,2,1,60,0,0
16834,-100,4,2,2,50,0,0
31497,-100,4,2,1,30,0,0
31834,-100,4,2,2,50,0,0
37058,-100,4,2,2,55,0,0
38407,-90.9090909090909,4,2,2,50,0,0
44643,-90.9090909090909,4,2,2,30,0,0
44811,-90.9090909090909,4,2,2,55,0,0
46497,-100,4,2,2,55,0,0
51553,-100,4,2,2,45,0,0
51805,-100,4,2,2,45,0,0
51890,-83.3333333333333,4,2,2,65,0,1
62171,-83.3333333333333,4,2,2,45,0,1
62676,-83.3333333333333,4,2,2,65,0,1
68070,-83.3333333333333,4,2,2,65,0,0
70766,-100,4,2,2,65,0,0
75822,-83.3333333333333,4,2,2,65,0,0
76159,-100,4,2,2,50,0,0
100598,-100,4,2,2,5,0,0
100682,-125,4,2,2,5,0,0

[Colours]
Combo1 : 167,79,255
Combo2 : 5,190,237
Combo3 : 255,255,68
Combo4 : 251,66,4

[HitObjects]
163,98,485,5,2,3:0:0:0:
163,98,570,1,2,3:0:0:0:
163,98,654,2,0,P|225:144|309:127,1,160,2|10,3:0|0:0,0:0:0:0:
426,60,1159,2,0,P|414:142|412:238,1,160,2|2,0:0|0:0,0:0:0:0:
410,341,1665,1,2,0:0:0:0:
410,341,2002,5,2,2:3:0:0:
208,293,2171,1,8,3:0:0:0:
208,293,2255,1,0,0:0:0:0:
208,293,2339,1,0,0:0:0:0:
320,251,2508,5,8,3:0:0:0:
320,251,2592,1,0,0:0:0:0:
320,251,2676,1,8,3:0:0:0:
221,164,2845,5,2,0:0:0:0:
213,134,2929,1,2,0:0:0:0:
214,105,3013,1,2,0:0:0:0:
223,76,3097,1,2,0:0:0:0:
239,51,3182,6,0,P|317:71|402:65,1,160,6|0,0:0|0:0,0:0:0:0:
503,143,3688,1,8,0:0:0:0:
476,265,3856,1,8,0:0:0:0:
395,66,4025,1,8,0:0:0:0:
351,274,4193,1,8,0:0:0:0:
300,160,4362,1,8,0:0:0:0:
128,270,4530,6,0,P|176:237|238:234,1,120,2|0,0:0|0:0,0:0:0:0:
391,265,4867,2,0,P|338:239|304:187,1,120,2|0,0:0|0:0,0:0:0:0:
249,38,5204,2,0,P|253:96|225:151,1,120,2|0,0:0|0:0,0:0:0:0:
160,192,5541,6,0,P|97:185|30:184,1,128,6|2,0:0|0:0,0:0:0:0:
32,183,5963,1,2,0:0:0:0:
32,183,6047,1,2,0:0:0:0:
149,286,6216,1,2,0:0:0:0:
149,286,6300,1,2,0:0:0:0:
149,286,6384,6,0,P|150:238|160:192,1,95.9999970703126,6|0,0:0|0:0,0:0:0:0:
224,94,6721,1,2,0:0:0:0:
397,155,6890,2,0,P|360:170|320:170,1,80,8|8,0:0|0:0,0:0:0:0:
141,41,7227,2,0,P|206:2|292:23,1,160,6|2,0:0|0:0,0:0:0:0:
364,166,7732,6,0,L|355:268,1,80,8|2,0:0|0:0,0:0:0:0:
208,360,8070,1,8,0:0:0:0:
402,323,8238,1,2,0:0:0:0:
276,212,8407,1,8,0:0:0:0:
453,205,8575,6,0,P|455:126|396:71,1,160,6|8,0:0|0:0,0:0:0:0:
210,122,9081,1,8,0:0:0:0:
363,166,9249,1,2,0:0:0:0:
228,5,9418,2,0,P|188:5|150:18,1,80,10|0,0:0|0:0,0:0:0:0:
31,202,9755,2,0,P|68:215|108:215,1,80,10|0,3:0|0:0,0:0:0:0:
210,122,10092,6,0,L|200:211,1,80,10|0,0:0|0:0,0:0:0:0:
253,366,10429,2,0,P|291:355|331:355,1,80,10|0,0:0|0:0,0:0:0:0:
498,234,10766,2,0,P|458:234|419:223,1,80,10|0,0:0|0:0,0:0:0:0:
210,122,11103,2,0,P|249:122|288:111,1,80,10|0,0:0|0:0,0:0:0:0:
406,21,11440,6,0,P|390:99|381:178,1,160,6|10,0:0|0:0,0:0:0:0:
339,360,11946,2,0,P|300:349|260:343,1,80,2|8,0:0|0:0,0:0:0:0:
90,258,12283,2,0,P|129:251|168:241,1,80,2|8,0:0|0:0,0:0:0:0:
275,134,12620,6,0,P|267:209|319:276,1,160,6|10,0:0|0:0,0:0:0:0:
381,178,13126,1,10,0:0:0:0:
356,45,13294,2,0,P|278:54|194:59,1,160,6|2,0:0|0:0,0:0:0:0:
49,51,13800,1,10,0:0:0:0:
156,194,13968,6,0,P|158:273|111:336,1,160,6|10,0:0|0:0,0:0:0:0:
9,202,14474,2,0,P|14:162|22:118,1,80,10|8,0:0|0:0,0:0:0:0:
166,38,14811,2,0,P|173:77|177:117,1,80,10|8,0:0|0:0,0:0:0:0:
173,151,15064,1,8,0:0:0:0:
173,151,15148,1,10,0:0:0:0:
302,287,15317,6,0,P|380:272|467:266,1,160,6|2,0:0|0:0,0:0:0:0:
306,178,15822,1,8,0:0:0:0:
255,365,15991,2,0,P|217:318|236:225,1,160,6|8,0:0|0:0,0:0:0:0:
306,178,16412,6,0,L|359:184,1,40,8|8,0:0|0:0,0:0:0:0:
272,66,16665,1,8,0:0:0:0:
272,66,16749,1,8,0:0:0:0:
272,66,16834,6,0,P|192:78|110:84,1,160,2|8,0:0|0:0,0:0:0:0:
34,180,17339,1,0,0:0:0:0:
129,254,17508,2,0,P|137:292|135:357,2,80,2|2|8,0:0|0:0|0:0,0:0:0:0:
34,180,18013,1,0,0:0:0:0:
113,83,18182,6,0,P|155:91|202:95,1,80,2|2,0:0|0:0,0:0:0:0:
315,83,18519,1,8,0:0:0:0:
267,213,18688,1,2,0:0:0:0:
227,94,18856,5,0,0:0:0:0:
166,285,19025,1,2,0:0:0:0:
334,272,19193,2,0,P|351:237|352:196,1,80,8|0,0:0|0:0,0:0:0:0:
242,49,19530,6,0,P|311:86|409:63,1,160,2|8,0:0|0:0,0:0:0:0:
484,180,20036,1,0,0:0:0:0:
484,180,20120,1,0,0:0:0:0:
484,180,20204,1,2,0:0:0:0:
293,207,20373,2,0,P|293:165|307:119,1,80,2|8,0:0|0:0,0:0:0:0:
406,300,20710,6,0,P|335:287|235:283,1,160,2|2,0:0|0:0,0:0:0:0:
71,311,21216,2,0,L|86:223,1,80,8|0,0:0|0:0,0:0:0:0:
107,87,21553,5,2,0:0:0:0:
188,198,21721,1,2,0:0:0:0:
3,258,21890,1,8,0:0:0:0:
175,344,22058,1,0,0:0:0:0:
188,334,22143,1,0,0:0:0:0:
201,325,22227,6,0,P|270:325|368:311,1,160,6|8,0:0|0:0,0:0:0:0:
508,280,22732,1,0,0:0:0:0:
408,164,22901,2,0,P|407:123|417:85,2,80,2|2|8,0:0|0:0|0:0,0:0:0:0:
491,34,23407,6,0,P|418:48|328:51,1,160,6|2,0:0|0:0,0:0:0:0:
164,26,23912,1,8,0:0:0:0:
153,187,24081,2,0,P|192:184|230:170,1,80,0|2,0:0|0:0,0:0:0:0:
332,51,24418,1,2,0:0:0:0:
291,257,24586,1,8,0:0:0:0:
421,100,24755,6,0,L|403:284,1,160,6|2,0:0|0:0,0:0:0:0:
250,348,25261,2,0,P|290:333|328:330,1,80,8|0,0:0|0:0,0:0:0:0:
483,276,25598,2,0,P|445:262|406:260,1,80,2|2,0:0|0:0,0:0:0:0:
223,327,25935,2,0,L|233:232,1,80,8|0,0:0|0:0,0:0:0:0:
254,88,26272,6,0,P|196:111|198:32,1,160,6|8,0:0|0:0,0:0:0:0:
332,176,26777,2,0,P|390:199|388:120,1,160,6|8,0:0|0:0,0:0:0:0:
323,19,27283,1,8,0:0:0:0:
175,124,27452,1,8,0:0:0:0:
162,139,27536,1,8,0:0:0:0:
152,156,27620,6,0,L|160:237,1,80,6|0,0:0|0:0,0:0:0:0:
300,352,27957,2,0,P|306:312|299:273,1,80,8|0,0:0|0:0,0:0:0:0:
410,217,28294,2,0,P|387:184|354:161,2,80,2|2|8,0:0|0:0|0:0,0:0:0:0:
348,359,28800,1,0,0:0:0:0:
230,240,28968,6,0,P|239:158|244:73,1,160,2|8,0:0|0:0,0:0:0:0:
122,31,29474,1,2,0:0:0:0:
74,174,29643,2,0,P|115:176|156:162,1,80,2|0,0:0|0:0,0:0:0:0:
246,58,29980,2,0,P|287:56|328:70,1,80,8|0,0:0|0:0,0:0:0:0:
460,206,30317,6,0,P|447:141|436:47,1,160,2|8,0:0|0:0,0:0:0:0:
333,241,30822,1,0,0:0:0:0:
333,241,30907,1,0,0:0:0:0:
333,241,30991,2,0,P|343:200|349:154,1,80,2|2,0:0|0:0,0:0:0:0:
427,311,31328,1,8,0:0:0:0:
270,343,31497,6,0,P|213:295|130:305,1,160,2|2,0:0|0:0,0:0:0:0:
0,236,32002,2,0,P|40:238|82:223,1,80,8|0,0:0|0:0,0:0:0:0:
250,74,32339,2,0,P|212:61|172:63,1,80,2|2,0:0|0:0,0:0:0:0:
29,158,32676,1,8,0:0:0:0:
216,262,32845,1,0,0:0:0:0:
229,252,32929,1,0,0:0:0:0:
243,245,33013,6,0,P|317:232|409:226,1,160,6|8,0:0|0:0,0:0:0:0:
387,321,33519,1,0,0:0:0:0:
300,193,33688,2,0,P|300:154|312:113,1,80,2|2,0:0|0:0,0:0:0:0:
407,56,34025,1,8,0:0:0:0:
407,56,34193,6,0,P|330:68|246:71,1,160,6|2,0:0|0:0,0:0:0:0:
89,45,34699,1,8,0:0:0:0:
146,193,34867,1,0,0:0:0:0:
248,71,35036,5,2,0:0:0:0:
184,268,35204,1,8,0:0:0:0:
58,144,35373,1,8,0:0:0:0:
240,359,35541,6,0,P|176:314|101:334,1,160,6|0,0:0|0:0,0:0:0:0:
346,284,36047,2,0,L|334:189,1,80,8|2,0:0|0:0,0:0:0:0:
187,126,36384,2,0,L|176:205,1,80,8|0,0:0|0:0,0:0:0:0:
324,124,36721,2,0,L|312:29,1,80,8|0,0:0|0:0,0:0:0:0:
187,126,37058,5,6,0:0:0:0:
335,204,37227,1,0,0:0:0:0:
176,205,37395,1,8,0:0:0:0:
324,124,37564,2,0,P|396:145|404:247,1,160,6|2,0:0|0:0,0:0:0:0:
360,290,37985,6,0,L|311:295,1,40,2|2,0:0|0:0,0:0:0:0:
187,354,38238,1,8,3:0:0:0:
187,354,38322,1,8,3:0:0:0:
187,354,38407,6,0,P|143:352|100:341,1,88.000002685547,6|0,0:0|0:0,0:0:0:0:
230,180,38744,2,0,P|250:218|261:261,1,88.000002685547,8|0,0:0|0:0,0:0:0:0:
51,230,39081,2,0,P|74:192|104:161,1,88.000002685547,2|2,3:0|3:0,0:0:0:0:
153,256,39418,1,8,0:0:0:0:
399,269,39586,6,0,B|385:215|385:215|394:157|394:157|376:92,1,176.000005371094,6|2,0:0|0:0,0:0:0:0:
215,143,40092,2,0,P|257:162|305:162,1,88.000002685547,8|0,0:0|0:0,0:0:0:0:
230,36,40429,2,0,P|186:37|146:56,1,88.000002685547,2|2,3:0|3:0,0:0:0:0:
63,184,40766,1,8,0:0:0:0:
163,309,40935,1,2,3:0:0:0:
163,309,41019,1,0,0:0:0:0:
163,309,41103,6,0,P|208:307|255:285,1,88.000002685547,6|0,0:0|0:0,0:0:0:0:
207,104,41440,2,0,P|186:142|180:185,1,88.000002685547,8|0,0:0|0:0,0:0:0:0:
365,245,41777,2,0,P|340:207|298:177,1,88.000002685547,2|2,3:0|3:0,0:0:0:0:
220,360,42114,1,8,0:0:0:0:
463,321,42283,6,0,P|389:271|302:287,1,176.000005371094,6|2,0:0|0:0,0:0:0:0:
368,379,42789,1,8,0:0:0:0:
436,249,42957,1,2,3:0:0:0:
436,249,43041,1,0,0:0:0:0:
436,249,43126,2,0,P|435:200|426:159,2,88.000002685547,2|2|8,3:0|3:0|0:0,0:0:0:0:
485,107,43631,1,8,3:0:0:0:
485,107,43716,1,8,3:0:0:0:
485,107,43800,6,0,P|422:120|350:120,1,132.00000402832,10|0,0:0|0:0,0:0:0:0:
321,157,44137,2,0,P|278:150|225:150,1,88.000002685547,10|0,0:0|0:0,0:0:0:0:
94,178,44474,5,10,0:0:0:0:
273,237,44643,1,8,1:0:0:0:
94,178,44811,1,8,0:0:0:0:
273,237,44980,1,2,0:0:0:0:
171,36,45148,6,0,P|191:96|200:168,1,132.00000402832,14|0,0:0|0:0,0:0:0:0:
240,192,45485,2,0,P|238:235|244:288,1,88.000002685547,10|0,0:0|0:0,0:0:0:0:
345,356,45822,5,10,0:0:0:0:
147,269,45991,1,2,0:0:0:0:
147,269,46075,1,2,0:0:0:0:
147,269,46159,1,2,0:0:0:0:
320,140,46328,1,0,0:0:0:0:
320,140,46412,1,8,3:0:0:0:
320,140,46497,6,0,P|247:103|168:124,1,160,6|8,0:0|0:0,0:0:0:0:
234,230,47002,1,2,3:0:0:0:
416,196,47171,2,0,P|428:159|425:107,1,80,2|0,3:0|0:0,0:0:0:0:
335,8,47508,1,2,3:0:0:0:
208,72,47676,6,0,P|222:151|235:239,1,160,2|2,0:0|0:0,0:0:0:0:
238,349,48182,1,2,3:0:0:0:
54,264,48350,1,0,0:0:0:0:
238,349,48519,2,0,P|197:343|152:340,1,80,2|2,3:0|0:0,0:0:0:0:
290,208,48856,2,0,P|250:210|210:216,1,80,8|0,0:0|0:0,0:0:0:0:
54,264,49193,5,6,0:0:0:0:
151,97,49362,1,2,0:0:0:0:
196,221,49530,1,8,0:0:0:0:
314,11,49699,5,2,0:0:0:0:
275,135,49867,1,8,0:0:0:0:
437,271,50036,1,0,1:0:0:0:
412,158,50204,1,8,0:0:0:0:
294,338,50373,5,6,0:0:0:0:
294,338,51384,5,2,0:0:0:0:
294,338,51468,1,2,0:0:0:0:
294,338,51553,2,0,P|239:314|178:321,1,120,10|0,0:0|0:0,0:0:0:0:
144,350,51890,6,0,P|149:250|148:153,1,191.999994140625,6|8,0:0|0:0,0:0:0:0:
34,12,52395,1,0,0:0:0:0:
18,30,52480,1,0,0:0:0:0:
9,52,52564,2,0,P|6:101|23:150,1,95.9999970703126,2|0,0:0|0:0,0:0:0:0:
166,230,52901,2,0,P|209:217|264:217,1,95.9999970703126,8|0,0:0|0:0,0:0:0:0:
449,345,53238,6,0,P|406:358|351:358,1,95.9999970703126,2|0,0:0|0:0,0:0:0:0:
226,311,53575,1,8,0:0:0:0:
381,223,53744,1,0,0:0:0:0:
381,223,53828,1,2,0:0:0:0:
381,223,53912,2,0,L|368:118,1,95.9999970703126,2|0,0:0|0:0,0:0:0:0:
353,0,54249,1,10,0:0:0:0:
462,165,54418,1,0,0:0:0:0:
286,73,54586,6,0,P|194:74|94:60,1,191.999994140625,6|8,0:0|0:0,0:0:0:0:
32,216,55092,1,0,0:0:0:0:
32,216,55176,1,0,0:0:0:0:
32,216,55261,2,0,P|18:173|21:112,1,95.9999970703126,2|0,0:0|0:0,0:0:0:0:
164,191,55598,2,0,P|164:238|150:284,1,95.9999970703126,8|0,0:0|0:0,0:0:0:0:
57,342,55935,6,0,P|140:314|215:391,1,191.999994140625,2|8,0:0|0:0,0:0:0:0:
344,302,56440,1,0,0:0:0:0:
338,267,56525,1,2,0:0:0:0:
333,234,56609,1,2,0:0:0:0:
312,75,56777,1,0,0:0:0:0:
124,259,56946,1,8,0:0:0:0:
350,337,57114,1,0,0:0:0:0:
189,183,57283,6,0,P|222:270|166:349,1,191.999994140625,6|8,0:0|0:0,0:0:0:0:
49,219,57789,1,0,0:0:0:0:
55,191,57873,1,2,0:0:0:0:
60,162,57957,1,2,0:0:0:0:
150,22,58126,1,0,0:0:0:0:
189,183,58294,1,8,0:0:0:0:
278,45,58463,6,0,P|341:110|349:207,1,191.999994140625,6|2,0:0|0:0,0:0:0:0:
239,346,58968,1,8,0:0:0:0:
118,194,59137,1,0,0:0:0:0:
153,188,59221,1,2,0:0:0:0:
189,183,59305,1,2,0:0:0:0:
344,160,59474,1,0,0:0:0:0:
156,67,59643,2,0,P|205:61|258:86,1,95.9999970703126,8|0,0:0|0:0,0:0:0:0:
410,333,59980,6,0,B|408:303|431:271|431:271|418:221|418:221|438:193|435:151,1,191.999994140625,6|8,0:0|0:0,0:0:0:0:
303,24,60485,1,0,0:0:0:0:
303,24,60570,1,2,0:0:0:0:
303,24,60654,2,0,P|300:72|313:121,1,95.9999970703126,6|0,0:0|0:0,0:0:0:0:
304,314,60991,2,0,P|259:297|210:295,1,95.9999970703126,8|0,0:0|0:0,0:0:0:0:
91,320,61328,5,2,0:0:0:0:
280,219,61497,1,2,0:0:0:0:
127,169,61665,1,8,0:0:0:0:
376,107,61834,1,6,0:0:0:0:
376,107,62170,5,2,0:0:0:0:
401,125,62255,1,2,0:0:0:0:
421,150,62339,1,4,3:0:0:0:
433,180,62423,1,4,3:0:0:0:
437,211,62508,1,4,3:0:0:0:
432,243,62592,1,4,3:0:0:0:
415,272,62676,6,0,P|317:252|213:247,1,191.999994140625,6|8,0:0|0:0,0:0:0:0:
49,252,63182,1,0,0:0:0:0:
210,167,63350,1,2,0:0:0:0:
147,338,63519,1,0,0:0:0:0:
305,203,63688,2,0,P|306:152|294:108,1,95.9999970703126,8|0,0:0|0:0,0:0:0:0:
160,23,64025,6,0,P|147:69|149:117,1,95.9999970703126,2|0,0:0|0:0,0:0:0:0:
229,305,64362,1,8,0:0:0:0:
29,233,64530,1,0,0:0:0:0:
206,200,64699,1,2,0:0:0:0:
143,374,64867,1,0,0:0:0:0:
307,230,65036,2,0,P|305:181|286:131,1,95.9999970703126,8|4,0:0|3:0,0:0:0:0:
272,114,65289,1,4,3:0:0:0:
272,114,65373,6,0,P|330:144|406:132,1,143.999995605469,6|0,0:0|0:0,0:0:0:0:
422,120,65710,1,2,0:0:0:0:
465,269,65879,1,2,0:0:0:0:
303,380,66047,1,2,0:0:0:0:
349,223,66216,1,2,0:0:0:0:
454,346,66384,1,2,0:0:0:0:
337,205,66553,6,0,P|265:193|166:187,1,143.999995605469,6|0,0:0|0:0,0:0:0:0:
170,145,66890,2,0,P|122:155|68:156,2,95.9999970703126,2|8|6,0:0|0:0|0:0,0:0:0:0:
385,89,67395,2,0,P|337:87|290:77,1,95.9999970703126,2|0,0:0|0:0,0:0:0:0:
171,7,67732,1,8,0:0:0:0:
38,82,67901,1,2,0:0:0:0:
38,82,67985,1,2,0:0:0:0:
38,82,68070,6,0,P|50:166|54:283,1,191.999994140625,6|8,0:0|0:0,0:0:0:0:
196,346,68575,1,0,0:0:0:0:
51,299,68744,1,2,0:0:0:0:
159,190,68912,1,0,0:0:0:0:
45,328,69081,1,8,0:0:0:0:
222,367,69249,6,0,P|306:351|415:345,1,191.999994140625,2|0,0:0|0:0,0:0:0:0:
477,182,69755,1,8,0:0:0:0:
507,295,69923,1,0,0:0:0:0:
363,208,70092,1,2,0:0:0:0:
393,95,70260,1,0,0:0:0:0:
401,304,70429,2,0,P|351:312|307:296,1,95.9999970703126,8|0,0:0|0:0,0:0:0:0:
233,175,70766,6,0,P|155:180|50:192,1,160,6|2,0:0|0:0,0:0:0:0:
144,93,71272,1,6,0:0:0:0:
4,152,71440,1,0,0:0:0:0:
117,253,71609,1,0,0:0:0:0:
165,77,71777,6,0,P|237:100|341:91,1,160,6|2,0:0|0:0,0:0:0:0:
428,219,72283,2,0,P|421:179|418:137,1,80,6|0,0:0|0:0,0:0:0:0:
412,37,72620,1,0,0:0:0:0:
512,174,72789,2,0,P|507:239|496:317,1,120,6|0,0:0|0:0,0:0:0:0:
492,321,73126,1,8,0:0:0:0:
334,348,73294,1,2,0:0:0:0:
334,348,73379,1,2,0:0:0:0:
334,348,73463,5,6,0:0:0:0:
155,291,73631,1,0,0:0:0:0:
368,239,73800,1,8,0:0:0:0:
134,182,73968,1,0,0:0:0:0:
292,275,74137,1,8,0:0:0:0:
429,153,74305,1,0,0:0:0:0:
429,153,74390,1,8,0:0:0:0:
429,153,74474,1,8,0:0:0:0:
294,20,74643,6,0,P|283:94|322:170,1,160,6|0,0:0|0:0,0:0:0:0:
197,180,75148,1,8,0:0:0:0:
417,74,75317,2,10,P|456:81|490:102,1,80,6|0,0:0|0:0,0:0:0:0:
370,296,75654,1,0,2:3:0:0:
370,296,75738,1,0,2:3:0:0:
370,296,75822,2,0,L|306:303,1,47.9999985351563,2|0,2:3|2:3,0:0:0:0:
257,358,75991,2,0,L|209:352,1,47.9999985351563,0|0,2:3|2:3,0:0:0:0:
136,306,76159,6,0,P|142:227|146:134,1,160,6|8,0:0|0:0,0:0:0:0:
91,56,76665,1,0,0:0:0:0:
91,56,76749,1,0,0:0:0:0:
91,56,76834,2,0,P|50:64|-1:66,2,80,2|2|8,3:0|3:0|0:0,0:0:0:0:
192,6,77339,6,0,P|266:18|373:18,1,160,2|2,3:0|3:0,0:0:0:0:
462,96,77845,1,8,0:0:0:0:
333,234,78013,1,0,0:0:0:0:
333,234,78098,1,0,0:0:0:0:
333,234,78182,2,0,P|332:194|341:156,1,80,2|2,3:0|3:0,0:0:0:0:
454,219,78519,2,0,P|462:257|461:297,1,80,8|0,0:0|0:0,0:0:0:0:
349,362,78856,6,0,P|282:314|206:326,1,160,2|8,3:0|0:0,0:0:0:0:
85,361,79362,1,0,0:0:0:0:
85,361,79446,1,0,0:0:0:0:
85,361,79530,2,0,P|92:322|96:267,1,80,2|0,0:0|0:0,0:0:0:0:
76,114,79867,1,2,3:0:0:0:
16,220,80036,6,0,P|100:238|164:193,1,160,2|2,3:0|3:0,0:0:0:0:
220,70,80541,1,0,0:0:0:0:
334,173,80710,1,2,3:0:0:0:
334,173,80794,1,2,0:0:0:0:
334,173,80879,2,0,L|324:268,1,80,2|2,0:0|3:0,0:0:0:0:
469,313,81216,2,0,L|460:233,1,80,8|2,0:0|3:0,0:0:0:0:
443,86,81553,6,0,B|385:91|385:91|345:75|345:75|282:82,1,160,6|8,0:0|0:0,0:0:0:0:
102,149,82058,1,0,0:0:0:0:
102,149,82143,1,0,0:0:0:0:
102,149,82227,2,0,L|204:160,1,80,2|2,3:0|3:0,0:0:0:0:
334,173,82564,1,8,0:0:0:0:
211,83,82732,1,2,3:0:0:0:
203,235,82901,6,0,P|204:172|208:110,1,120,6|0,0:0|0:0,0:0:0:0:
211,83,83238,1,8,0:0:0:0:
334,173,83407,1,2,0:0:0:0:
332,188,83491,1,0,0:0:0:0:
330,203,83575,1,0,0:0:0:0:
308,343,83744,1,2,3:0:0:0:
437,197,83912,2,0,P|438:154|423:116,1,80,8|0,0:0|0:0,0:0:0:0:
318,43,84249,6,0,P|242:54|149:56,1,160,6|8,0:0|0:0,0:0:0:0:
1,143,84755,1,0,0:0:0:0:
1,143,84839,1,0,0:0:0:0:
1,143,84923,2,0,P|41:149|86:148,1,80,2|2,3:0|3:0,0:0:0:0:
251,149,85261,1,8,0:0:0:0:
158,56,85429,6,0,P|121:122|136:215,1,160,6|2,0:0|0:0,0:0:0:0:
285,331,85935,1,2,3:0:0:0:
259,315,86019,1,0,0:0:0:0:
230,306,86103,1,2,3:0:0:0:
201,306,86187,1,2,0:0:0:0:
172,314,86272,1,2,0:0:0:0:
329,258,86440,1,2,3:0:0:0:
151,334,86609,2,0,P|160:278|165:190,1,120,8|0,0:0|0:0,0:0:0:0:
110,131,86946,6,0,P|168:181|244:136,1,160,6|8,0:0|0:0,0:0:0:0:
381,61,87452,1,0,0:0:0:0:
381,61,87536,1,0,0:0:0:0:
381,61,87620,2,0,L|301:49,1,80,2|0,3:0|0:0,0:0:0:0:
413,172,87957,2,0,L|493:160,1,80,8|2,0:0|3:0,0:0:0:0:
445,297,88294,6,0,P|373:263|288:273,1,160,2|8,3:0|0:0,0:0:0:0:
184,350,88800,1,0,0:0:0:0:
184,350,88884,1,0,0:0:0:0:
184,350,88968,1,2,3:0:0:0:
66,280,89137,1,0,0:0:0:0:
260,167,89305,1,8,0:0:0:0:
163,258,89474,1,2,3:0:0:0:
31,195,89643,6,0,P|23:116|67:52,1,160,6|8,0:0|0:0,0:0:0:0:
211,135,90148,2,0,P|170:146|128:144,1,80,0|2,0:0|3:0,0:0:0:0:
242,21,90485,1,0,0:0:0:0:
326,123,90654,2,0,P|314:202|308:300,1,160,6|2,0:0|3:0,0:0:0:0:
406,337,91159,5,2,3:0:0:0:
203,248,91328,2,0,P|206:287|214:343,1,80,8|2,0:0|3:0,0:0:0:0:
217,349,91581,1,0,0:0:0:0:
217,350,91665,1,2,0:0:0:0:
386,260,91834,1,2,3:0:0:0:
267,147,92002,2,0,P|227:147|187:158,1,80,8|2,0:0|3:0,0:0:0:0:
45,305,92339,5,2,0:0:0:0:
240,244,92508,1,2,0:0:0:0:
138,71,92676,2,0,P|109:99|89:135,1,80,8|0,0:0|0:0,0:0:0:0:
154,316,93013,5,8,0:0:0:0:
262,102,93182,1,0,3:0:0:0:
262,102,93266,1,0,3:0:0:0:
262,102,93350,1,8,0:0:0:0:
492,200,93519,6,0,P|416:213|315:226,1,160,6|2,0:0|0:0,0:0:0:0:
176,193,94025,1,8,0:0:0:0:
394,117,94193,1,6,0:0:0:0:
359,347,94362,1,0,0:0:0:0:
262,102,94530,5,8,0:0:0:0:
262,102,94614,1,8,0:0:0:0:
262,102,94699,1,8,0:0:0:0:
436,252,94867,1,8,0:0:0:0:
436,252,94952,1,8,0:0:0:0:
199,349,95204,5,2,0:0:0:0:
175,343,95288,1,2,0:0:0:0:
151,337,95373,1,6,0:0:0:0:
256,192,95457,12,0,100598,0:0:0:0:
