osu file format v14

[General]
AudioFilename: audio.mp3
AudioLeadIn: 0
PreviewTime: 51047
Countdown: 0
SampleSet: Soft
StackLeniency: 0.7
Mode: 0
LetterboxInBreaks: 0
WidescreenStoryboard: 0

[Editor]
Bookmarks: 7889,36372,44125
DistanceSpacing: 1
BeatDivisor: 2
GridSize: 32
TimelineZoom: 1

[Metadata]
Title:Million Smile
TitleUnicode:Million Smile
Artist:Machico
ArtistUnicode:Machico
Creator:joker-
Version:Normal
Source:この素晴らしい世界に祝福を! -この欲深いゲームに審判を!-
Tags:opening RepL4y 園田智也 Tomoya Sonoda OP Kono Subarashii Sekai ni Syukufuku Yokubukai Game Shinpan wo PS4 PS Vita PlayStation NIPPON COLUMBIA KONOSUBA God's blessing on this wonderful world
BeatmapID:1375729
BeatmapSetID:640013

[Difficulty]
HPDrainRate:3
CircleSize:3.5
OverallDifficulty:4
ApproachRate:5
SliderMultiplier:1.05
SliderTickRate:1

[Events]
//Background and Video events
0,0,"bg.jpg",0,0
//Break Periods
//Storyboard Layer 0 (Background)
//Storyboard Layer 1 (Fail)
//Storyboard Layer 2 (Pass)
//Storyboard Layer 3 (Foreground)
//Storyboard Sound Samples

[TimingPoints]
-694,337.078651685393,4,2,1,30,1,0
654,-100,4,2,1,50,0,0
3182,-100,4,2,1,50,0,0
4530,-100,4,2,1,50,0,0
5036,-100,4,2,2,50,0,0
5204,-100,4,2,1,50,0,0
5879,-100,4,2,2,50,0,0
6384,-100,4,2,2,60,0,0
16834,-100,4,2,2,50,0,0
26272,-100,4,2,2,50,0,0
27620,-100,4,2,2,50,0,0
31497,-100,4,2,1,30,0,0
31834,-100,4,2,2,50,0,0
37058,-100,4,2,2,55,0,0
38407,-100,4,2,2,50,0,0
44643,-100,4,2,2,30,0,0
44811,-100,4,2,2,55,0,0
45991,-100,4,2,2,30,0,0
46075,-100,4,2,2,55,0,0
46497,-100,4,2,2,55,0,0
51384,-100,4,2,2,35,0,0
51553,-100,4,2,2,35,0,0
51890,-95.2380952380951,4,2,2,65,0,1
62171,-95.2380952380951,4,2,2,45,0,1
62676,-95.2380952380951,4,2,2,65,0,1
76159,-100,4,2,2,50,0,0
100598,-100,4,2,2,5,0,0

[Colours]
Combo1 : 167,79,255
Combo2 : 5,190,237
Combo3 : 255,255,68
Combo4 : 251,66,4

[HitObjects]
117,251,654,6,0,P|167:228|233:237,1,105,2|10,3:0|0:0,0:0:0:0:
253,267,1159,2,0,L|364:251,1,105,2|2,0:0|0:0,0:0:0:0:
394,215,1665,2,0,P|413:157|411:98,1,105,2|2,0:0|2:3,0:0:0:0:
339,38,2339,2,0,P|278:41|237:56,1,105,0|8,0:0|3:0,0:0:0:0:
194,87,2845,1,2,0:0:0:0:
119,161,3182,6,0,B|89:207|93:263|93:263|143:315,1,157.5,6|8,0:0|0:0,0:0:0:0:
167,334,3856,1,8,0:0:0:0:
167,334,4025,2,0,L|234:350,1,52.5,8|8,0:0|0:0,0:0:0:0:
258,312,4362,1,8,0:0:0:0:
258,312,4530,2,0,P|322:288|377:301,1,105,2|2,0:0|0:0,0:0:0:0:
442,232,5204,1,2,0:0:0:0:
375,150,5541,2,0,P|326:118|259:108,1,105,6|2,0:0|0:0,0:0:0:0:
231,126,6047,5,0,0:0:0:0:
196,225,6384,2,0,P|115:238|69:231,1,105,6|8,0:0|0:0,0:0:0:0:
46,209,6890,2,0,P|31:165|25:146,1,52.5,8|8,3:0|0:0,0:0:0:0:
40,107,7227,2,0,P|99:80|156:94,1,105,6|0,0:0|2:0,0:0:0:0:
231,126,7901,2,0,P|282:128|328:103,1,105
372,75,8407,1,8,0:0:0:0:
372,75,8575,6,0,B|399:182|399:182|376:236,1,157.5,6|8,0:0|0:0,0:0:0:0:
351,269,9249,1,0,0:0:0:0:
351,269,9418,2,0,P|299:284|235:254,1,105,2|8,0:0|0:0,0:0:0:0:
158,221,10092,2,0,L|44:233,2,105,2|8|2,0:0|0:0|0:0,0:0:0:0:
231,145,11103,1,8,0:0:0:0:
168,60,11440,6,0,P|109:62|51:99,1,105,6|8,0:0|0:0,0:0:0:0:
41,127,11946,2,0,P|52:207|54:260,1,105,0|0,0:0|0:0,0:0:0:0:
118,313,12620,2,0,P|168:339|233:326,1,105,6|2,0:0|0:0,0:0:0:0:
262,312,13126,1,8,0:0:0:0:
262,312,13294,2,0,P|275:254|292:203,1,105,6|2,0:0|0:0,0:0:0:0:
314,164,13800,1,8,0:0:0:0:
314,164,13968,6,0,P|361:132|463:155,1,157.5,6|8,0:0|0:0,0:0:0:0:
504,241,14811,1,8,0:0:0:0:
437,322,15148,1,8,0:0:0:0:
437,322,15317,2,0,P|382:324|317:285,1,105,6|2,0:0|0:0,0:0:0:0:
296,280,15822,1,8,0:0:0:0:
296,280,15991,2,0,P|241:278|176:317,1,105,6|8,0:0|0:0,0:0:0:0:
159,336,16497,1,8,0:0:0:0:
53,346,16834,6,0,P|37:283|34:218,1,105,2|8,0:0|0:0,0:0:0:0:
80,149,17508,2,0,P|128:127|193:137,1,105,2|8,0:0|0:0,0:0:0:0:
224,156,18013,1,0,0:0:0:0:
224,156,18182,2,0,P|275:159|322:138,1,105,2|8,0:0|0:0,0:0:0:0:
407,74,18856,2,0,P|467:85|505:123,1,105,0|8,0:0|0:0,0:0:0:0:
503,165,19362,1,0,0:0:0:0:
503,165,19530,6,0,P|481:237|477:280,1,105,2|8,0:0|0:0,0:0:0:0:
435,362,20204,2,0,P|359:352|313:315,1,105,2|8,0:0|0:0,0:0:0:0:
308,293,20710,2,0,P|249:272|191:279,1,105,2|2,0:0|0:0,0:0:0:0:
163,303,21216,1,8,0:0:0:0:
163,303,21384,2,0,P|105:323|47:313,1,105,0|2,0:0|0:0,0:0:0:0:
24,281,21890,1,8,0:0:0:0:
70,186,22227,6,0,P|136:164|191:166,1,105,6|8,0:0|0:0,0:0:0:0:
269,199,22901,2,0,L|393:214,1,105,2|8,0:0|0:0,0:0:0:0:
418,186,23407,2,0,P|445:132|425:71,1,105,6|2,0:0|0:0,0:0:0:0:
406,48,23912,1,8,0:0:0:0:
406,48,24081,2,0,L|301:60,1,105,0|2,0:0|0:0,0:0:0:0:
235,141,24755,6,0,P|182:147|129:118,1,105,6|2,0:0|0:0,0:0:0:0:
91,98,25261,2,0,L|110:225,1,105,8|2,0:0|0:0,0:0:0:0:
164,289,25935,1,8,0:0:0:0:
248,226,26272,2,0,P|302:222|356:243,1,105,6|8,0:0|0:0,0:0:0:0:
388,273,26777,2,0,P|442:277|496:256,1,105,6|8,0:0|0:0,0:0:0:0:
511,212,27283,1,8,0:0:0:0:
452,124,27620,6,0,P|395:102|332:107,1,105,6|8,0:0|0:0,0:0:0:0:
294,190,28294,2,0,L|181:209,1,105,2|8,0:0|0:0,0:0:0:0:
155,246,28800,1,0,0:0:0:0:
155,246,28968,2,0,P|165:320|150:357,1,105,2|8,0:0|0:0,0:0:0:0:
62,297,29643,2,0,P|52:223|67:186,1,105,0|8,0:0|0:0,0:0:0:0:
85,149,30148,1,0,0:0:0:0:
85,149,30317,6,0,L|192:159,1,105,2|8,0:0|0:0,0:0:0:0:
251,243,30991,2,0,P|314:267|371:258,1,105,2|8,0:0|0:0,0:0:0:0:
397,239,31497,2,0,P|409:180|429:131,1,105,2|2,3:2|3:0,0:0:0:0:
401,92,32002,1,8,0:0:0:0:
401,92,32171,2,0,P|322:97|280:127,1,105,0|2,0:0|0:0,0:0:0:0:
258,138,32676,1,8,0:0:0:0:
205,229,33013,6,0,P|138:243|93:232,1,105,6|8,0:0|0:0,0:0:0:0:
39,152,33688,2,0,L|21:45,1,105,2|8,0:0|0:0,0:0:0:0:
70,67,34193,2,0,P|125:90|195:75,1,105,6|2,0:0|0:0,0:0:0:0:
217,65,34699,1,8,0:0:0:0:
217,65,34867,2,0,P|268:62|316:84,1,105,0|8,0:0|0:0,0:0:0:0:
382,165,35541,6,0,P|368:257|365:294,1,105,6|0,0:0|0:0,0:0:0:0:
333,310,36047,1,8,0:0:0:0:
239,358,36384,1,8,0:0:0:0:
158,290,36721,1,8,0:0:0:0:
221,206,37058,2,0,P|250:152|257:99,1,105,6|8,0:0|0:0,0:0:0:0:
217,73,37564,2,0,P|155:74|106:95,1,105,6|2,0:0|0:0,0:0:0:0:
81,130,38070,1,2,0:0:0:0:
7,204,38407,6,0,P|6:267|25:322,1,105,6|8,0:0|0:0,0:0:0:0:
120,326,39081,2,0,L|106:387,2,52.5,2|2|8,3:0|3:0|0:0,0:0:0:0:
167,304,39586,2,0,P|227:280|279:291,1,105,6|2,0:0|0:0,0:0:0:0:
313,308,40092,1,8,0:0:0:0:
313,308,40261,2,0,P|370:311|418:274,1,105,0|2,0:0|3:0,0:0:0:0:
446,249,40766,1,8,0:0:0:0:
512,168,41103,6,0,P|513:105|494:50,1,105,6|8,0:0|0:0,0:0:0:0:
397,53,41777,2,0,L|411:-8,2,52.5,2|2|8,3:0|3:0|0:0,0:0:0:0:
356,85,42282,2,0,P|296:109|244:98,1,105,6|2,0:0|0:0,0:0:0:0:
210,78,42788,1,8,0:0:0:0:
210,78,42957,2,0,P|153:75|105:112,1,105,2|2,3:0|3:0,0:0:0:0:
79,138,43462,1,8,0:0:0:0:
151,214,43800,6,0,P|210:224|259:258,1,105,10|10,0:0|0:0,0:0:0:0:
286,282,44305,1,0,0:0:0:0:
286,282,44474,2,0,P|345:272|394:238,1,105,10|8,0:0|0:0,0:0:0:0:
463,181,45148,2,0,P|453:108|441:58,1,105,14|10,0:0|0:0,0:0:0:0:
409,40,45654,1,0,0:0:0:0:
409,40,45822,2,0,L|340:58,1,52.5,10|8,0:0|1:0,0:0:0:0:
308,35,46159,1,2,0:0:0:0:
251,123,46497,6,0,P|240:188|237:241,1,105,6|8,0:0|0:0,0:0:0:0:
222,277,47002,1,2,3:0:0:0:
222,277,47171,2,0,P|167:296|102:284,1,105,2|2,3:0|3:0,0:0:0:0:
39,225,47845,2,0,P|20:172|36:114,1,105,2|2,3:0|3:0,0:0:0:0:
112,60,48519,2,0,L|176:74,1,52.5,2|2,3:0|0:0,0:0:0:0:
211,44,48856,1,8,0:0:0:0:
261,136,49193,6,0,P|247:195|254:255,1,105,6|8,0:0|0:0,0:0:0:0:
282,280,49699,2,0,L|401:301,1,105,2|0,0:0|1:0,0:0:0:0:
429,270,50204,1,8,0:0:0:0:
429,270,50373,1,4,0:0:0:0:
313,34,51216,2,0,L|229:12,1,52.5,0|2,0:0|0:0,0:0:0:0:
231,63,51553,2,0,L|159:77,1,52.5,14|0,0:0|0:0,0:0:0:0:
127,90,51890,6,0,P|117:158|148:225,1,110.249996635437,6|8,0:0|0:0,0:0:0:0:
186,289,52564,2,0,P|244:269|302:281,1,110.249996635437,2|8,0:0|0:0,0:0:0:0:
341,298,53070,2,0,P|395:304|446:285,1,110.249996635437,0|0,0:0|0:0,0:0:0:0:
489,251,53575,2,0,L|499:191,1,55.1249983177186,8|0,0:0|0:0,0:0:0:0:
456,160,53912,2,0,L|447:96,2,55.1249983177186,2|0|10,0:0|0:0|0:0,0:0:0:0:
359,106,54586,6,0,P|304:84|242:88,1,110.249996635437,6|8,0:0|0:0,0:0:0:0:
179,167,55261,2,0,P|188:232|184:293,1,110.249996635437,2|8,0:0|0:0,0:0:0:0:
144,312,55766,2,0,P|91:330|28:297,1,110.249996635437,0|0,0:0|0:0,0:0:0:0:
10,266,56272,2,0,P|3:228|2:204,1,55.1249983177186,8|0,0:0|0:0,0:0:0:0:
45,176,56609,2,0,P|52:138|53:114,1,55.1249983177186,2|0,0:0|0:0,0:0:0:0:
23,74,56946,1,8,0:0:0:0:
124,31,57283,6,0,P|192:38|254:77,1,110.249996635437,6|8,0:0|0:0,0:0:0:0:
264,98,57789,2,0,P|250:161|260:206,1,110.249996635437,0|0,0:0|0:0,0:0:0:0:
283,253,58294,1,8,0:0:0:0:
283,253,58463,2,0,B|338:250|387:283|387:283|446:234,1,165.374994953156,6|8,0:0|0:0,0:0:0:0:
507,170,59305,2,0,P|430:137|378:150,1,110.249996635437,2|8,0:0|0:0,0:0:0:0:
298,163,59980,6,0,P|243:160|196:132,1,110.249996635437,6|8,0:0|0:0,0:0:0:0:
120,53,60654,2,0,P|91:99|89:154,1,110.249996635437,6|8,0:0|0:0,0:0:0:0:
127,257,61328,2,0,L|189:272,1,55.1249983177186,6|2,0:0|0:0,0:0:0:0:
227,240,61665,1,8,0:0:0:0:
227,240,61834,2,0,P|288:217|350:237,1,110.249996635437,6|2,0:0|0:0,0:0:0:0:
379,251,62339,2,0,P|421:247|438:239,1,55.1249983177186,2|4,0:0|3:0,0:0:0:0:
461,194,62676,6,0,P|475:141|466:77,1,110.249996635437,6|8,0:0|0:0,0:0:0:0:
375,28,63350,2,0,P|322:14|258:23,1,110.249996635437,2|8,0:0|0:0,0:0:0:0:
225,55,63856,2,0,P|235:109|232:178,1,110.249996635437,0|0,0:0|0:0,0:0:0:0:
210,214,64362,2,0,L|196:278,1,55.1249983177186,8|0,0:0|0:0,0:0:0:0:
152,299,64699,2,0,L|161:362,2,55.1249983177186,2|0|8,0:0|0:0|0:0,0:0:0:0:
49,259,65373,6,0,P|33:201|52:135,1,110.249996635437,6|2,0:0|0:0,0:0:0:0:
102,60,66047,2,0,L|174:38,1,55.1249983177186,2|2,0:0|0:0,0:0:0:0:
200,74,66384,1,2,0:0:0:0:
200,74,66553,2,0,P|263:97|320:71,1,110.249996635437,6|2,0:0|0:0,0:0:0:0:
352,62,67058,1,8,0:0:0:0:
352,62,67227,2,0,P|414:51|497:128,1,165.374994953156,6|8,0:0|0:0,0:0:0:0:
459,215,68070,6,0,P|399:219|344:229,1,110.249996635437,6|8,0:0|0:0,0:0:0:0:
319,273,68575,2,0,P|257:287|208:260,1,110.249996635437,0|0,0:0|0:0,0:0:0:0:
165,246,69081,1,8,0:0:0:0:
165,246,69249,2,0,L|181:126,1,110.249996635437,2|0,0:0|0:0,0:0:0:0:
144,94,69755,1,8,0:0:0:0:
53,160,70092,2,0,P|35:224|41:273,1,110.249996635437,2|8,0:0|0:0,0:0:0:0:
107,353,70766,6,0,P|177:338|246:335,1,110.249996635437,6|2,0:0|0:0,0:0:0:0:
268,349,71272,2,0,P|322:343|376:330,1,110.249996635437,6|0,0:0|0:0,0:0:0:0:
416,293,71777,1,6,0:0:0:0:
351,203,72114,1,2,0:0:0:0:
351,203,72283,2,0,P|331:147|337:84,1,110.249996635437,6|0,0:0|0:0,0:0:0:0:
293,59,72789,2,0,P|242:61|177:77,1,110.249996635437,6|8,0:0|0:0,0:0:0:0:
130,86,73294,1,2,0:0:0:0:
130,86,73463,6,0,L|109:26,2,55.1249983177186,6|0|8,0:0|0:0|0:0,0:0:0:0:
49,161,74137,2,0,P|53:222|76:279,1,110.249996635437,8|8,0:0|0:0,0:0:0:0:
116,296,74643,2,0,P|182:276|255:275,1,110.249996635437,6|0,0:0|0:0,0:0:0:0:
273,293,75148,1,8,0:0:0:0:
273,293,75317,2,0,P|326:309|390:307,1,110.249996635437,6|2,0:0|0:0,0:0:0:0:
430,286,75822,1,2,0:0:0:0:
497,205,76159,6,0,P|442:180|379:193,1,105,6|8,0:0|0:0,0:0:0:0:
295,202,76834,2,0,P|243:204|196:181,1,105,2|8,0:0|0:0,0:0:0:0:
155,150,77339,2,0,L|31:163,1,105,2|2,3:0|3:0,0:0:0:0:
8,193,77845,1,8,0:0:0:0:
8,193,78013,2,0,P|-10:260|2:310,1,105,2|2,3:0|3:0,0:0:0:0:
19,341,78519,1,8,0:0:0:0:
116,302,78856,6,0,P|166:281|250:292,1,105,2|8,0:0|0:0,0:0:0:0:
299,344,79530,2,0,P|381:360|419:364,1,105,2|2,0:0|3:0,0:0:0:0:
449,339,80036,2,0,P|474:278|453:224,1,105,2|2,3:0|3:0,0:0:0:0:
441,195,80541,1,8,0:0:0:0:
441,195,80710,2,0,P|416:134|437:80,1,105,2|2,3:0|3:0,0:0:0:0:
451,52,81216,1,8,0:0:0:0:
352,15,81553,5,6,0:0:0:0:
293,102,81890,2,0,P|275:160|270:224,2,105,8|2|8,0:0|0:0|0:0,0:0:0:0:
256,64,82732,1,2,3:0:0:0:
256,64,82901,2,0,P|199:42|125:63,1,105,6|8,0:0|0:0,0:0:0:0:
111,74,83407,2,0,L|124:203,1,105,2|2,3:0|3:0,0:0:0:0:
109,229,83912,1,8,0:0:0:0:
157,324,84249,6,0,P|222:305|273:317,1,105,6|8,0:0|0:0,0:0:0:0:
355,350,84923,2,0,P|422:336|463:298,1,105,2|8,0:0|0:0,0:0:0:0:
470,265,85429,2,0,L|465:145,1,105,6|2,0:0|3:0,0:0:0:0:
433,118,85935,2,0,L|373:109,1,52.5,8|2,0:0|3:0,0:0:0:0:
350,153,86272,2,0,L|281:163,1,52.5,2|2,0:0|3:0,0:0:0:0:
253,132,86609,1,8,0:0:0:0:
207,226,86946,6,0,P|148:255|88:249,1,105,6|8,0:0|0:0,0:0:0:0:
19,201,87620,2,0,L|37:89,1,105,2|8,0:0|0:0,0:0:0:0:
73,60,88126,2,0,P|132:41|197:69,1,105,2|2,3:0|3:0,0:0:0:0:
213,82,88631,2,0,L|270:69,1,52.5,8|2,0:0|3:0,0:0:0:0:
314,85,88968,2,0,P|330:141|307:206,1,105,2|8,0:0|0:0,0:0:0:0:
240,260,89643,6,0,L|256:387,1,105,6|8,0:0|0:0,0:0:0:0:
301,344,90148,2,0,P|348:321|434:325,1,105,2|0,3:0|0:0,0:0:0:0:
438,288,90654,2,0,P|463:232|452:179,1,105,6|2,0:0|0:0,0:0:0:0:
413,94,91328,1,8,0:0:0:0:
315,132,91665,1,2,0:0:0:0:
315,132,91834,2,0,P|241:134|200:109,1,105,2|2,3:0|3:0,0:0:0:0:
176,85,92339,6,0,L|106:98,1,52.5,6|2,0:0|0:0,0:0:0:0:
75,75,92676,1,8,0:0:0:0:
19,163,93013,2,0,P|6:242|22:286,1,105,8|8,0:0|0:0,0:0:0:0:
47,303,93519,2,0,L|173:282,1,105,6|2,0:0|0:0,0:0:0:0:
189,250,94025,1,8,0:0:0:0:
189,250,94193,2,0,P|241:246|306:282,1,105,6|8,0:0|0:0,0:0:0:0:
326,302,94699,1,8,0:0:0:0:
326,302,94867,1,8,0:0:0:0:
402,163,95373,5,6,0:0:0:0:
256,192,95541,12,0,100598,0:0:0:0:
