osu file format v14

[General]
AudioFilename: audio.mp3
AudioLeadIn: 0
PreviewTime: 51047
Countdown: 0
SampleSet: Soft
StackLeniency: 0.5
Mode: 0
LetterboxInBreaks: 0
WidescreenStoryboard: 0

[Editor]
DistanceSpacing: 0.18
BeatDivisor: 4
GridSize: 32
TimelineZoom: 1.4

[Metadata]
Title:Million Smile
TitleUnicode:Million Smile
Artist:Machico
ArtistUnicode:Machico
Creator:joker-
Version:Grin
Source:この素晴らしい世界に祝福を! -この欲深いゲームに審判を!-
Tags:opening RepL4y 園田智也 Tomoya Sonoda OP Kono Subarashii Sekai ni Syukufuku Yokubukai Game Shinpan wo PS4 PS Vita PlayStation NIPPON COLUMBIA KONOSUBA God's blessing on this wonderful world
BeatmapID:1397544
BeatmapSetID:640013

[Difficulty]
HPDrainRate:6
CircleSize:4
OverallDifficulty:8.2
ApproachRate:9.2
SliderMultiplier:1.75
SliderTickRate:1

[Events]
//Background and Video events
0,0,"bg.jpg",0,0
//Break Periods
//Storyboard Layer 0 (Background)
//Storyboard Layer 1 (Fail)
//Storyboard Layer 2 (Pass)
//Storyboard Layer 3 (Foreground)
//Storyboard Sound Samples

[TimingPoints]
-694,337.078651685393,4,2,1,30,1,0
654,-142.857142857143,4,2,1,50,0,0
3182,-100,4,2,1,50,0,0
4530,-83.3333333333333,4,2,1,50,0,0
5036,-83.3333333333333,4,2,2,50,0,0
5204,-83.3333333333333,4,2,1,50,0,0
5541,-100,4,2,1,50,0,0
5879,-100,4,2,2,50,0,0
6384,-90.9090909090909,4,2,2,60,0,0
16834,-100,4,2,2,50,0,0
26272,-90.9090909090909,4,2,2,50,0,0
27620,-100,4,2,2,50,0,0
31497,-100,4,2,1,30,0,0
31834,-100,4,2,2,50,0,0
37058,-90.9090909090909,4,2,2,55,0,0
38407,-100,4,2,2,50,0,0
43800,-90.9090909090909,4,2,2,50,0,0
44643,-90.9090909090909,4,2,2,30,0,0
44811,-90.9090909090909,4,2,2,55,0,0
45991,-90.9090909090909,4,2,2,30,0,0
46075,-90.9090909090909,4,2,2,55,0,0
46159,-125,4,2,2,55,0,0
46497,-100,4,2,2,55,0,0
50373,-90.9090909090909,4,2,2,55,0,0
51384,-90.9090909090909,4,2,2,35,0,0
51890,-86.9565217391304,4,2,2,65,0,1
62171,-90.9090909090909,4,2,2,45,0,1
62676,-90.9090909090909,4,2,2,65,0,1
70766,-80,4,2,2,65,0,1
76159,-90.9090909090909,4,2,2,50,0,0
100598,-90.9090909090909,4,2,2,5,0,0

[Colours]
Combo1 : 167,79,255
Combo2 : 5,190,237
Combo3 : 255,255,68
Combo4 : 251,66,4

[HitObjects]
74,287,485,5,2,3:0:0:0:
74,287,570,1,2,3:0:0:0:
74,287,654,2,0,P|144:296|202:251,1,122.499996261597,2|10,3:0|0:0,0:0:0:0:
245,151,1159,2,0,L|373:158,1,122.499996261597,2|2,0:0|0:0,0:0:0:0:
484,265,1665,6,0,B|449:290|400:264|400:264|352:233|290:289,1,183.749994392395,2|8,0:0|3:0,0:0:0:0:
245,151,2339,2,0,L|228:22,1,122.499996261597,0|8,0:0|3:0,0:0:0:0:
105,113,2845,1,2,0:0:0:0:
101,136,2929,1,2,0:0:0:0:
99,161,3013,1,2,0:0:0:0:
97,184,3097,1,2,0:0:0:0:
94,207,3182,6,0,P|149:261|248:233,1,175,6|0,0:0|0:0,0:0:0:0:
358,127,3688,1,8,0:0:0:0:
180,169,3856,1,8,0:0:0:0:
375,220,4025,1,8,0:0:0:0:
301,15,4193,1,8,0:0:0:0:
238,243,4362,1,8,0:0:0:0:
459,157,4530,6,0,P|467:105|471:52,1,104.999996795654,2|0,0:0|0:0,0:0:0:0:
298,194,4867,6,0,P|281:142|255:79,1,104.999996795654,2|8,0:0|0:0,0:0:0:0:
215,338,5204,6,0,P|178:296|130:253,1,104.999996795654,2|0,0:0|0:0,0:0:0:0:
445,307,5541,6,0,P|481:259|439:142,1,175,6|2,0:0|0:0,0:0:0:0:
371,160,5963,1,2,0:0:0:0:
353,180,6047,2,0,L|344:199,6,21.875
345,224,6384,6,0,P|291:212|230:204,1,96.250002937317,6|2,0:0|0:0,0:0:0:0:
35,61,6721,1,8,0:0:0:0:
235,101,6890,1,8,3:0:0:0:
57,255,7058,1,8,0:0:0:0:
161,20,7227,6,0,P|208:9|280:7,1,96.250002937317,6|0,0:0|0:0,0:0:0:0:
421,141,7564,2,0,P|443:98|462:28,1,96.250002937317,0|8,2:0|0:0,0:0:0:0:
274,144,7901,2,0,P|294:192|319:239,1,96.250002937317,0|2,0:0|0:0,0:0:0:0:
511,284,8238,1,0,0:0:0:0:
421,141,8407,1,8,0:0:0:0:
284,308,8575,6,0,P|211:332|123:250,1,192.500005874634,6|2,0:0|0:0,0:0:0:0:
77,144,9081,1,8,0:0:0:0:
219,234,9249,1,0,0:0:0:0:
265,51,9418,2,0,P|215:36|155:30,1,96.250002937317,2|0,0:0|0:0,0:0:0:0:
326,172,9755,2,0,P|371:157|419:150,1,96.250002937317,8|0,0:0|0:0,0:0:0:0:
288,335,10092,6,0,P|237:330|189:312,1,96.250002937317,2|0,0:0|0:0,0:0:0:0:
326,172,10429,2,0,P|348:214|361:260,1,96.250002937317,8|0,0:0|0:0,0:0:0:0:
134,201,10766,2,0,P|179:216|227:221,1,96.250002937317,2|0,0:0|0:0,0:0:0:0:
419,149,11103,2,0,P|441:106|454:60,1,96.250002937317,8|0,0:0|0:0,0:0:0:0:
138,14,11440,6,0,P|146:89|160:199,1,144.375004405975,6|0,0:0|0:0,0:0:0:0:
134,201,11777,1,8,0:0:0:0:
285,103,11946,2,0,P|336:113|396:138,1,96.250002937317,0|2,0:0|0:0,0:0:0:0:
458,294,12283,1,0,0:0:0:0:
499,154,12452,1,8,0:0:0:0:
321,287,12620,6,0,B|283:315|231:289|231:289|172:258|108:313,1,192.500005874634,6|2,0:0|0:0,0:0:0:0:
42,217,13126,1,8,0:0:0:0:
258,128,13294,2,0,P|271:190|274:243,1,96.250002937317,6|0,0:0|0:0,0:0:0:0:
182,364,13631,1,2,0:0:0:0:
129,207,13800,1,8,0:0:0:0:
348,321,13968,6,0,P|422:332|492:264,1,144.375004405975,6|0,0:0|0:0,0:0:0:0:
509,255,14305,1,2,0:0:0:0:
335,165,14474,2,0,P|323:116|319:61,1,96.250002937317,8|0,0:0|0:0,0:0:0:0:
505,3,14811,1,8,0:0:0:0:
445,125,14980,1,2,0:0:0:0:
445,125,15064,1,2,0:0:0:0:
445,125,15148,1,8,0:0:0:0:
235,16,15317,6,0,P|154:29|63:41,1,144.375004405975,6|0,0:0|0:0,0:0:0:0:
56,71,15654,1,2,0:0:0:0:
106,209,15822,1,8,0:0:0:0:
288,84,15991,2,0,P|370:60|449:144,1,192.500005874634,6|8,0:0|0:0,0:0:0:0:
444,124,16412,1,8,0:0:0:0:
444,124,16497,1,8,0:0:0:0:
383,298,16665,1,8,0:0:0:0:
380,308,16749,1,8,0:0:0:0:
377,316,16834,6,0,L|193:295,1,175,2|8,0:0|0:0,0:0:0:0:
116,224,17339,1,0,0:0:0:0:
192,98,17508,2,0,P|256:79|339:140,1,175,2|8,0:0|0:0,0:0:0:0:
249,177,18013,1,0,0:0:0:0:
122,23,18182,6,0,P|102:91|86:214,1,175,2|8,0:0|0:0,0:0:0:0:
138,289,18688,1,2,0:0:0:0:
249,177,18856,2,0,P|320:140|419:183,1,175,0|8,0:0|0:0,0:0:0:0:
455,265,19362,1,0,0:0:0:0:
308,325,19530,6,0,P|243:307|133:288,1,175,2|8,0:0|0:0,0:0:0:0:
86,193,20036,1,0,0:0:0:0:
220,158,20204,1,2,0:0:0:0:
118,16,20373,2,0,P|102:66|95:110,1,87.5,2|8,0:0|0:0,0:0:0:0:
242,242,20710,6,0,P|233:199|219:157,1,87.5,2|0,0:0|0:0,0:0:0:0:
290,40,21047,1,2,0:0:0:0:
290,40,21216,1,8,0:0:0:0:
438,119,21384,2,0,P|429:171|410:223,1,87.5,0|2,0:0|0:0,0:0:0:0:
321,320,21721,1,2,0:0:0:0:
219,157,21890,1,8,0:0:0:0:
334,204,22058,1,0,0:0:0:0:
172,352,22227,6,0,P|151:295|127:167,1,175,6|8,0:0|0:0,0:0:0:0:
128,183,22901,1,2,0:0:0:0:
176,56,23070,1,2,0:0:0:0:
33,133,23238,1,8,0:0:0:0:
244,176,23407,6,0,P|289:171|339:151,1,87.5,6|0,0:0|0:0,0:0:0:0:
505,315,23744,2,0,P|463:300|420:295,1,87.5,2|8,0:0|0:0,0:0:0:0:
277,384,24081,2,0,P|310:355|335:320,1,87.5,0|2,0:0|0:0,0:0:0:0:
328,156,24418,2,0,P|335:198|353:238,1,87.5,2|8,0:0|0:0,0:0:0:0:
386,56,24755,6,0,P|312:40|223:111,1,175,6|2,0:0|0:0,0:0:0:0:
148,204,25261,2,0,P|131:161|118:104,1,87.5,8|0,0:0|0:0,0:0:0:0:
336,156,25598,2,0,P|325:198|308:238,1,87.5,2|2,0:0|0:0,0:0:0:0:
115,287,25935,1,8,0:0:0:0:
115,287,26272,6,0,B|162:308|162:308|272:284,1,144.375004405975,6|0,0:0|0:0,0:0:0:0:
308,238,26609,1,8,0:0:0:0:
247,56,26777,2,0,B|226:103|226:103|250:213,1,144.375004405975,6|0,0:0|0:0,0:0:0:0:
308,238,27114,1,8,0:0:0:0:
444,122,27283,1,8,0:0:0:0:
498,318,27452,1,8,0:0:0:0:
498,318,27536,1,8,0:0:0:0:
498,318,27620,6,0,P|434:345|338:301,1,175,6|8,0:0|0:0,0:0:0:0:
426,232,28126,1,0,0:0:0:0:
301,147,28294,2,0,P|255:139|201:137,1,87.5,2|2,0:0|0:0,0:0:0:0:
63,215,28631,1,8,0:0:0:0:
100,92,28800,1,0,0:0:0:0:
177,263,28968,6,0,P|268:292|335:217,1,175,2|8,0:0|0:0,0:0:0:0:
389,136,29474,1,2,0:0:0:0:
264,27,29643,2,0,P|249:74|237:132,1,87.5,0|2,0:0|0:0,0:0:0:0:
177,263,29980,1,8,0:0:0:0:
74,194,30148,1,0,0:0:0:0:
306,168,30317,6,0,P|384:157|485:153,1,175,2|8,0:0|0:0,0:0:0:0:
419,239,30822,1,0,0:0:0:0:
350,78,30991,2,0,P|295:69|241:63,1,87.5,2|2,0:0|0:0,0:0:0:0:
186,175,31328,1,8,0:0:0:0:
103,43,31497,5,2,3:2:0:0:
103,43,31581,1,2,3:2:0:0:
103,43,31665,1,2,3:2:0:0:
25,194,31834,2,0,P|10:237|3:299,1,87.5,2|8,3:0|0:0,0:0:0:0:
186,175,32171,2,0,P|191:220|211:280,1,87.5,0|2,0:0|0:0,0:0:0:0:
310,324,32508,1,2,0:0:0:0:
336,164,32676,1,8,0:0:0:0:
202,260,32845,1,0,0:0:0:0:
407,308,33013,6,0,P|418:258|437:131,1,175,6|8,0:0|0:0,0:0:0:0:
436,135,33688,1,2,0:0:0:0:
346,46,33856,1,2,0:0:0:0:
498,25,34025,1,8,0:0:0:0:
339,160,34193,6,0,P|259:179|179:125,1,175,6|2,0:0|0:0,0:0:0:0:
104,54,34699,1,8,0:0:0:0:
244,0,34867,2,0,P|262:47|274:100,1,87.5,0|2,0:0|0:0,0:0:0:0:
97,182,35204,1,8,0:0:0:0:
211,274,35373,1,8,0:0:0:0:
271,82,35541,6,0,P|354:87|456:100,1,175,6|0,0:0|0:0,0:0:0:0:
307,269,36047,5,8,0:0:0:0:
237,175,36216,1,2,0:0:0:0:
428,230,36384,5,8,0:0:0:0:
361,340,36553,1,2,0:0:0:0:
338,130,36721,5,8,0:0:0:0:
428,230,36890,1,2,0:0:0:0:
235,316,37058,6,0,P|177:298|69:283,1,144.375004405975,6|0,0:0|0:0,0:0:0:0:
38,225,37395,1,8,0:0:0:0:
243,145,37564,2,0,P|298:131|358:131,1,96.250002937317,6|0,0:0|0:0,0:0:0:0:
435,239,37901,1,2,0:0:0:0:
435,239,37985,1,2,0:0:0:0:
435,239,38070,1,2,0:0:0:0:
500,70,38238,1,8,3:0:0:0:
503,62,38322,1,8,3:0:0:0:
505,55,38407,6,0,P|450:39|394:30,1,87.5,6|0,0:0|0:0,0:0:0:0:
243,145,38744,2,0,P|256:200|276:253,1,87.5,8|0,0:0|0:0,0:0:0:0:
424,320,39081,1,2,3:0:0:0:
302,354,39249,1,2,3:0:0:0:
383,195,39418,1,8,0:0:0:0:
187,263,39586,6,0,P|141:258|94:240,1,87.5,6|0,0:0|0:0,0:0:0:0:
243,145,39923,2,0,P|284:130|327:126,1,87.5,2|8,0:0|0:0,0:0:0:0:
181,24,40261,1,0,0:0:0:0:
147,175,40429,1,2,3:0:0:0:
276,54,40598,1,2,3:0:0:0:
80,80,40766,2,0,P|64:126|55:188,1,87.5,8|2,0:0|3:0,0:0:0:0:
182,351,41103,6,0,P|166:305|157:243,1,87.5,6|0,0:0|0:0,0:0:0:0:
336,155,41440,2,0,P|327:197|312:239,1,87.5,8|0,0:0|0:0,0:0:0:0:
159,172,41777,1,2,3:0:0:0:
248,293,41946,1,2,3:0:0:0:
336,155,42114,1,8,0:0:0:0:
158,266,42283,6,0,P|97:254|51:232,1,87.5,6|0,0:0|0:0,0:0:0:0:
148,88,42620,2,0,P|189:73|232:66,1,87.5,2|8,0:0|0:0,0:0:0:0:
336,155,42957,1,2,3:0:0:0:
396,25,43126,1,2,3:0:0:0:
232,65,43294,1,2,3:0:0:0:
423,134,43463,1,8,0:0:0:0:
234,192,43631,1,8,3:0:0:0:
234,192,43716,1,8,3:0:0:0:
234,192,43800,6,0,P|177:184|122:171,1,96.250002937317,10|0,0:0|0:0,0:0:0:0:
288,0,44137,2,0,P|315:51|336:109,1,96.250002937317,10|0,0:0|0:0,0:0:0:0:
259,317,44474,2,0,P|201:332|147:338,1,96.250002937317,10|8,0:0|1:0,0:0:0:0:
66,146,44811,1,8,0:0:0:0:
66,146,44980,1,2,0:0:0:0:
342,192,45148,6,0,P|398:187|454:171,1,96.250002937317,14|0,0:0|0:0,0:0:0:0:
288,0,45485,2,0,P|261:51|240:109,1,96.250002937317,10|0,0:0|0:0,0:0:0:0:
317,317,45822,2,0,P|375:332|429:338,1,96.250002937317,10|8,0:0|1:0,0:0:0:0:
464,337,46075,1,2,0:0:0:0:
464,337,46159,6,0,P|490:297|483:215,1,105,2|8,0:0|3:0,0:0:0:0:
481,214,46497,6,0,P|406:228|322:160,1,175,6|8,0:0|0:0,0:0:0:0:
425,116,47002,1,2,3:0:0:0:
256,34,47171,2,0,P|162:43|74:55,1,175,2|2,3:0|3:0,0:0:0:0:
0,153,47676,1,2,0:0:0:0:
162,242,47845,6,0,P|212:227|260:219,1,87.5,2|2,3:0|0:0,0:0:0:0:
359,55,48182,2,0,P|345:96|337:139,1,87.5,2|0,3:0|0:0,0:0:0:0:
405,334,48519,1,2,3:0:0:0:
459,180,48688,1,2,0:0:0:0:
268,305,48856,2,0,P|254:264|246:221,1,87.5,8|0,0:0|0:0,0:0:0:0:
287,62,49193,5,6,0:0:0:0:
149,118,49362,1,2,0:0:0:0:
336,138,49530,1,8,0:0:0:0:
112,204,49699,1,2,0:0:0:0:
186,35,49867,5,8,0:0:0:0:
383,211,50036,1,0,1:0:0:0:
361,9,50204,1,8,0:0:0:0:
169,274,50373,1,4,0:0:0:0:
272,232,51216,5,0,0:0:0:0:
329,350,51384,1,2,0:0:0:0:
329,350,51468,1,2,0:0:0:0:
329,350,51553,1,14,0:0:0:0:
170,278,51721,1,0,0:0:0:0:
397,228,51890,6,0,L|415:127,1,100.62500191927,6|0,0:0|0:0,0:0:0:0:
203,4,52227,1,8,0:0:0:0:
264,170,52395,1,0,0:0:0:0:
264,170,52480,1,2,0:0:0:0:
264,170,52564,2,0,L|275:283,1,100.62500191927,2|0,0:0|0:0,0:0:0:0:
124,368,52901,1,8,0:0:0:0:
17,195,53070,6,0,P|30:136|48:92,1,100.62500191927,0|2,0:0|0:0,0:0:0:0:
204,27,53407,1,0,0:0:0:0:
148,207,53575,1,8,0:0:0:0:
313,120,53744,1,0,0:0:0:0:
313,120,53828,1,2,0:0:0:0:
313,120,53912,1,2,0:0:0:0:
123,54,54081,1,0,0:0:0:0:
273,270,54249,2,0,P|321:284|376:285,1,100.62500191927,10|0,0:0|0:0,0:0:0:0:
499,66,54586,6,0,P|448:67|400:81,1,100.62500191927,6|0,0:0|0:0,0:0:0:0:
206,194,54923,1,8,0:0:0:0:
288,22,55092,1,0,0:0:0:0:
288,22,55176,1,2,0:0:0:0:
288,22,55261,2,0,P|306:86|313:126,1,100.62500191927,2|0,0:0|0:0,0:0:0:0:
136,51,55598,1,8,0:0:0:0:
85,265,55766,6,0,P|94:314|109:362,1,100.62500191927,0|2,0:0|0:0,0:0:0:0:
263,263,56103,1,0,0:0:0:0:
72,166,56272,1,8,0:0:0:0:
224,92,56440,1,0,0:0:0:0:
224,92,56525,1,2,0:0:0:0:
224,92,56609,1,2,0:0:0:0:
172,264,56777,1,0,0:0:0:0:
388,163,56946,2,0,P|440:148|494:144,1,100.62500191927,8|0,0:0|0:0,0:0:0:0:
393,354,57283,6,0,B|364:307|364:307|389:155,1,201.250003838539,6|8,0:0|0:0,0:0:0:0:
320,28,57789,1,0,0:0:0:0:
320,28,57873,1,2,0:0:0:0:
320,28,57957,1,2,0:0:0:0:
199,174,58126,2,0,P|184:232|177:300,1,100.62500191927,0|8,0:0|0:0,0:0:0:0:
24,76,58463,6,0,P|92:25|209:64,1,201.250003838539,6|2,0:0|0:0,0:0:0:0:
305,214,58968,1,8,0:0:0:0:
127,141,59137,1,0,0:0:0:0:
127,141,59221,1,2,0:0:0:0:
127,141,59305,2,0,P|70:154|24:178,1,100.62500191927,2|0,0:0|0:0,0:0:0:0:
138,329,59643,2,0,P|183:350|232:360,1,100.62500191927,8|0,0:0|0:0,0:0:0:0:
335,127,59980,6,0,L|319:20,1,100.62500191927,6|0,0:0|0:0,0:0:0:0:
209,213,60317,1,8,0:0:0:0:
437,145,60485,1,0,0:0:0:0:
437,145,60570,1,2,0:0:0:0:
437,145,60654,6,0,L|424:260,1,100.62500191927,6|0,0:0|0:0,0:0:0:0:
232,360,60991,1,8,0:0:0:0:
317,202,61159,1,0,0:0:0:0:
317,202,61244,1,2,0:0:0:0:
317,202,61328,5,6,0:0:0:0:
397,352,61497,1,2,0:0:0:0:
437,145,61665,1,8,0:0:0:0:
183,275,61834,6,0,P|131:261|78:232,1,100.62500191927,6|0,0:0|0:0,0:0:0:0:
333,124,62171,1,2,0:0:0:0:
333,124,62255,1,2,0:0:0:0:
333,124,62339,1,2,0:0:0:0:
121,28,62508,1,4,3:0:0:0:
109,23,62592,1,4,3:0:0:0:
97,18,62676,6,0,P|105:83|123:140,1,96.250002937317,6|0,0:0|0:0,0:0:0:0:
309,301,63013,2,0,P|320:254|324:206,1,96.250002937317,8|0,0:0|0:0,0:0:0:0:
116,277,63350,2,0,P|120:325|132:372,1,96.250002937317,2|0,0:0|0:0,0:0:0:0:
198,183,63688,1,8,0:0:0:0:
309,301,63856,6,0,P|374:288|413:271,1,96.250002937317,0|2,0:0|0:0,0:0:0:0:
512,182,64193,1,0,0:0:0:0:
349,95,64362,1,8,0:0:0:0:
401,276,64530,1,0,0:0:0:0:
439,46,64699,2,0,P|372:-3|270:30,1,192.500005874634,2|8,0:0|0:0,0:0:0:0:
189,201,65204,1,2,0:0:0:0:
189,201,65289,1,2,0:0:0:0:
189,201,65373,6,0,L|212:320,1,96.250002937317,6|0,0:0|0:0,0:0:0:0:
369,333,65710,1,2,0:0:0:0:
207,297,65879,1,2,0:0:0:0:
386,238,66047,1,2,0:0:0:0:
189,201,66216,1,2,0:0:0:0:
404,142,66384,1,2,0:0:0:0:
171,93,66553,6,0,P|117:104|71:121,1,96.250002937317,6|0,0:0|0:0,0:0:0:0:
189,201,66890,1,2,0:0:0:0:
279,21,67058,1,8,0:0:0:0:
386,238,67227,1,6,0:0:0:0:
432,50,67395,2,0,P|414:97|403:142,1,96.250002937317,2|0,0:0|0:0,0:0:0:0:
264,257,67732,1,8,0:0:0:0:
233,220,67817,1,0,0:0:0:0:
189,201,67900,1,8,0:0:0:0:
142,205,67985,1,8,0:0:0:0:
101,229,68070,6,0,P|80:186|71:114,1,96.250002937317,6|0,0:0|0:0,0:0:0:0:
228,16,68407,1,8,0:0:0:0:
292,164,68575,1,0,0:0:0:0:
292,164,68659,1,2,0:0:0:0:
292,164,68744,1,2,0:0:0:0:
352,54,68912,1,0,0:0:0:0:
174,125,69081,1,8,0:0:0:0:
379,293,69249,6,0,P|433:225|408:127,1,192.500005874634,2|0,0:0|0:0,0:0:0:0:
228,16,69755,1,8,0:0:0:0:
292,164,69923,1,0,0:0:0:0:
292,164,70008,1,2,0:0:0:0:
292,164,70092,2,0,P|282:215|266:264,1,96.250002937317,2|0,0:0|0:0,0:0:0:0:
103,354,70429,2,0,P|88:308|79:260,1,96.250002937317,8|0,0:0|0:0,0:0:0:0:
143,8,70766,6,0,B|167:57|167:57|145:181,1,164.0625,6|0,0:0|0:0,0:0:0:0:
184,243,71103,1,2,0:0:0:0:
409,229,71272,6,0,P|361:192|243:211,1,164.0625,6|0,0:0|0:0,0:0:0:0:
184,243,71609,1,0,0:0:0:0:
0,100,71777,6,0,P|94:85|164:80,1,164.0625,6|0,0:0|0:0,0:0:0:0:
245,47,72114,1,2,0:0:0:0:
429,327,72283,6,0,P|494:265|427:128,1,218.75,6|0,0:0|0:0,0:0:0:0:
245,338,72789,1,6,0:0:0:0:
284,133,72957,1,0,0:0:0:0:
284,133,73041,1,2,0:0:0:0:
284,133,73126,1,8,0:0:0:0:
407,234,73294,1,2,0:0:0:0:
407,234,73379,1,2,0:0:0:0:
407,234,73463,5,6,0:0:0:0:
178,213,73631,1,0,0:0:0:0:
354,357,73800,2,0,P|424:342|463:321,1,109.375,8|0,0:0|0:0,0:0:0:0:
380,100,74137,1,8,0:0:0:0:
299,265,74305,1,0,0:0:0:0:
299,265,74390,1,2,0:0:0:0:
299,265,74474,1,8,0:0:0:0:
253,11,74643,6,0,P|184:24|123:45,1,109.375,6|0,0:0|0:0,0:0:0:0:
44,248,74980,1,0,0:0:0:0:
299,265,75148,1,8,0:0:0:0:
103,101,75317,1,6,0:0:0:0:
165,350,75485,1,0,0:0:0:0:
261,112,75654,5,2,0:0:0:0:
291,81,75738,1,2,0:0:0:0:
331,63,75822,1,2,0:0:0:0:
375,62,75906,1,2,0:0:0:0:
416,77,75991,1,2,0:0:0:0:
448,105,76075,1,2,0:0:0:0:
468,144,76159,6,0,L|454:269,1,96.250002937317,6|0,0:0|0:0,0:0:0:0:
314,368,76497,1,8,0:0:0:0:
290,224,76665,1,0,0:0:0:0:
290,224,76749,1,2,0:0:0:0:
290,224,76834,2,0,L|190:239,1,96.250002937317,2|2,0:0|3:0,0:0:0:0:
57,167,77171,1,8,0:0:0:0:
177,20,77339,6,0,P|191:79|195:133,1,96.250002937317,2|2,3:0|0:0,0:0:0:0:
74,261,77676,2,0,P|60:202|56:148,1,96.250002937317,2|8,3:0|0:0,0:0:0:0:
297,131,78013,1,2,3:0:0:0:
297,131,78098,1,2,0:0:0:0:
297,131,78182,1,2,3:0:0:0:
250,257,78350,1,2,3:0:0:0:
194,114,78519,1,8,0:0:0:0:
359,225,78688,1,0,0:0:0:0:
383,19,78856,6,0,P|335:21|288:30,1,96.250002937317,2|0,0:0|0:0,0:0:0:0:
476,138,79193,1,8,0:0:0:0:
359,225,79362,1,0,0:0:0:0:
359,225,79446,1,2,0:0:0:0:
359,225,79530,2,0,L|342:348,1,96.250002937317,2|0,0:0|0:0,0:0:0:0:
158,367,79867,1,2,3:0:0:0:
239,214,80036,6,0,P|256:166|264:112,1,96.250002937317,2|2,3:0|0:0,0:0:0:0:
70,27,80373,2,0,P|78:74|94:119,1,96.250002937317,2|8,3:0|0:0,0:0:0:0:
249,28,80710,1,2,3:0:0:0:
249,28,80794,1,2,0:0:0:0:
249,28,80879,1,2,0:0:0:0:
355,164,81047,1,2,3:0:0:0:
362,172,81131,1,2,3:0:0:0:
369,180,81216,2,0,L|471:165,1,96.250002937317,8|2,0:0|3:0,0:0:0:0:
322,365,81553,6,0,P|313:312|289:252,1,96.250002937317,6|0,0:0|0:0,0:0:0:0:
189,91,81890,1,8,0:0:0:0:
113,214,82058,1,0,0:0:0:0:
113,214,82143,1,2,0:0:0:0:
113,214,82227,2,0,P|176:224|216:222,1,96.250002937317,2|2,0:0|3:0,0:0:0:0:
335,77,82564,1,8,0:0:0:0:
368,223,82732,1,2,3:0:0:0:
189,91,82901,6,0,P|106:66|22:151,1,192.500005874634,6|8,0:0|0:0,0:0:0:0:
82,296,83407,1,2,3:0:0:0:
82,296,83491,1,2,0:0:0:0:
82,296,83575,2,0,L|196:309,1,96.250002937317,2|2,0:0|3:0,0:0:0:0:
292,87,83912,2,0,L|309:207,1,96.250002937317,8|2,0:0|3:0,0:0:0:0:
457,373,84249,6,0,P|508:320|460:195,1,192.500005874634,6|8,0:0|0:0,0:0:0:0:
342,320,84755,1,2,3:0:0:0:
342,320,84839,1,2,0:0:0:0:
342,320,84923,2,0,L|236:305,1,96.250002937317,2|2,0:0|3:0,0:0:0:0:
129,246,85261,1,8,0:0:0:0:
230,27,85429,6,0,P|274:108|222:212,1,192.500005874634,6|2,0:0|3:0,0:0:0:0:
88,337,85935,1,8,0:0:0:0:
52,304,86019,1,0,0:0:0:0:
34,260,86103,1,2,3:0:0:0:
37,213,86188,1,2,0:0:0:0:
60,171,86272,2,0,L|96:106,1,48.1250014686585,2|0,0:0|0:0,0:0:0:0:
157,42,86440,2,0,L|189:106,1,48.1250014686585,2|0,3:0|0:0,0:0:0:0:
217,238,86609,2,0,L|253:173,1,48.1250014686585,8|0,0:0|0:0,0:0:0:0:
371,137,86777,1,2,3:0:0:0:
371,137,86862,1,0,0:0:0:0:
371,137,86946,6,0,P|422:126|474:123,1,96.250002937317,6|0,0:0|0:0,0:0:0:0:
283,24,87283,1,8,0:0:0:0:
240,195,87452,1,2,3:0:0:0:
240,195,87536,1,2,0:0:0:0:
240,195,87620,2,0,L|252:297,1,96.250002937317,2|2,0:0|3:0,0:0:0:0:
388,364,87957,1,8,0:0:0:0:
437,191,88126,6,0,L|447:87,1,96.250002937317,2|2,3:0|0:0,0:0:0:0:
283,24,88463,2,0,P|234:30|182:43,1,96.250002937317,2|8,3:0|0:0,0:0:0:0:
54,167,88800,1,2,3:0:0:0:
54,167,88884,1,2,0:0:0:0:
54,167,88968,2,0,B|101:197|144:170|144:170|204:135|265:193,1,192.500005874634,2|8,0:0|0:0,0:0:0:0:
349,247,89474,1,2,3:0:0:0:
448,22,89643,6,0,P|370:-11|287:58,1,192.500005874634,6|8,0:0|0:0,0:0:0:0:
235,170,90148,1,2,3:0:0:0:
235,170,90232,1,2,0:0:0:0:
235,170,90317,1,2,0:0:0:0:
403,126,90485,1,0,0:0:0:0:
305,338,90654,6,0,P|194:319|86:312,1,192.500005874634,6|2,0:0|0:0,0:0:0:0:
30,222,91159,1,2,3:0:0:0:
235,170,91328,1,8,0:0:0:0:
127,73,91497,1,2,3:0:0:0:
127,73,91581,1,2,0:0:0:0:
127,73,91665,1,2,0:0:0:0:
191,270,91834,1,2,3:0:0:0:
346,185,92002,2,0,P|361:126|368:76,1,96.250002937317,8|2,0:0|3:0,0:0:0:0:
155,181,92339,5,6,0:0:0:0:
326,275,92508,1,2,0:0:0:0:
286,44,92676,2,0,P|238:33|175:28,1,96.250002937317,8|2,0:0|0:0,0:0:0:0:
346,185,93013,1,8,0:0:0:0:
216,319,93182,1,2,0:0:0:0:
216,319,93266,1,2,0:0:0:0:
216,319,93350,1,8,0:0:0:0:
114,109,93519,6,0,P|99:59|93:2,1,96.250002937317,6|0,0:0|0:0,0:0:0:0:
341,109,93856,1,2,0:0:0:0:
289,359,94024,1,8,0:0:0:0:
478,188,94193,1,6,0:0:0:0:
223,214,94361,1,2,0:0:0:0:
445,342,94530,1,8,0:0:0:0:
445,342,94614,1,8,0:0:0:0:
445,342,94699,1,8,0:0:0:0:
341,109,94867,2,0,L|353:43,1,48.1250014686585,8|8,0:0|0:0,0:0:0:0:
289,359,95204,5,2,0:0:0:0:
289,359,95289,1,2,0:0:0:0:
289,359,95373,1,6,0:0:0:0:
256,192,95457,12,0,100598,0:0:0:0:
