osu file format v14

[General]
AudioFilename: audio.mp3
AudioLeadIn: 0
PreviewTime: 51047
Countdown: 0
SampleSet: Soft
StackLeniency: 0.7
Mode: 0
LetterboxInBreaks: 0
WidescreenStoryboard: 0

[Editor]
Bookmarks: 7889,36372,44125
DistanceSpacing: 1
BeatDivisor: 2
GridSize: 32
TimelineZoom: 1

[Metadata]
Title:Million Smile
TitleUnicode:Million Smile
Artist:Machico
ArtistUnicode:Machico
Creator:joker-
Version:Easy
Source:この素晴らしい世界に祝福を! -この欲深いゲームに審判を!-
Tags:opening RepL4y 園田智也 Tomoya Sonoda OP Kono Subarashii Sekai ni Syukufuku Yokubukai Game Shinpan wo PS4 PS Vita PlayStation NIPPON COLUMBIA KONOSUBA God's blessing on this wonderful world
BeatmapID:1375727
BeatmapSetID:640013

[Difficulty]
HPDrainRate:2
CircleSize:3
OverallDifficulty:2
ApproachRate:3
SliderMultiplier:0.9
SliderTickRate:1

[Events]
//Background and Video events
0,0,"bg.jpg",0,0
//Break Periods
//Storyboard Layer 0 (Background)
//Storyboard Layer 1 (Fail)
//Storyboard Layer 2 (Pass)
//Storyboard Layer 3 (Foreground)
//Storyboard Sound Samples

[TimingPoints]
-694,337.078651685393,4,2,1,30,1,0
654,-100,4,2,1,50,0,0
3182,-100,4,2,1,50,0,0
4530,-100,4,2,1,50,0,0
5036,-100,4,2,2,50,0,0
5204,-100,4,2,1,50,0,0
5879,-100,4,2,2,50,0,0
6384,-100,4,2,2,60,0,0
16834,-100,4,2,2,50,0,0
26272,-100,4,2,2,50,0,0
27620,-100,4,2,2,50,0,0
31497,-100,4,2,1,30,0,0
31834,-100,4,2,2,50,0,0
37058,-100,4,2,2,55,0,0
38407,-100,4,2,2,50,0,0
44643,-100,4,2,2,30,0,0
44811,-100,4,2,2,55,0,0
45991,-100,4,2,2,30,0,0
46075,-100,4,2,2,55,0,0
46497,-100,4,2,2,55,0,0
51384,-100,4,2,2,35,0,0
51553,-100,4,2,2,35,0,0
51890,-100,4,2,2,65,0,1
62171,-100,4,2,2,45,0,1
62676,-100,4,2,2,65,0,1
76159,-100,4,2,2,50,0,0
100598,-100,4,2,2,5,0,0

[Colours]
Combo1 : 167,79,255
Combo2 : 5,190,237
Combo3 : 255,255,68
Combo4 : 251,66,4

[HitObjects]
314,263,654,6,0,P|396:262|443:300,2,135,2|2|2,3:0|0:0|0:0,0:0:0:0:
234,304,2002,1,2,2:3:0:0:
160,251,2339,2,0,P|145:199|145:146,1,90,0|8,0:0|3:0,0:0:0:0:
233,62,3182,6,0,P|285:53|355:113,1,135,6|8,0:0|0:0,0:0:0:0:
402,171,4025,1,8,0:0:0:0:
332,286,4530,2,0,P|266:291|226:288,1,90,2|2,0:0|0:0,0:0:0:0:
154,269,5204,1,2,0:0:0:0:
86,209,5541,2,0,P|84:129|122:71,1,135,6|0,0:0|0:0,0:0:0:0:
185,33,6384,6,0,P|245:50|331:50,1,135,6|8,0:0|3:0,0:0:0:0:
406,41,7227,1,6,0:0:0:0:
424,129,7564,2,0,P|474:144|522:144,2,90,0|0|0,2:0|0:0|0:0,0:0:0:0:
346,174,8575,6,0,P|282:162|202:222,1,135,6|8,0:0|0:0,0:0:0:0:
193,278,9418,2,0,P|130:293|95:285,1,90,2|8,0:0|0:0,0:0:0:0:
40,226,10092,2,0,P|30:171|30:131,2,90,2|8|2,0:0|0:0|0:0,0:0:0:0:
17,313,11103,1,8,0:0:0:0:
86,370,11440,6,0,P|150:369|215:306,1,135,6|0,0:0|0:0,0:0:0:0:
247,247,12283,1,0,0:0:0:0:
328,285,12620,2,0,P|389:308|452:306,1,90,6|2,0:0|0:0,0:0:0:0:
487,259,13294,2,0,P|510:198|508:135,1,90,6|2,0:0|0:0,0:0:0:0:
464,97,13968,6,0,P|402:86|332:115,1,135,6|8,0:0|0:0,0:0:0:0:
264,166,14811,1,8,0:0:0:0:
156,247,15317,2,0,P|133:198|120:142,1,90,6|2,0:0|0:0,0:0:0:0:
194,107,15991,2,0,P|135:73|63:96,1,135,6|8,0:0|0:0,0:0:0:0:
26,165,16834,6,0,B|2:219|2:219|40:351,1,180,2|2,0:0|0:0,0:0:0:0:
115,376,17845,1,8,0:0:0:0:
182,316,18182,2,0,P|272:274|356:302,1,180,2|0,0:0|0:0,0:0:0:0:
421,343,19193,1,8,0:0:0:0:
463,263,19530,6,0,P|486:201|491:158,1,90,2|8,0:0|0:0,0:0:0:0:
445,99,20204,2,0,P|371:76|305:70,1,135,2|2,0:0|0:0,0:0:0:0:
234,112,21047,1,2,0:0:0:0:
206,197,21384,2,0,P|142:218|75:225,1,135,0|8,0:0|0:0,0:0:0:0:
16,156,22227,6,0,P|0:113|-1:69,1,90,6|8,0:0|0:0,0:0:0:0:
76,22,22901,2,0,P|148:21|209:56,1,135,2|6,0:0|0:0,0:0:0:0:
258,120,23744,1,2,0:0:0:0:
295,201,24081,2,0,P|350:183|395:177,1,90,0|2,0:0|0:0,0:0:0:0:
445,115,24755,6,0,P|468:176|446:239,1,135,6|8,0:0|0:0,0:0:0:0:
388,307,25598,2,0,L|287:324,1,90,2|8,0:0|0:0,0:0:0:0:
213,293,26272,2,0,P|160:295|77:333,2,135,6|6|8,0:0|0:0|0:0,0:0:0:0:
281,234,27620,6,0,B|254:126|254:126|283:58,1,180,6|2,0:0|0:0,0:0:0:0:
351,6,28631,1,8,0:0:0:0:
422,60,28968,2,0,B|441:108|424:148|424:148|401:198|435:257,1,180,2|0,0:0|0:0,0:0:0:0:
471,312,29980,1,8,0:0:0:0:
393,357,30317,6,0,P|308:348|293:337,1,90,2|8,0:0|0:0,0:0:0:0:
243,283,30991,2,0,P|158:292|115:323,1,135,2|2,0:0|3:2,0:0:0:0:
47,374,31834,1,2,3:0:0:0:
6,293,32171,2,0,P|3:226|32:166,1,135,0|8,0:0|0:0,0:0:0:0:
95,102,33013,6,0,P|147:105|195:123,1,90,6|8,0:0|0:0,0:0:0:0:
221,198,33688,2,0,P|280:221|372:205,1,135,2|6,0:0|0:0,0:0:0:0:
432,178,34530,1,2,0:0:0:0:
482,103,34867,2,0,P|469:56|445:14,1,90,0|8,0:0|0:0,0:0:0:0:
366,54,35541,6,0,P|306:79|220:54,1,135,6|8,0:0|0:0,0:0:0:0:
154,34,36384,2,0,P|132:83|120:125,1,90,8|8,0:0|0:0,0:0:0:0:
123,207,37058,2,0,P|113:279|71:344,2,135,6|6|2,0:0|0:0|0:0,0:0:0:0:
200,161,38407,6,0,P|265:147|293:147,1,90,6|8,0:0|0:0,0:0:0:0:
348,213,39081,2,0,P|428:220|481:172,1,135,2|6,3:0|0:0,0:0:0:0:
508,108,39923,1,2,0:0:0:0:
459,31,40261,2,0,L|317:46,1,135,0|8,0:0|0:0,0:0:0:0:
262,110,41103,6,0,P|271:172|256:232,1,90,6|8,0:0|0:0,0:0:0:0:
217,273,41777,2,0,L|79:287,1,135,2|6,3:0|0:0,0:0:0:0:
24,217,42620,1,2,0:0:0:0:
64,136,42957,2,0,P|144:107|209:134,1,135,2|8,3:0|0:0,0:0:0:0:
263,170,43800,6,0,P|254:242|255:281,1,90,10|10,0:0|0:0,0:0:0:0:
319,321,44474,2,0,P|391:330|430:329,1,90,10|8,0:0|0:0,0:0:0:0:
473,267,45148,2,0,P|482:195|481:156,2,90,14|10|10,0:0|0:0|0:0,0:0:0:0:
387,239,46159,1,2,0:0:0:0:
346,158,46497,6,0,P|296:108|186:115,1,180,6|2,0:0|3:0,0:0:0:0:
113,155,47508,1,2,3:0:0:0:
59,227,47845,2,0,P|49:300|50:333,2,90,2|2|2,3:0|3:0|3:0,0:0:0:0:
147,240,48856,1,8,0:0:0:0:
233,264,49193,6,0,P|328:277|370:263,1,135,6|2,0:0|0:0,0:0:0:0:
447,232,50036,1,0,1:0:0:0:
432,143,50373,1,4,0:0:0:0:
211,96,51216,2,0,P|196:151|196:194,1,90,0|14,0:0|0:0,0:0:0:0:
237,263,51890,6,0,P|172:289|133:285,1,90,6|8,0:0|0:0,0:0:0:0:
72,251,52564,2,0,P|31:172|64:96,1,135,2|0,0:0|0:0,0:0:0:0:
148,50,53575,1,8,0:0:0:0:
218,103,53912,2,0,P|278:114|328:114,1,90,2|10,0:0|0:0,0:0:0:0:
379,168,54586,6,0,P|390:223|371:285,1,90,6|8,0:0|0:0,0:0:0:0:
456,310,55261,2,0,P|479:236|470:166,2,135,2|0|8,0:0|0:0|0:0,0:0:0:0:
371,340,56609,2,0,P|306:340|266:319,1,90,2|8,0:0|0:0,0:0:0:0:
221,266,57283,6,0,P|218:206|198:121,1,135,6|0,0:0|0:0,0:0:0:0:
131,76,58126,1,0,0:0:0:0:
62,134,58463,2,0,P|23:184|56:267,1,135,6|8,0:0|0:0,0:0:0:0:
99,315,59305,2,0,P|152:322|209:319,1,90,2|8,0:0|0:0,0:0:0:0:
276,301,59980,6,0,P|329:294|386:297,2,90,6|8|6,0:0|0:0|0:0,0:0:0:0:
213,236,60991,1,8,0:0:0:0:
263,161,61328,2,0,P|300:130|389:142,1,135,6|6,0:0|0:0,0:0:0:0:
449,196,62171,1,2,0:0:0:0:
375,309,62676,6,0,P|321:324|269:329,1,90,6|8,0:0|0:0,0:0:0:0:
212,279,63350,2,0,P|197:225|211:110,1,135,2|0,0:0|0:0,0:0:0:0:
246,19,64362,1,8,0:0:0:0:
316,76,64699,2,0,P|368:100|412:107,1,90,2|8,0:0|0:0,0:0:0:0:
464,168,65373,6,0,P|454:240|434:276,1,90,6|2,0:0|0:0,0:0:0:0:
388,323,66047,2,0,P|319:358|257:365,1,135,2|6,0:0|0:0,0:0:0:0:
175,339,66890,1,2,0:0:0:0:
108,278,67227,2,0,P|73:209|66:147,1,135,6|8,0:0|0:0,0:0:0:0:
98,68,68070,6,0,B|184:52|184:52|241:76,1,135,6|0,0:0|0:0,0:0:0:0:
308,109,68912,1,0,0:0:0:0:
391,75,69249,2,0,P|392:144|308:197,1,135,2|8,0:0|0:0,0:0:0:0:
284,252,70092,2,0,P|287:319|302:361,1,90,2|8,0:0|0:0,0:0:0:0:
383,338,70766,6,0,P|447:342|509:286,2,135,6|6|6,0:0|0:0|0:0,0:0:0:0:
284,252,72283,2,0,P|218:243|154:280,1,135,6|6,0:0|0:0,0:0:0:0:
74,304,73126,1,8,0:0:0:0:
80,214,73463,6,0,P|91:159|108:117,1,90,6|8,0:0|0:0,0:0:0:0:
155,55,74137,2,0,P|227:53|286:104,1,135,8|6,0:0|0:0,0:0:0:0:
334,157,74980,1,0,0:0:0:0:
281,230,75317,2,0,P|267:289|321:377,1,135,6|2,0:0|0:0,0:0:0:0:
384,355,76159,6,0,P|452:346|497:316,1,90,6|8,0:0|0:0,0:0:0:0:
492,249,76834,2,0,P|450:232|405:230,1,90,2|8,0:0|0:0,0:0:0:0:
321,263,77508,2,0,P|257:280|188:196,1,180,2|2,0:0|3:0,0:0:0:0:
210,115,78519,1,8,0:0:0:0:
275,53,78856,6,0,L|412:61,2,135,2|0|2,0:0|0:0|3:0,0:0:0:0:
190,23,80204,2,0,P|135:30|101:47,1,90,2|8,0:0|0:0,0:0:0:0:
49,116,80879,2,0,P|56:171|73:205,1,90,2|8,0:0|0:0,0:0:0:0:
123,274,81553,5,6,0:0:0:0:
201,229,81890,2,0,B|251:205|292:230|292:230|344:261|402:213,1,180,8|8,0:0|0:0,0:0:0:0:
438,170,82901,2,0,P|446:101|474:30,2,135,6|2|8,0:0|3:0|0:0,0:0:0:0:
462,256,84249,6,0,P|410:320|294:289,1,180,6|2,0:0|0:0,0:0:0:0:
213,229,85429,2,0,P|162:240|97:289,1,135,6|8,0:0|0:0,0:0:0:0:
34,223,86272,2,0,P|20:169|20:120,1,90,2|8,0:0|0:0,0:0:0:0:
78,68,86946,6,0,L|191:50,1,90,6|8,0:0|0:0,0:0:0:0:
231,116,87620,2,0,L|344:134,1,90,2|8,0:0|0:0,0:0:0:0:
386,69,88294,2,0,P|410:138|343:218,1,180,2|2,0:0|0:0,0:0:0:0:
266,252,89305,1,8,0:0:0:0:
185,211,89643,6,0,P|98:222|34:256,2,135,6|2|6,0:0|3:0|0:0,0:0:0:0:
229,132,90991,1,2,0:0:0:0:
309,172,91328,2,0,P|356:190|407:199,1,90,8|2,0:0|0:0,0:0:0:0:
474,156,92002,1,8,0:0:0:0:
453,68,92339,6,0,P|395:49|357:46,1,90,6|8,0:0|0:0,0:0:0:0:
280,74,93013,2,0,P|234:114|137:117,1,135,8|6,0:0|0:0,0:0:0:0:
87,73,93856,1,2,0:0:0:0:
33,145,94193,2,0,P|17:204|7:268,1,90,6|8,0:0|0:0,0:0:0:0:
72,298,94867,1,8,0:0:0:0:
199,253,95373,5,6,0:0:0:0:
256,192,95541,12,0,100598,0:0:0:0:
