osu file format v14

[General]
AudioFilename: audio.mp3
AudioLeadIn: 0
PreviewTime: 51047
Countdown: 0
SampleSet: Soft
StackLeniency: 0.7
Mode: 0
LetterboxInBreaks: 0
WidescreenStoryboard: 0

[Editor]
Bookmarks: 36372,44125
DistanceSpacing: 1.3
BeatDivisor: 4
GridSize: 32
TimelineZoom: 1

[Metadata]
Title:Million Smile
TitleUnicode:Million Smile
Artist:Machico
ArtistUnicode:Machico
Creator:joker-
Version:Hard
Source:この素晴らしい世界に祝福を! -この欲深いゲームに審判を!-
Tags:opening RepL4y 園田智也 Tomoya Sonoda OP Kono Subarashii Sekai ni Syukufuku Yokubukai Game Shinpan wo PS4 PS Vita PlayStation NIPPON COLUMBIA KONOSUBA God's blessing on this wonderful world
BeatmapID:1375728
BeatmapSetID:640013

[Difficulty]
HPDrainRate:5
CircleSize:3.8
OverallDifficulty:6
ApproachRate:7.5
SliderMultiplier:1.4
SliderTickRate:1

[Events]
//Background and Video events
0,0,"bg.jpg",0,0
//Break Periods
//Storyboard Layer 0 (Background)
//Storyboard Layer 1 (Fail)
//Storyboard Layer 2 (Pass)
//Storyboard Layer 3 (Foreground)
//Storyboard Sound Samples

[TimingPoints]
-694,337.078651685393,4,2,1,30,1,0
654,-125,4,2,1,50,0,0
3182,-111.111111111111,4,2,1,50,0,0
4530,-100,4,2,1,50,0,0
5036,-100,4,2,2,50,0,0
5204,-100,4,2,1,50,0,0
5879,-100,4,2,2,50,0,0
6384,-95.2380952380952,4,2,2,60,0,0
16834,-111.111111111111,4,2,2,50,0,0
26272,-105.263157894737,4,2,2,50,0,0
27620,-111.111111111111,4,2,2,50,0,0
31497,-111.111111111111,4,2,1,30,0,0
31834,-111.111111111111,4,2,2,50,0,0
37058,-105.263157894737,4,2,2,55,0,0
38407,-105.263157894737,4,2,2,50,0,0
44643,-105.263157894737,4,2,2,30,0,0
44811,-105.263157894737,4,2,2,55,0,0
45991,-105.263157894737,4,2,2,30,0,0
46075,-105.263157894737,4,2,2,55,0,0
46497,-105.263157894737,4,2,2,55,0,0
51384,-105.263157894737,4,2,2,35,0,0
51553,-105.263157894737,4,2,2,35,0,0
51890,-90.9090909090909,4,2,2,65,0,1
62171,-90.9090909090909,4,2,2,45,0,1
62676,-90.9090909090909,4,2,2,65,0,1
76159,-90.9090909090909,4,2,2,50,0,0
100598,-90.9090909090909,4,2,2,5,0,0

[Colours]
Combo1 : 167,79,255
Combo2 : 5,190,237
Combo3 : 255,255,68
Combo4 : 251,66,4

[HitObjects]
75,114,485,5,2,3:0:0:0:
75,114,570,1,2,3:0:0:0:
75,114,654,2,0,P|140:117|185:102,1,112,2|10,3:0|0:0,0:0:0:0:
243,52,1159,1,2,0:0:0:0:
315,169,1497,1,2,0:0:0:0:
315,169,1665,6,0,L|306:283,1,112,2|2,0:0|2:3,0:0:0:0:
182,333,2339,2,0,P|93:331|53:307,1,112,0|8,0:0|3:0,0:0:0:0:
33,260,2845,2,0,L|44:189,1,56,2|2,0:0|0:0,0:0:0:0:
118,145,3182,6,0,P|168:122|254:134,1,125.999996154785,6|0,0:0|0:0,0:0:0:0:
298,181,3688,1,8,0:0:0:0:
298,181,3856,1,8,0:0:0:0:
374,152,4025,1,8,0:0:0:0:
374,152,4193,1,8,0:0:0:0:
446,190,4362,1,8,0:0:0:0:
446,190,4530,6,0,P|485:103|471:64,1,140,2|2,0:0|0:0,0:0:0:0:
406,2,5036,1,8,0:0:0:0:
337,61,5204,2,0,P|305:63|255:49,1,70,2|0,0:0|0:0,0:0:0:0:
182,138,5541,2,0,P|116:131|49:182,1,140,6|2,0:0|0:0,0:0:0:0:
27,270,6047,1,0,0:0:0:0:
27,270,6384,6,0,L|179:280,1,146.999995513916,6|8,0:0|0:0,0:0:0:0:
245,215,6890,1,8,3:0:0:0:
245,215,7058,1,8,0:0:0:0:
315,314,7227,6,0,P|392:320|457:267,1,146.999995513916,6|0,0:0|2:0,0:0:0:0:
491,197,7732,1,8,0:0:0:0:
425,127,7901,2,0,P|375:101|343:95,1,73.4999977569581,0|2,0:0|0:0,0:0:0:0:
312,13,8238,2,0,P|259:34|234:55,1,73.4999977569581,0|8,0:0|0:0,0:0:0:0:
259,168,8575,6,0,B|218:234|132:229|132:229|69:157,1,220.499993270874,6|8,0:0|0:0,0:0:0:0:
40,87,9249,1,0,0:0:0:0:
111,18,9418,2,0,P|173:7|254:53,1,146.999995513916,2|8,0:0|0:0,0:0:0:0:
367,197,10092,6,0,P|430:231|501:222,2,146.999995513916,2|8|2,0:0|0:0|0:0,0:0:0:0:
241,53,11103,1,8,0:0:0:0:
241,53,11440,6,0,L|249:141,1,73.4999977569581,6|0,0:0|0:0,0:0:0:0:
213,215,11777,1,8,0:0:0:0:
135,157,11946,2,0,P|68:157|3:216,1,146.999995513916,0|0,0:0|0:0,0:0:0:0:
15,301,12452,1,8,0:0:0:0:
108,363,12620,6,0,P|153:358|191:336,1,73.4999977569581,6|0,0:0|0:0,0:0:0:0:
257,292,12957,1,2,0:0:0:0:
257,292,13126,1,8,0:0:0:0:
353,351,13294,2,0,P|367:317|370:280,1,73.4999977569581,6|0,0:0|0:0,0:0:0:0:
314,202,13631,1,2,0:0:0:0:
314,202,13800,1,8,0:0:0:0:
351,89,13968,6,0,P|391:67|488:86,1,146.999995513916,6|2,0:0|0:0,0:0:0:0:
508,178,14474,2,0,L|488:331,1,146.999995513916,8|8,0:0|0:0,0:0:0:0:
407,373,14980,1,2,0:0:0:0:
407,373,15148,1,8,0:0:0:0:
354,263,15317,6,0,P|297:228|214:245,1,146.999995513916,6|2,0:0|0:0,0:0:0:0:
144,296,15822,1,8,0:0:0:0:
71,206,15991,2,0,B|47:156|47:156|74:66,1,146.999995513916,6|8,0:0|0:0,0:0:0:0:
73,68,16412,1,8,0:0:0:0:
81,75,16497,2,0,P|134:94|164:96,1,73.4999977569581,8|8,0:0|0:0,0:0:0:0:
211,187,16834,6,0,P|264:157|348:177,1,125.999996154785,2|8,0:0|0:0,0:0:0:0:
396,205,17339,1,0,0:0:0:0:
456,149,17508,2,0,P|471:94|472:62,1,62.9999980773926,2|2,0:0|0:0,0:0:0:0:
418,25,17845,1,8,0:0:0:0:
418,25,18013,1,0,0:0:0:0:
349,70,18182,6,0,P|289:82|215:37,1,125.999996154785,2|8,0:0|0:0,0:0:0:0:
158,19,18688,1,2,0:0:0:0:
108,84,18856,2,0,B|86:127|86:127|109:215,1,125.999996154785,0|8,0:0|0:0,0:0:0:0:
127,281,19362,1,0,0:0:0:0:
194,235,19530,6,0,P|248:205|313:210,1,125.999996154785,2|8,0:0|0:0,0:0:0:0:
386,239,20036,1,0,0:0:0:0:
365,318,20204,2,0,P|320:333|298:333,1,62.9999980773926,2|2,0:0|0:0,0:0:0:0:
223,319,20541,1,8,0:0:0:0:
194,235,20710,6,0,P|201:152|211:104,1,125.999996154785,2|2,0:0|0:0,0:0:0:0:
253,40,21216,1,8,0:0:0:0:
304,103,21384,2,0,P|369:97|429:154,1,125.999996154785,0|2,0:0|0:0,0:0:0:0:
475,187,21890,1,8,0:0:0:0:
475,187,22058,1,0,0:0:0:0:
400,260,22227,6,0,B|337:267|337:267|260:222,1,125.999996154785,6|8,0:0|0:0,0:0:0:0:
172,114,22901,2,0,P|160:67|159:38,1,62.9999980773926,2|2,0:0|0:0,0:0:0:0:
228,8,23238,1,8,0:0:0:0:
289,107,23407,6,0,P|343:74|413:80,1,125.999996154785,6|2,0:0|0:0,0:0:0:0:
468,125,23912,1,8,0:0:0:0:
433,199,24081,2,0,B|413:246|413:246|430:343,1,125.999996154785,0|2,0:0|0:0,0:0:0:0:
364,373,24586,1,8,0:0:0:0:
280,293,24755,6,0,P|250:242|239:164,1,125.999996154785,6|2,0:0|0:0,0:0:0:0:
194,99,25261,2,0,P|123:99|115:102,1,62.9999980773926,8|0,0:0|0:0,0:0:0:0:
30,201,25598,2,0,P|42:172|62:148,1,62.9999980773926,2|2,0:0|0:0,0:0:0:0:
160,213,25935,1,8,0:0:0:0:
160,213,26272,6,0,B|219:227|219:227|298:189,1,132.999996448517,6|8,0:0|0:0,0:0:0:0:
227,98,26777,2,0,B|286:74|286:74|353:91,1,132.999996448517,6|8,0:0|0:0,0:0:0:0:
432,125,27283,1,8,0:0:0:0:
495,212,27452,1,8,0:0:0:0:
495,212,27536,1,8,0:0:0:0:
495,212,27620,6,0,L|479:346,1,125.999996154785,6|8,0:0|0:0,0:0:0:0:
410,381,28126,1,0,0:0:0:0:
353,321,28294,2,0,P|318:303|283:292,1,62.9999980773926,2|2,0:0|0:0,0:0:0:0:
217,319,28631,1,8,0:0:0:0:
217,319,28800,1,0,0:0:0:0:
163,257,28968,6,0,B|138:216|138:216|156:137,1,125.999996154785,2|8,0:0|0:0,0:0:0:0:
176,60,29474,1,2,0:0:0:0:
242,108,29643,2,0,P|291:130|365:115,1,125.999996154785,0|8,0:0|0:0,0:0:0:0:
418,60,30148,1,0,0:0:0:0:
462,129,30317,6,0,B|478:207|478:207|457:270,1,125.999996154785,2|8,0:0|0:0,0:0:0:0:
428,324,30822,1,0,0:0:0:0:
353,288,30991,2,0,P|273:290|200:304,1,125.999996154785,2|8,0:0|0:0,0:0:0:0:
155,337,31497,2,0,L|109:329,2,31.4999990386963,2|2|2,3:2|3:2|3:2,0:0:0:0:
163,255,31834,6,0,P|157:206|148:174,1,62.9999980773926,2|8,3:0|0:0,0:0:0:0:
86,146,32171,2,0,P|37:152|5:161,1,62.9999980773926,0|2,0:0|0:0,0:0:0:0:
0,78,32508,1,2,0:0:0:0:
63,26,32676,2,0,P|112:32|144:41,1,62.9999980773926,8|0,0:0|0:0,0:0:0:0:
191,132,33013,6,0,L|181:261,1,125.999996154785,6|8,0:0|0:0,0:0:0:0:
317,339,33688,2,0,P|363:323|403:317,1,62.9999980773926,2|2,0:0|0:0,0:0:0:0:
456,341,34025,1,8,0:0:0:0:
493,235,34193,6,0,P|444:202|368:198,1,125.999996154785,6|2,0:0|0:0,0:0:0:0:
301,224,34699,1,8,0:0:0:0:
235,175,34867,2,0,P|223:138|219:98,1,62.9999980773926,0|2,0:0|0:0,0:0:0:0:
146,66,35204,2,0,P|134:103|130:143,1,62.9999980773926,8|8,0:0|0:0,0:0:0:0:
103,242,35541,6,0,P|168:236|230:282,1,125.999996154785,6|0,0:0|0:0,0:0:0:0:
245,343,36047,2,0,P|200:360|171:362,1,62.9999980773926,8|2,0:0|0:0,0:0:0:0:
103,353,36384,2,0,P|63:328|46:305,1,62.9999980773926,8|2,0:0|0:0,0:0:0:0:
23,239,36721,1,8,0:0:0:0:
23,239,37058,6,0,B|2:197|2:197|29:98,1,132.999996448517,6|8,0:0|0:0,0:0:0:0:
102,198,37564,2,0,P|167:231|234:217,1,132.999996448517,6|2,0:0|0:0,0:0:0:0:
224,222,37985,1,2,0:0:0:0:
224,222,38070,2,0,L|243:139,1,66.4999982242585,2|8,0:0|3:0,0:0:0:0:
317,44,38407,6,0,P|335:92|338:129,1,66.4999982242585,6|0,0:0|0:0,0:0:0:0:
421,85,38744,2,0,P|416:136|402:170,1,66.4999982242585,8|0,0:0|0:0,0:0:0:0:
496,169,39081,2,0,P|469:212|441:237,1,66.4999982242585,2|2,3:0|3:0,0:0:0:0:
386,270,39418,1,8,0:0:0:0:
285,205,39586,6,0,P|225:201|140:245,1,132.999996448517,6|2,0:0|0:0,0:0:0:0:
92,284,40092,1,8,0:0:0:0:
151,347,40261,1,0,0:0:0:0:
151,347,40429,2,0,P|208:363|244:361,1,66.4999982242585,2|2,3:0|3:0,0:0:0:0:
272,298,40766,2,0,P|329:282|365:284,1,66.4999982242585,8|2,0:0|3:0,0:0:0:0:
406,231,41103,6,0,P|443:199|463:162,1,66.4999982242585,6|0,0:0|0:0,0:0:0:0:
375,144,41440,2,0,P|394:99|395:56,1,66.4999982242585,8|0,0:0|0:0,0:0:0:0:
309,84,41777,2,0,P|306:35|289:-3,1,66.4999982242585,2|2,3:0|3:0,0:0:0:0:
220,51,42114,1,8,0:0:0:0:
259,166,42283,6,0,B|276:251|276:251|250:307,1,132.999996448517,6|2,0:0|0:0,0:0:0:0:
197,356,42789,1,8,0:0:0:0:
197,356,42957,1,2,3:0:0:0:
113,333,43126,2,0,P|79:310|48:275,1,66.4999982242585,2|2,3:0|3:0,0:0:0:0:
121,229,43463,2,0,P|155:206|186:171,1,66.4999982242585,8|8,0:0|3:0,0:0:0:0:
223,63,43800,6,0,P|234:107|234:142,1,66.4999982242585,10|0,0:0|0:0,0:0:0:0:
172,188,44137,2,0,P|174:221|183:252,1,66.4999982242585,10|0,0:0|0:0,0:0:0:0:
236,322,44474,1,10,0:0:0:0:
236,322,44643,1,8,1:0:0:0:
297,261,44811,2,0,P|355:236|383:232,1,66.4999982242585,8|2,0:0|0:0,0:0:0:0:
464,159,45148,6,0,P|406:134|378:130,1,66.4999982242585,14|0,0:0|0:0,0:0:0:0:
318,154,45485,2,0,P|286:144|257:128,1,66.4999982242585,10|0,0:0|0:0,0:0:0:0:
202,60,45822,1,10,0:0:0:0:
123,96,45991,1,8,1:0:0:0:
123,96,46075,1,2,0:0:0:0:
123,96,46159,2,0,L|136:178,1,66.4999982242585,2|0,0:0|0:0,0:0:0:0:
97,265,46497,6,0,P|166:268|217:232,1,132.999996448517,6|8,0:0|0:0,0:0:0:0:
272,166,47002,1,2,3:0:0:0:
319,93,47171,2,0,P|388:90|439:126,1,132.999996448517,2|2,3:0|3:0,0:0:0:0:
477,201,47676,1,2,0:0:0:0:
477,201,47845,6,0,P|463:242|457:273,1,66.4999982242585,2|2,3:0|0:0,0:0:0:0:
398,327,48182,1,2,3:0:0:0:
398,327,48350,1,0,0:0:0:0:
318,291,48519,2,0,P|305:254|297:218,1,66.4999982242585,2|2,3:0|0:0,0:0:0:0:
330,146,48856,1,8,0:0:0:0:
198,33,49193,6,0,P|185:87|181:114,1,66.4999982242585,6|2,0:0|0:0,0:0:0:0:
210,180,49530,1,8,0:0:0:0:
143,234,49699,1,2,0:0:0:0:
143,234,49867,1,8,0:0:0:0:
63,199,50036,2,0,P|53:167|48:134,1,66.4999982242585,0|8,1:0|0:0,0:0:0:0:
119,36,50373,1,4,0:0:0:0:
293,313,51216,5,0,0:0:0:0:
352,250,51384,1,2,0:0:0:0:
352,250,51468,1,2,0:0:0:0:
352,250,51553,2,0,P|392:235|435:223,1,66.4999982242585,14|0,0:0|0:0,0:0:0:0:
494,142,51890,6,0,P|439:126|396:123,1,77.0000023498536,6|0,0:0|0:0,0:0:0:0:
323,155,52227,2,0,P|279:126|254:100,1,77.0000023498536,8|0,0:0|0:0,0:0:0:0:
198,31,52564,2,0,P|214:103|220:198,1,154.000004699707,2|8,0:0|0:0,0:0:0:0:
178,274,53070,6,0,P|128:232|28:256,1,154.000004699707,0|0,0:0|0:0,0:0:0:0:
4,333,53575,1,8,0:0:0:0:
4,333,53744,1,0,0:0:0:0:
44,242,53912,2,0,P|55:201|60:159,1,77.0000023498536,2|0,0:0|0:0,0:0:0:0:
144,113,54249,2,0,P|155:154|160:196,1,77.0000023498536,10|0,0:0|0:0,0:0:0:0:
227,285,54586,6,0,L|311:270,1,77.0000023498536,6|0,0:0|0:0,0:0:0:0:
390,223,54923,2,0,L|475:236,1,77.0000023498536,8|0,0:0|0:0,0:0:0:0:
438,137,55261,2,0,P|372:122|304:177,1,154.000004699707,2|8,0:0|0:0,0:0:0:0:
263,261,55766,6,0,P|250:187|238:98,1,154.000004699707,0|0,0:0|0:0,0:0:0:0:
163,42,56272,1,8,0:0:0:0:
163,42,56440,1,0,0:0:0:0:
92,113,56609,2,0,P|82:163|77:200,1,77.0000023498536,2|0,0:0|0:0,0:0:0:0:
131,273,56946,1,8,0:0:0:0:
131,273,57283,6,0,P|199:230|284:255,1,154.000004699707,6|8,0:0|0:0,0:0:0:0:
326,337,57789,1,0,0:0:0:0:
326,337,57873,1,2,0:0:0:0:
326,337,57957,2,0,P|373:329|408:317,1,77.0000023498536,2|0,0:0|0:0,0:0:0:0:
490,274,58294,1,8,0:0:0:0:
371,213,58463,6,0,P|360:165|351:60,1,154.000004699707,6|2,0:0|0:0,0:0:0:0:
434,6,58968,2,0,P|445:54|465:105,1,77.0000023498536,8|0,0:0|0:0,0:0:0:0:
480,122,59221,1,2,0:0:0:0:
480,122,59305,2,0,P|471:171|461:209,1,77.0000023498536,2|0,0:0|0:0,0:0:0:0:
371,213,59643,2,0,P|323:199|275:189,1,77.0000023498536,8|0,0:0|0:0,0:0:0:0:
189,280,59980,5,6,0:0:0:0:
189,280,60317,2,0,P|142:267|88:265,1,77.0000023498536,8|0,0:0|0:0,0:0:0:0:
24,219,60654,2,0,P|6:180|-1:120,1,77.0000023498536,6|0,0:0|0:0,0:0:0:0:
69,74,60991,2,0,P|127:59|171:57,1,77.0000023498536,8|0,0:0|0:0,0:0:0:0:
217,156,61328,6,0,P|257:170|302:182,1,77.0000023498536,6|2,0:0|0:0,0:0:0:0:
372,122,61665,1,8,0:0:0:0:
417,211,61834,2,0,P|407:268|395:301,1,77.0000023498536,6|0,0:0|0:0,0:0:0:0:
327,353,62171,1,2,0:0:0:0:
327,353,62255,1,2,0:0:0:0:
327,353,62339,2,0,P|316:316|311:277,1,77.0000023498536,2|4,0:0|3:0,0:0:0:0:
290,179,62676,6,0,P|242:167|193:162,1,77.0000023498536,6|0,0:0|0:0,0:0:0:0:
131,218,63013,2,0,P|144:265|164:310,1,77.0000023498536,8|0,0:0|0:0,0:0:0:0:
247,328,63350,2,0,P|285:287|388:296,1,154.000004699707,2|8,0:0|0:0,0:0:0:0:
443,212,63856,6,0,B|463:168|463:168|445:64,1,154.000004699707
353,19,64362,1,8,0:0:0:0:
353,19,64530,1,0,0:0:0:0:
293,99,64699,2,0,P|242:89|197:64,1,77.0000023498536,2|0,0:0|0:0,0:0:0:0:
127,118,65036,2,0,P|112:153|106:191,1,77.0000023498536,8|2,0:0|0:0,0:0:0:0:
176,263,65373,6,0,L|274:274,1,77.0000023498536,6|0,0:0|0:0,0:0:0:0:
333,212,65710,1,2,0:0:0:0:
333,212,65879,1,2,0:0:0:0:
415,268,66047,1,2,0:0:0:0:
415,268,66216,1,2,0:0:0:0:
489,202,66384,1,2,0:0:0:0:
489,202,66553,6,0,P|514:129|464:68,1,154.000004699707,6|2,0:0|0:0,0:0:0:0:
382,27,67058,1,8,0:0:0:0:
285,104,67227,1,6,0:0:0:0:
285,104,67395,2,0,B|232:122|232:122|127:91,1,154.000004699707,2|8,0:0|0:0,0:0:0:0:
39,60,67901,1,8,0:0:0:0:
39,60,67985,1,8,0:0:0:0:
39,60,68070,6,0,P|62:131|44:217,1,154.000004699707,6|8,0:0|0:0,0:0:0:0:
100,296,68575,2,0,P|149:287|189:266,1,77.0000023498536,0|2,0:0|0:0,0:0:0:0:
266,238,68912,1,0,0:0:0:0:
266,238,69081,1,8,0:0:0:0:
349,291,69249,6,0,P|436:295|492:243,1,154.000004699707,2|0,0:0|0:0,0:0:0:0:
444,163,69755,2,0,P|404:128|351:113,1,77.0000023498536,8|0,0:0|0:0,0:0:0:0:
231,190,70092,2,0,P|280:173|320:134,1,77.0000023498536,2|0,0:0|0:0,0:0:0:0:
318,0,70429,2,0,P|307:51|321:104,1,77.0000023498536,8|0,0:0|0:0,0:0:0:0:
444,163,70766,6,0,P|427:244|419:319,1,154.000004699707,6|2,0:0|0:0,0:0:0:0:
327,355,71272,2,0,P|272:374|187:310,1,154.000004699707,6|0,0:0|0:0,0:0:0:0:
239,239,71777,2,0,B|259:196|259:196|234:89,1,154.000004699707,6|2,0:0|0:0,0:0:0:0:
96,26,72283,6,0,P|77:98|110:180,1,154.000004699707,6|0,0:0|0:0,0:0:0:0:
163,253,72789,2,0,P|220:241|259:237,1,77.0000023498536,6|0,0:0|0:0,0:0:0:0:
284,328,73126,2,0,P|327:336|378:348,1,77.0000023498536,8|2,0:0|0:0,0:0:0:0:
406,321,73379,1,2,0:0:0:0:
406,321,73463,6,0,P|449:310|492:282,1,77.0000023498536,6|0,0:0|0:0,0:0:0:0:
482,193,73800,2,0,P|476:144|463:96,1,77.0000023498536,8|0,0:0|0:0,0:0:0:0:
381,68,74137,2,0,P|334:76|294:88,1,77.0000023498536,8|0,0:0|0:0,0:0:0:0:
259,102,74390,1,2,0:0:0:0:
259,102,74474,1,8,0:0:0:0:
314,185,74643,6,0,P|340:246|312:336,1,154.000004699707,6|0,0:0|0:0,0:0:0:0:
224,361,75148,1,8,0:0:0:0:
145,298,75317,2,0,P|121:256|100:210,1,77.0000023498536,6|0,0:0|0:0,0:0:0:0:
73,136,75654,1,2,0:0:0:0:
73,136,75738,1,2,0:0:0:0:
73,136,75822,2,0,P|121:117|153:113,1,77.0000023498536,2|2,0:0|0:0,0:0:0:0:
220,197,76159,6,0,P|274:224|370:201,1,154.000004699707,6|8,0:0|0:0,0:0:0:0:
442,145,76665,1,0,0:0:0:0:
442,145,76834,2,0,P|456:101|460:57,1,77.0000023498536,2|2,0:0|3:0,0:0:0:0:
374,17,77171,1,8,0:0:0:0:
374,17,77339,6,0,P|279:33|217:38,1,154.000004699707,2|2,3:0|3:0,0:0:0:0:
148,106,77845,1,8,0:0:0:0:
148,106,78013,2,0,P|180:164|151:249,1,154.000004699707,2|2,3:0|3:0,0:0:0:0:
94,323,78519,1,8,0:0:0:0:
94,323,78688,1,0,0:0:0:0:
184,364,78856,6,0,B|229:382|229:382|347:359,1,154.000004699707,2|8,0:0|0:0,0:0:0:0:
413,301,79362,1,0,0:0:0:0:
413,301,79530,2,0,P|401:247|394:209,1,77.0000023498536,2|0,0:0|0:0,0:0:0:0:
420,128,79867,1,2,3:0:0:0:
420,128,80036,6,0,P|372:94|270:108,1,154.000004699707,2|2,3:0|3:0,0:0:0:0:
199,159,80541,1,8,0:0:0:0:
199,159,80710,2,0,B|217:253|217:253|188:306,1,154.000004699707,2|2,3:0|3:0,0:0:0:0:
117,374,81216,1,8,0:0:0:0:
117,374,81384,1,2,3:0:0:0:
46,283,81553,6,0,P|23:239|13:201,1,77.0000023498536,6|0,0:0|0:0,0:0:0:0:
64,125,81890,2,0,P|127:170|223:138,1,154.000004699707,8|2,0:0|0:0,0:0:0:0:
280,101,82395,1,2,3:0:0:0:
280,101,82564,2,0,P|337:103|362:114,1,77.0000023498536,8|2,0:0|3:0,0:0:0:0:
448,208,82901,6,0,P|369:205|284:251,1,154.000004699707,6|8,0:0|0:0,0:0:0:0:
276,332,83407,2,0,P|264:258|236:165,1,154.000004699707,2|2,3:0|3:0,0:0:0:0:
199,92,83912,1,8,0:0:0:0:
199,92,84249,6,0,P|153:79|61:132,1,154.000004699707,6|8,0:0|0:0,0:0:0:0:
19,216,84755,1,2,3:0:0:0:
19,216,84923,2,0,P|31:273|36:312,1,77.0000023498536,2|2,0:0|3:0,0:0:0:0:
104,363,85261,1,8,0:0:0:0:
174,276,85429,6,0,P|215:246|319:240,1,154.000004699707,6|2,0:0|3:0,0:0:0:0:
402,288,85935,2,0,L|448:272,3,38.5000011749268,8|0|2|2,0:0|0:0|3:0|0:0,0:0:0:0:
475,240,86272,2,0,P|490:181|501:149,1,77.0000023498536,2|2,0:0|3:0,0:0:0:0:
431,88,86609,1,8,0:0:0:0:
431,88,86777,1,2,3:0:0:0:
321,146,86946,6,0,P|276:118|163:111,1,154.000004699707,6|8,0:0|0:0,0:0:0:0:
99,171,87452,1,2,3:0:0:0:
99,171,87620,2,0,P|109:207|124:243,1,77.0000023498536,2|2,0:0|3:0,0:0:0:0:
211,294,87957,1,8,0:0:0:0:
211,294,88126,6,0,P|229:200|247:135,1,154.000004699707,2|2,3:0|3:0,0:0:0:0:
298,59,88631,1,8,0:0:0:0:
298,59,88800,1,2,3:0:0:0:
388,100,88968,2,0,P|433:120|465:146,1,77.0000023498536,2|0,0:0|0:0,0:0:0:0:
482,233,89305,1,8,0:0:0:0:
482,233,89643,6,0,P|406:245|304:268,1,154.000004699707,6|8,0:0|0:0,0:0:0:0:
268,339,90148,2,0,P|227:326|183:301,1,77.0000023498536,2|2,3:0|0:0,0:0:0:0:
115,251,90485,1,0,0:0:0:0:
199,165,90654,6,0,P|247:132|354:144,1,154.000004699707,6|2,0:0|0:0,0:0:0:0:
408,207,91159,1,2,3:0:0:0:
473,130,91328,2,0,P|507:74|525:30,1,77.0000023498536,8|2,0:0|3:0,0:0:0:0:
418,28,91665,1,2,0:0:0:0:
418,28,91834,2,0,P|358:38|265:48,1,154.000004699707,2|2,3:0|3:0,0:0:0:0:
146,19,92339,5,6,0:0:0:0:
146,19,92508,1,2,0:0:0:0:
108,106,92676,2,0,P|117:171|131:209,1,77.0000023498536,8|2,0:0|0:0,0:0:0:0:
182,260,93013,2,0,P|235:242|288:245,1,77.0000023498536,8|2,0:0|0:0,0:0:0:0:
316,320,93350,1,8,0:0:0:0:
433,263,93519,6,0,P|444:186|466:88,1,154.000004699707,6|2,0:0|0:0,0:0:0:0:
369,68,94025,1,8,0:0:0:0:
292,154,94193,2,0,P|225:174|199:176,1,77.0000023498536,6|2,0:0|0:0,0:0:0:0:
136,116,94530,1,8,0:0:0:0:
136,116,94614,1,8,0:0:0:0:
136,116,94699,2,0,P|83:122|32:109,1,77.0000023498536,8|8,0:0|0:0,0:0:0:0:
319,269,95204,5,2,0:0:0:0:
319,269,95289,1,2,0:0:0:0:
319,269,95373,1,6,0:0:0:0:
256,192,95457,12,0,100598,0:0:0:0:
