osu file format v14

[General]
AudioFilename: audio.mp3
AudioLeadIn: 0
PreviewTime: 51447
Countdown: 0
SampleSet: Soft
StackLeniency: 0.4
Mode: 0
LetterboxInBreaks: 0
WidescreenStoryboard: 0

[Editor]
DistanceSpacing: 1.4
BeatDivisor: 4
GridSize: 16
TimelineZoom: 2.6

[Metadata]
Title:Million Smile (Short Ver.)
TitleUnicode:Million Smile (Short Ver.)
Artist:Machico
ArtistUnicode:Machico
Creator:Kazuma
Version:Promise
Source:この素晴らしい世界に祝福を! -この欲深いゲームに審判を!-
Tags:opening op video game short ver j-pop jpop pop japanese shirahane suou spokenaway tycani fuiba fuyu 園田智也 tomoya sonoda kono subarashii sekai ni syukufuku yokubukai game shinpan wo konosuba god's blessing on this wonderful world ps4 ps vita playstation megumin shukufuku めぐみん Yunyun ゆんゆん
BeatmapID:3467210
BeatmapSetID:1697013

[Difficulty]
HPDrainRate:6
CircleSize:4.2
OverallDifficulty:8.5
ApproachRate:9.2
SliderMultiplier:1.8
SliderTickRate:1

[Events]
//Background and Video events
0,0,"megu sus.png",0,0
//Break Periods
//Storyboard Layer 0 (Background)
//Storyboard Layer 1 (Fail)
//Storyboard Layer 2 (Pass)
//Storyboard Layer 3 (Foreground)
//Storyboard Layer 4 (Overlay)
//Storyboard Sound Samples

[TimingPoints]
970,337.078651685393,4,2,2,70,1,0
970,-111.111111111111,4,2,2,70,0,0
1138,-111.111111111111,4,2,1,70,0,0
3498,-100,4,2,1,70,0,0
5015,-100,4,2,1,5,0,0
5184,-100,4,2,1,70,0,0
5268,-100,4,2,1,5,0,0
5352,-100,4,2,1,70,0,0
5689,-100,4,2,1,5,0,0
5857,-83.3333333333333,4,2,1,70,0,0
6700,-90.9090909090909,4,2,1,80,0,0
7459,-90.9090909090909,4,2,1,5,0,0
7543,-90.9090909090909,4,2,1,80,0,0
8554,-90.9090909090909,4,2,1,80,0,0
8639,-90.9090909090909,4,2,1,80,0,0
8723,-90.9090909090909,4,2,1,80,0,0
10661,-90.9090909090909,4,2,1,5,0,0
10745,-83.3333333333333,4,2,1,80,0,0
10998,-83.3333333333333,4,2,1,5,0,0
11082,-76.9230769230769,4,2,1,80,0,0
11335,-83.3333333333333,4,2,1,5,0,0
11420,-83.3333333333333,4,2,1,80,0,0
11504,-83.3333333333333,4,2,1,5,0,0
11588,-83.3333333333333,4,2,1,80,0,0
11756,-71.4285714285714,4,2,1,80,0,0
12009,-71.4285714285714,4,2,1,5,0,0
12094,-90.9090909090909,4,2,1,80,0,0
12936,-83.3333333333333,4,2,1,80,0,0
13610,-76.9230769230769,4,2,1,80,0,0
14284,-90.9090909090909,4,2,1,80,0,0
15632,-83.3333333333333,4,2,1,80,0,0
17149,-100,4,2,1,70,0,0
19257,-100,4,2,1,5,0,0
19341,-100,4,2,1,70,0,0
20774,-100,4,2,1,5,0,0
20858,-100,4,2,1,70,0,0
23470,-100,4,2,1,5,0,0
23554,-100,4,2,1,70,0,0
24650,-100,4,2,1,5,0,0
24734,-100,4,2,1,70,0,0
25998,-100,4,2,1,5,0,0
26082,-100,4,2,1,70,0,0
27936,-90.9090909090909,4,2,1,70,0,0
28610,-100,4,2,1,70,0,0
29369,-100,4,2,1,5,0,0
29453,-100,4,2,1,70,0,0
30886,-100,4,2,1,5,0,0
30970,-100,4,2,1,70,0,0
31897,-100,4,2,1,5,0,0
31981,-100,4,2,1,70,0,0
32234,-100,4,2,1,5,0,0
32318,-100,4,2,1,70,0,0
32908,-100,4,2,1,5,0,0
32993,-100,4,2,1,70,0,0
33077,-100,4,2,1,5,0,0
33161,-100,4,2,1,70,0,0
33245,-100,4,2,1,5,0,0
33329,-90.9090909090909,4,2,1,70,0,0
35014,-100,4,2,1,70,0,0
35857,-90.9090909090909,4,2,1,70,0,0
36363,-100,4,2,1,70,0,0
38722,-90.9090909090909,4,2,1,75,0,0
38975,-90.9090909090909,4,2,1,5,0,0
39059,-100,4,2,1,75,0,0
39902,-90.9090909090909,4,2,1,75,0,0
40408,-100,4,2,1,75,0,0
40830,-90.9090909090909,4,2,1,5,0,0
40914,-90.9090909090909,4,2,1,75,0,0
41082,-100,4,2,1,75,0,0
41419,-90.9090909090909,4,2,1,75,0,0
41672,-90.9090909090909,4,2,1,5,0,0
41756,-100,4,2,1,75,0,0
42599,-90.9090909090909,4,2,1,75,0,0
43104,-100,4,2,1,75,0,0
43526,-100,4,2,1,5,0,0
43611,-100,4,2,1,75,0,0
43695,-100,4,2,1,5,0,0
43779,-100,4,2,1,75,0,0
44116,-90.9090909090909,4,2,1,75,0,0
46812,-83.3333333333333,4,2,1,75,0,0
47486,-90.9090909090909,4,2,1,75,0,0
47571,-90.9090909090909,4,2,1,5,0,0
47656,-90.9090909090909,4,2,1,75,0,0
50436,-90.9090909090909,4,2,1,5,0,0
50521,-90.9090909090909,4,2,1,75,0,0
51531,-90.9090909090909,4,2,1,60,0,0
51868,-250,4,2,1,70,0,0
52122,-250,4,2,1,5,0,0
52205,-83.3333333333333,4,2,1,80,0,1
55998,-83.3333333333333,4,2,1,5,0,1
56082,-83.3333333333333,4,2,1,80,0,1
57262,-250,4,2,1,80,0,1
57515,-250,4,2,1,5,0,1
57599,-76.9230769230769,4,2,1,80,0,1
59284,-83.3333333333333,4,2,1,80,0,1
59958,-250,4,2,1,80,0,1
60212,-250,4,2,1,5,0,1
60295,-83.3333333333333,4,2,1,80,0,1
60549,-83.3333333333333,4,2,1,5,0,1
60633,-83.3333333333333,4,2,1,80,0,1
60969,-76.9230769230769,4,2,1,80,0,1
61223,-76.9230769230769,4,2,1,5,0,1
61307,-83.3333333333333,4,2,1,80,0,1
61729,-83.3333333333333,4,2,1,5,0,1
61813,-83.3333333333333,4,2,1,80,0,1
61897,-83.3333333333333,4,2,1,5,0,1
61981,-83.3333333333333,4,2,1,80,0,1
63245,-83.3333333333333,4,2,1,5,0,1
63330,-83.3333333333333,4,2,1,80,0,1
65268,-83.3333333333333,4,2,1,5,0,1
65352,-76.9230769230769,4,2,1,80,0,1
65689,-71.4285714285714,4,2,1,80,0,1
65942,-71.4285714285714,4,2,1,5,0,1
66026,-71.4285714285714,4,2,1,80,0,1
66868,-76.9230769230769,4,2,1,80,0,1
68385,-83.3333333333333,4,2,1,80,0,1
70998,-83.3333333333333,4,2,1,5,0,1
71082,-76.9230769230769,4,2,1,80,0,1
71335,-76.9230769230769,4,2,1,5,0,1
71420,-76.9230769230769,4,2,1,80,0,1
71841,-76.9230769230769,4,2,1,5,0,1
71925,-76.9230769230769,4,2,1,80,0,1
72347,-76.9230769230769,4,2,1,5,0,1
72431,-76.9230769230769,4,2,1,80,0,1
72599,-71.4285714285714,4,2,1,80,0,1
72852,-71.4285714285714,4,2,1,5,0,1
72936,-71.4285714285714,4,2,1,80,0,1
73104,-83.3333333333333,4,2,1,80,0,1
74958,-76.9230769230769,4,2,1,80,0,1
76475,-90.9090909090909,4,2,1,80,0,0
79087,-90.9090909090909,4,2,1,5,0,0
79172,-83.3333333333333,4,2,1,80,0,0
79677,-90.9090909090909,4,2,1,80,0,0
81784,-90.9090909090909,4,2,1,5,0,0
81868,-83.3333333333333,4,2,1,80,0,0
82374,-90.9090909090909,4,2,1,80,0,0
83217,-83.3333333333333,4,2,1,80,0,0
83469,-83.3333333333333,4,2,1,5,0,0
83554,-90.9090909090909,4,2,1,80,0,0
83891,-90.9090909090909,4,2,1,80,0,0
84565,-83.3333333333333,4,2,1,80,0,0
87262,-90.9090909090909,4,2,1,80,0,0
89537,-90.9090909090909,4,2,1,80,0,0
89621,-90.9090909090909,4,2,1,80,0,0
89958,-83.3333333333333,4,2,1,80,0,0
90632,-90.9090909090909,4,2,1,80,0,0
93245,-90.9090909090909,4,2,1,5,0,0
93329,-90.9090909090909,4,2,1,80,0,0
95520,-90.9090909090909,4,2,1,70,0,0
95773,-90.9090909090909,4,2,1,50,0,0
100745,-90.9090909090909,4,2,1,20,0,0

[Colours]
Combo1 : 150,88,5
Combo2 : 243,98,82
Combo3 : 225,188,62
Combo4 : 180,139,180

[HitObjects]
21,16,801,6,0,P|48:14|83:33,1,45,0|0,3:0|3:0,2:0:0:0:
185,115,970,2,0,P|92:102|53:170,1,161.999995056153,6|0,1:2|3:0,2:0:0:0:
172,243,1475,2,0,B|224:225|259:270|237:281|271:321|320:311,1,161.999995056153,2|0,2:0|3:0,2:0:0:0:
431,185,1980,2,0,B|422:164|395:161|395:161|357:227|409:286,1,161.999995056153,2|0,2:0|3:0,2:0:0:0:
438,373,2486,1,8,3:0:0:0:
304,312,2655,2,0,P|264:297|222:313,1,80.9999975280763,4|4,3:0|3:0,2:0:0:0:
431,185,2992,1,2,2:0:0:0:
246,33,3160,5,2,2:0:0:0:
264,69,3244,1,2,2:0:0:0:
273,108,3328,1,2,2:0:0:0:
273,148,3412,1,2,2:0:0:0:
263,188,3498,6,0,B|196:180|196:180|161:198|161:198|85:188,1,180,6|0,1:2|1:0,2:0:0:0:
3,28,4003,5,0,1:0:0:0:
139,114,4171,1,8,2:0:0:0:
25,245,4340,1,0,1:0:0:0:
158,99,4508,1,8,2:0:0:0:
14,134,4677,1,0,1:0:0:0:
195,307,4846,6,0,L|291:290,1,90,2|0,1:2|2:0,2:0:0:0:
391,131,5183,6,0,L|383:195,1,45,2|0,1:2|2:0,2:0:0:0:
370,265,5351,1,8,2:0:0:0:
510,374,5520,6,0,L|428:315,1,90,2|0,1:2|2:0,2:0:0:0:
206,159,5857,6,0,B|270:201|270:201|396:127,1,215.999993408203,6|8,1:2|2:0,2:0:0:0:
463,85,6278,1,8,2:0:0:0:
480,77,6362,1,8,2:0:0:0:
272,23,6531,1,8,2:0:0:0:
264,52,6615,1,8,2:0:0:0:
271,80,6699,5,6,1:2:0:0:
370,265,6868,1,2,2:0:0:0:
390,130,7037,1,10,2:0:0:0:
232,263,7205,1,0,1:0:0:0:
205,249,7289,1,0,1:0:0:0:
178,255,7374,2,0,P|181:282|190:309,1,49.5000015106202,8|0,2:0|0:0,2:0:0:0:
0,381,7542,6,0,P|19:290|22:172,1,198.000006042481,4|2,1:2|1:2,2:0:0:0:
130,26,8048,1,8,2:0:0:0:
266,151,8216,1,2,1:2:0:0:
266,151,8301,1,0,1:0:0:0:
266,151,8385,2,0,P|221:128|164:142,1,99.0000030212403,0|2,1:2|1:2,2:0:0:0:
232,263,8722,1,8,2:0:0:0:
448,95,8890,6,0,B|413:143|449:195|468:174|500:227|467:276,1,198.000006042481,6|0,1:2|1:0,2:0:0:0:
372,369,9396,1,8,2:0:0:0:
232,263,9565,2,0,L|294:256,1,49.5000015106202,2|0,2:0|3:0,2:0:0:0:
176,373,9733,2,0,L|43:356,1,99.0000030212403,2|0,1:2|1:0,2:0:0:0:
0,167,10070,1,8,2:0:0:0:
59,250,10239,1,0,2:0:0:0:
257,111,10408,6,0,P|196:74|133:107,1,148.50000453186,2|0,1:2|2:0,2:0:0:0:
214,231,10745,6,0,P|280:185|367:191,1,161.999995056153,10|0,2:0|2:0,2:0:0:0:
479,265,11082,6,0,P|436:192|478:119,1,175.499991966248,2|0,1:2|2:0,2:0:0:0:
330,3,11419,6,0,P|341:35|330:69,1,53.9999983520508,10|0,2:0|2:0,2:0:0:0:
257,111,11587,1,2,1:2:0:0:
395,346,11756,6,0,B|321:337|321:337|283:356|283:356|192:345,1,188.999994232178,6|0,1:2|2:0,2:0:0:0:
135,329,12093,1,10,2:0:0:0:
0,180,12261,2,0,P|44:198|90:181,1,99.0000030212403,2|0,2:0|1:0,2:0:0:0:
257,111,12598,1,2,1:2:0:0:
129,45,12767,1,8,2:0:0:0:
272,263,12936,6,0,P|361:213|472:242,1,215.999993408203,6|2,1:2|1:2,2:0:0:0:
387,377,13441,1,10,2:0:0:0:
272,263,13610,2,0,P|290:152|408:100,1,233.999989288331,6|2,1:2|1:2,2:0:0:0:
421,244,14115,1,10,2:0:0:0:
231,358,14284,6,0,B|183:323|131:359|152:378|99:410|50:377,1,198.000006042481,6|2,1:2|1:2,2:0:0:0:
23,192,14789,2,0,P|74:165|126:177,1,99.0000030212403,10|0,2:0|1:0,2:0:0:0:
231,358,15126,2,0,P|209:319|226:256,1,99.0000030212403,10|0,2:0|1:0,2:0:0:0:
236,228,15379,1,0,1:0:0:0:
236,228,15464,1,8,2:0:0:0:
427,53,15632,6,0,B|364:1|306:47|306:47|309:97|260:121,1,215.999993408203,6|2,1:2|1:2,2:0:0:0:
112,218,16138,1,10,2:0:0:0:
0,119,16306,2,0,P|28:239|6:339,1,215.999993408203,6|8,1:2|2:0,2:0:0:0:
64,378,16728,1,8,2:0:0:0:
90,370,16812,1,8,2:0:0:0:
242,278,16980,1,8,2:0:0:0:
270,296,17065,1,8,2:0:0:0:
304,294,17149,6,0,B|350:265|398:298|378:313|428:347|471:316,1,180,6|8,1:2|2:0,2:0:0:0:
512,238,17655,1,2,2:0:0:0:
435,116,17823,2,0,P|418:165|443:212,1,90,2|0,1:2|1:0,2:0:0:0:
304,294,18160,2,0,P|321:245|296:198,1,90,8|2,2:0|2:0,2:0:0:0:
175,73,18497,6,0,B|246:62|246:62|284:85|284:85|369:70,1,180,2|8,1:2|2:0,2:0:0:0:
435,116,19003,1,2,2:0:0:0:
308,210,19172,1,2,1:2:0:0:
392,294,19340,1,0,1:0:0:0:
250,363,19508,2,0,P|235:321|250:279,1,90,8|2,2:0|2:0,2:0:0:0:
308,210,19761,1,2,2:0:0:0:
315,192,19846,6,0,P|329:150|314:108,1,90,2|0,1:2|2:0,2:0:0:0:
109,69,20183,2,0,B|63:119|77:180|77:180|109:191|123:233,1,180,8|2,2:0|1:2,2:0:0:0:
144,302,20689,1,0,1:0:0:0:
274,373,20857,1,8,2:0:0:0:
363,257,21025,6,0,B|415:243|451:289|427:297|464:345|515:329,1,180,0|0,1:0|1:0,2:0:0:0:
274,373,21531,1,8,2:0:0:0:
241,243,21699,2,0,P|257:154|239:67,1,180,2|2,2:0|1:2,2:0:0:0:
121,6,22205,1,10,2:0:0:0:
239,67,22374,1,2,2:0:0:0:
93,168,22542,6,0,P|48:146|9:156,1,90,6|0,1:2|2:0,2:0:0:0:
91,329,22879,2,0,P|130:303|190:314,1,90,8|0,2:0|2:0,2:0:0:0:
287,368,23216,1,2,1:2:0:0:
358,256,23385,1,2,1:2:0:0:
287,368,23553,1,10,2:0:0:0:
181,222,23722,6,0,B|155:197|167:156|167:156|204:38,1,180,6|2,1:2|1:2,2:0:0:0:
357,0,24228,1,8,2:0:0:0:
425,104,24396,2,0,P|358:84|285:109,1,135,2|0,2:0|2:0,2:0:0:0:
263,123,24733,1,2,1:2:0:0:
358,256,24902,1,8,2:0:0:0:
212,329,25070,6,0,B|141:318|141:318|103:341|103:341|40:329,1,180,6|0,1:2|1:0,2:0:0:0:
0,194,25576,2,0,L|94:181,1,90,10|0,2:0|2:0,2:0:0:0:
199,52,25913,1,2,1:2:0:0:
55,50,26081,1,0,1:0:0:0:
0,194,26250,2,0,L|94:181,1,90,10|0,2:0|2:0,2:0:0:0:
230,306,26587,5,6,1:2:0:0:
158,241,26756,1,0,1:0:0:0:
132,334,26924,1,10,2:0:0:0:
264,201,27093,6,0,B|310:172|358:205|338:220|388:254|431:223,1,180,6|8,1:2|2:0,2:0:0:0:
512,146,27598,1,8,2:0:0:0:
401,28,27767,1,8,2:0:0:0:
396,55,27851,1,8,2:0:0:0:
392,82,27936,6,0,B|424:50|424:50|242:67,1,198.000006042481,6|8,1:2|2:0,2:0:0:0:
160,188,28441,1,2,2:0:0:0:
236,229,28610,2,0,P|249:181|231:139,1,90,2|0,1:2|1:0,2:0:0:0:
69,17,28947,2,0,P|56:66|76:114,1,90,8|2,2:0|2:0,2:0:0:0:
160,188,29284,1,2,1:2:0:0:
56,341,29452,1,0,1:0:0:0:
43,223,29621,1,8,2:0:0:0:
158,365,29789,2,0,P|145:285|170:159,1,180,2|0,1:2|1:0,2:0:0:0:
225,62,30295,1,8,2:0:0:0:
399,187,30464,1,2,2:0:0:0:
399,187,30548,1,2,2:0:0:0:
399,187,30632,6,0,B|362:167|319:187|338:199|299:222|259:198,1,135,2|0,1:2|2:0,2:0:0:0:
224,144,30969,2,0,P|208:102|224:61,1,90,8|2,2:0|2:0,2:0:0:0:
399,1,31306,1,2,1:2:0:0:
471,95,31475,1,0,1:0:0:0:
399,187,31643,1,8,2:0:0:0:
499,346,31812,6,0,B|462:335|428:323|428:323|402:344|366:353,1,135,2|0,1:2|0:0,2:0:0:0:
310,288,32149,6,0,P|307:265|311:241,1,45,2|2,1:2|2:0,2:0:0:0:
374,350,32318,1,8,2:0:0:0:
229,380,32486,2,0,P|183:371|131:381,1,90,2|0,2:0|1:0,2:0:0:0:
22,289,32823,6,0,P|21:262|9:238,1,45,2|0,1:2|2:0,2:0:0:0:
67,159,32992,2,0,P|70:135|82:113,1,45,10|0,2:0|2:0,2:0:0:0:
22,54,33160,2,0,P|22:31|15:10,1,45,2|0,2:0|2:0,2:0:0:0:
206,0,33329,6,0,P|187:96|209:192,1,198.000006042481,6|8,1:2|2:0,2:0:0:0:
388,198,33834,1,0,2:0:0:0:
388,198,33919,1,0,3:0:0:0:
388,198,34003,2,0,P|401:144|385:88,1,99.0000030212403,2|2,1:2|1:2,2:0:0:0:
289,144,34340,1,10,2:0:0:0:
395,326,34508,6,0,B|355:268|287:288|287:288|272:329|222:338,1,198.000006042481,6|2,1:2|1:2,2:0:0:0:
76,295,35014,2,0,P|64:254|86:200,1,90,8|2,2:0|2:0,2:0:0:0:
119,136,35267,1,2,2:0:0:0:
127,117,35351,2,0,P|139:76|117:22,1,90,0|2,1:0|1:2,2:0:0:0:
31,80,35688,1,8,2:0:0:0:
188,225,35857,6,0,B|241:192|292:227|273:244|324:280|374:244,1,198.000006042481,6|0,1:2|1:0,2:0:0:0:
459,90,36363,2,0,P|443:131|458:173,1,90,10|0,2:0|1:0,2:0:0:0:
512,356,36699,5,10,2:0:0:0:
369,246,36868,1,0,1:0:0:0:
396,356,37037,5,10,2:0:0:0:
458,173,37205,1,0,1:0:0:0:
270,59,37374,6,0,P|243:135|274:185,1,135,14|0,2:0|2:0,2:0:0:0:
333,122,37711,1,10,2:0:0:0:
163,21,37879,2,0,B|88:35|88:35|66:63|66:63|-12:78,1,180,6|8,1:2|2:0,2:0:0:0:
0,149,38301,1,8,2:0:0:0:
14,164,38385,1,8,2:0:0:0:
126,317,38553,1,4,3:0:0:0:
119,289,38638,1,4,3:0:0:0:
112,262,38722,6,0,B|181:267|181:267|191:277|191:277|271:284,1,148.50000453186,6|0,1:2|2:0,2:0:0:0:
309,339,39059,2,0,L|414:328,1,90,10|0,2:0|2:0,2:0:0:0:
494,165,39396,2,0,P|478:208|492:248,1,90,2|2,1:2|1:2,2:0:0:0:
496,347,39733,1,10,2:0:0:0:
320,201,39902,6,0,B|277:151|277:151|317:22,1,198.000006042481,6|2,1:2|1:2,2:0:0:0:
494,165,40408,2,0,P|444:148|396:172,1,90,8|2,2:0|2:0,2:0:0:0:
320,201,40660,1,2,2:0:0:0:
302,211,40744,2,0,P|297:238|302:260,1,45,0|0,1:0|2:0,2:0:0:0:
309,339,40913,1,0,1:0:0:0:
136,382,41082,2,0,P|147:336|127:290,1,90,8|0,2:0|2:0,2:0:0:0:
0,113,41419,6,0,B|83:83|83:83|117:89|127:121,1,148.50000453186,6|0,1:2|2:0,2:0:0:0:
154,190,41756,2,0,P|195:206|236:190,1,90,10|0,2:0|2:0,2:0:0:0:
329,63,42093,2,0,P|281:54|215:49,1,90,2|2,1:2|1:2,2:0:0:0:
355,191,42430,1,10,2:0:0:0:
255,384,42599,6,0,P|261:295|235:188,1,198.000006042481,6|2,1:2|1:2,2:0:0:0:
329,63,43104,2,0,P|373:51|422:70,1,90,8|2,2:0|2:0,2:0:0:0:
467,234,43441,2,0,P|471:213|479:191,1,45,0|0,1:0|2:0,2:0:0:0:
355,191,43610,2,0,P|365:216|368:241,1,45,0|0,1:0|2:0,2:0:0:0:
419,313,43778,1,8,2:0:0:0:
255,384,43947,1,4,3:0:0:0:
234,374,44031,1,4,3:0:0:0:
218,362,44116,6,0,P|234:287|209:216,1,148.50000453186,14|2,2:0|2:0,2:0:0:0:
158,143,44452,2,0,P|144:96|160:47,1,99.0000030212403,8|2,2:0|1:2,2:0:0:0:
73,303,44789,5,10,2:0:0:0:
158,143,44958,1,0,1:2:0:0:
211,220,45126,5,8,2:0:0:0:
31,128,45295,1,2,1:2:0:0:
233,30,45464,6,0,B|276:6|319:31|301:46|341:67|382:47,1,148.50000453186,14|2,2:0|2:0,2:0:0:0:
447,102,45801,2,0,P|426:153|446:198,1,99.0000030212403,8|2,2:0|1:2,2:0:0:0:
379,355,46138,1,14,2:0:0:0:
211,220,46306,1,8,2:0:0:0:
211,220,46390,1,8,2:0:0:0:
211,220,46475,2,0,P|160:200|115:216,1,99.0000030212403,8|4,3:0|3:0,2:0:0:0:
37,356,46728,1,4,3:0:0:0:
29,375,46812,6,0,B|117:363|117:363|156:389|156:389|250:376,1,215.999993408203,6|8,1:2|2:0,2:0:0:0:
379,355,47317,1,2,2:0:0:0:
309,160,47486,1,2,1:2:0:0:
318,271,47655,1,0,1:0:0:0:
441,85,47823,1,8,2:0:0:0:
499,191,47992,6,0,P|410:156|307:161,1,198.000006042481,0|0,1:0|1:0,2:0:0:0:
214,309,48497,2,0,P|230:265|206:215,1,99.0000030212403,8|0,2:0|2:0,2:0:0:0:
78,59,48834,1,2,1:2:0:0:
17,159,49003,1,2,1:2:0:0:
112,230,49171,2,0,P|161:220|221:220,1,99.0000030212403,10|0,2:0|1:0,2:0:0:0:
413,369,49508,5,14,2:0:0:0:
356,182,49677,1,0,1:0:0:0:
214,309,49846,1,10,2:0:0:0:
439,223,50014,2,0,P|452:177|427:124,1,99.0000030212403,2|8,1:2|2:0,2:0:0:0:
277,38,50352,1,2,1:2:0:0:
356,182,50520,1,8,2:0:0:0:
110,140,50688,1,6,1:2:0:0:
110,140,51531,5,0,3:0:0:0:
48,213,51699,2,0,L|-13:202,1,49.5000015106202,8|4,3:0|3:0,2:0:0:0:
110,140,51868,2,0,L|174:128,1,54,12|0,2:0|2:0,2:0:0:0:
293,61,52205,6,0,L|127:34,1,161.999995056153,6|0,1:2|2:0,2:0:0:0:
53,14,52542,1,10,2:0:0:0:
163,192,52711,1,0,1:0:0:0:
177,162,52795,1,8,2:0:0:0:
163,130,52879,1,2,1:2:0:0:
48,213,53048,1,0,1:0:0:0:
256,384,53216,1,10,2:0:0:0:
322,307,53385,6,0,B|237:293|237:293|188:321|188:321|96:304,1,215.999993408203,2|2,2:0|2:0,2:0:0:0:
31,241,53806,1,2,2:0:0:0:
48,213,53890,1,10,2:0:0:0:
223,32,54059,1,2,1:2:0:0:
235,49,54143,1,8,2:0:0:0:
245,62,54228,2,0,B|290:58|290:58|304:66|304:66|367:60,1,107.999996704102,2|0,1:2|1:0,2:0:0:0:
512,220,54565,2,0,P|469:198|411:223,1,107.999996704102,8|0,2:0|3:0,2:0:0:0:
304,304,54817,1,0,3:0:0:0:
286,318,54902,6,0,B|248:343|248:343|266:153,1,215.999993408203,2|10,1:2|2:0,2:0:0:0:
107,6,55407,1,0,1:0:0:0:
93,38,55491,1,8,2:0:0:0:
107,68,55575,1,2,1:2:0:0:
264,173,55744,1,0,1:0:0:0:
70,330,55913,1,10,0:0:0:0:
23,258,56081,6,0,B|82:215|140:260|120:279|178:316|234:281,1,215.999993408203,2|2,2:0|2:0,2:0:0:0:
292,263,56503,1,2,2:0:0:0:
315,277,56587,1,10,2:0:0:0:
511,120,56756,1,2,1:2:0:0:
485,110,56840,1,8,2:0:0:0:
458,98,56924,2,0,L|477:233,1,107.999996704102,0|0,1:0|1:0,2:0:0:0:
281,142,57262,2,0,P|284:115|293:90,1,54,8|0,2:0|2:0,2:0:0:0:
165,272,57599,6,0,P|168:164|121:42,1,233.999989288331,6|10,1:2|2:0,2:0:0:0:
57,287,58104,1,2,1:2:0:0:
57,287,58188,1,8,2:0:0:0:
57,287,58273,2,0,P|110:260|172:277,1,116.999994644165,2|2,1:2|1:2,2:0:0:0:
291,384,58610,1,8,2:0:0:0:
485,116,58778,6,0,B|427:75|359:119|389:143|327:187|267:144,1,233.999989288331,6|0,1:2|1:0,2:0:0:0:
79,10,59284,2,0,P|102:70|82:111,1,107.999996704102,10|0,2:0|1:0,2:0:0:0:
16,225,59537,1,8,2:0:0:0:
30,214,59621,2,0,P|85:193|130:217,1,107.999996704102,2|0,1:2|1:0,2:0:0:0:
231,360,59958,2,0,P|235:332|228:298,1,54,10|0,2:0|2:0,2:0:0:0:
353,149,60295,6,0,P|338:237|363:320,1,161.999995056153,6|0,1:2|2:0,2:0:0:0:
408,371,60632,1,10,2:0:0:0:
509,139,60801,1,2,1:2:0:0:
509,139,60885,1,8,2:0:0:0:
509,139,60969,2,0,B|465:178|465:178|348:147,1,175.499991966248,6|0,1:2|2:0,2:0:0:0:
264,113,61306,1,10,2:0:0:0:
127,291,61475,1,0,1:0:0:0:
127,291,61559,1,8,2:0:0:0:
127,291,61643,6,0,P|126:254|141:225,1,53.9999983520508,14|0,2:0|2:0,2:0:0:0:
48,158,61812,2,0,P|49:121|34:92,1,53.9999983520508,0|0,1:0|2:0,2:0:0:0:
127,0,61980,1,10,2:0:0:0:
264,113,62149,2,0,P|289:172|259:217,1,107.999996704102,10|0,2:0|2:0,2:0:0:0:
382,384,62486,1,8,2:0:0:0:
371,357,62571,1,8,2:0:0:0:
378,329,62655,1,8,2:0:0:0:
401,64,62823,1,4,3:0:0:0:
420,87,62907,1,4,3:0:0:0:
422,116,62992,6,0,B|357:110|357:110|333:121|333:121|255:112,1,161.999995056153,6|0,1:2|2:0,2:0:0:0:
178,101,63329,1,10,2:0:0:0:
51,249,63497,1,0,1:0:0:0:
0,182,63666,2,0,P|47:162|105:190,1,107.999996704102,2|0,1:2|0:0,2:0:0:0:
163,327,64003,1,10,2:0:0:0:
385,170,64171,6,0,B|322:123|264:185|264:185|279:239|231:270,1,215.999993408203,2|2,2:0|2:0,2:0:0:0:
163,327,64593,1,2,2:0:0:0:
139,340,64677,1,10,2:0:0:0:
51,249,64846,1,2,1:2:0:0:
144,51,65014,2,0,P|221:31|280:83,1,161.999995056153,2|0,1:2|2:0,2:0:0:0:
309,151,65352,1,8,0:0:0:0:
466,294,65520,1,0,1:0:0:0:
466,294,65604,1,0,1:0:0:0:
466,294,65689,6,0,B|451:219|451:219|468:182|468:182|452:97,1,188.999994232178,6|0,1:2|2:0,2:0:0:0:
431,31,66025,5,8,2:0:0:0:
278,80,66194,1,8,2:0:0:0:
467,184,66362,1,8,2:0:0:0:
217,254,66531,1,8,2:0:0:0:
450,384,66699,1,8,2:0:0:0:
347,223,66868,6,0,B|290:185|228:221|255:246|191:289|131:248,1,233.999989288331,6|2,1:2|1:2,2:0:0:0:
18,349,67374,1,10,0:0:0:0:
133,249,67543,1,6,1:2:0:0:
18,128,67711,2,0,P|70:151|125:130,1,116.999994644165,2|0,1:2|1:0,2:0:0:0:
274,6,68048,5,10,2:0:0:0:
224,61,68132,1,2,1:2:0:0:
222,130,68216,1,2,1:2:0:0:
243,165,68301,1,2,1:2:0:0:
270,187,68385,6,0,B|351:176|351:176|396:199|396:199|491:184,1,215.999993408203,6|10,1:2|2:0,2:0:0:0:
314,382,68890,1,2,1:2:0:0:
314,382,68975,1,8,2:0:0:0:
314,382,69059,2,0,L|179:364,1,107.999996704102,0|2,1:2|1:2,2:0:0:0:
9,223,69396,1,10,2:0:0:0:
110,329,69565,6,0,P|91:236|122:117,1,215.999993408203,6|0,1:2|1:0,2:0:0:0:
294,226,70070,2,0,P|304:174|292:121,1,107.999996704102,10|0,2:0|1:0,2:0:0:0:
261,51,70323,1,8,2:0:0:0:
251,35,70407,1,2,1:2:0:0:
120,120,70576,1,0,1:0:0:0:
294,226,70745,2,0,P|362:195|453:222,1,161.999995056153,10|0,2:0|2:0,2:0:0:0:
369,323,71082,6,0,P|373:247|388:126,1,175.499991966248,14|0,2:0|2:0,2:0:0:0:
401,64,71419,1,0,1:0:0:0:
201,155,71587,2,0,P|106:116|38:144,1,175.499991966248,14|0,2:0|2:0,2:0:0:0:
0,206,71924,1,0,1:0:0:0:
178,316,72093,2,0,B|148:270|179:222|197:239|224:192|197:148,1,175.499991966248,14|0,2:0|2:0,2:0:0:0:
166,72,72430,1,0,1:0:0:0:
399,0,72599,6,0,P|373:97|397:186,1,188.999994232178,14|0,2:0|2:0,2:0:0:0:
434,255,72935,1,0,1:0:0:0:
284,327,73104,2,0,P|235:315|170:317,1,107.999996704102,14|8,2:0|2:0,2:0:0:0:
89,335,73357,1,8,2:0:0:0:
89,335,73441,1,10,2:0:0:0:
0,123,73610,1,8,2:0:0:0:
11,141,73694,1,8,2:0:0:0:
23,157,73778,6,0,P|80:163|138:147,1,107.999996704102,14|0,2:0|1:0,2:0:0:0:
295,64,74115,1,10,2:0:0:0:
165,13,74284,1,2,1:2:0:0:
253,174,74452,2,0,P|239:232|236:280,1,107.999996704102,8|0,2:0|1:0,2:0:0:0:
228,360,74705,1,0,1:0:0:0:
237,384,74789,1,8,2:0:0:0:
466,176,74958,6,0,B|407:219|407:219|235:168,1,233.999989288331,6|2,1:2|1:2,2:0:0:0:
165,13,75464,1,10,2:0:0:0:
30,109,75632,2,0,B|125:97|125:97|159:111|159:111|261:94,1,233.999989288331,6|2,1:2|1:2,2:0:0:0:
333,75,76053,1,8,2:0:0:0:
364,67,76138,2,0,L|423:80,1,58.4999973220826,10|8,2:0|2:0,2:0:0:0:
512,192,76307,2,0,L|454:204,1,58.4999973220826,10|8,2:0|2:0,2:0:0:0:
360,335,76475,6,0,P|311:319|248:310,1,99.0000030212403,6|0,1:2|2:0,2:0:0:0:
117,267,76812,1,10,2:0:0:0:
206,115,76981,1,0,1:0:0:0:
206,115,77065,1,8,2:0:0:0:
206,115,77149,2,0,P|224:164|199:218,1,99.0000030212403,2|0,1:2|1:0,2:0:0:0:
117,267,77486,1,8,2:0:0:0:
26,82,77655,6,0,B|81:48|135:85|104:109|161:140|214:110,1,198.000006042481,2|2,2:0|2:0,2:0:0:0:
390,38,78161,2,0,P|367:84|380:141,1,99.0000030212403,8|2,2:0|1:2,2:0:0:0:
418,196,78413,1,8,2:0:0:0:
430,211,78498,2,0,P|446:261|426:306,1,99.0000030212403,0|0,1:0|1:0,2:0:0:0:
195,216,78835,2,0,P|240:157|312:177,1,148.50000453186,8|0,2:0|2:0,2:0:0:0:
248,282,79172,6,0,B|208:317|153:296|153:296|127:235|52:239,1,215.999993408203,2|8,1:2|2:0,2:0:0:0:
0,25,79677,2,0,P|29:31|57:33,1,49.5000015106202,2|8,1:2|2:0,2:0:0:0:
127,104,79846,2,0,P|178:92|244:85,1,99.0000030212403,0|0,1:0|1:0,2:0:0:0:
446,185,80183,1,10,2:0:0:0:
337,274,80352,6,0,P|361:188|328:83,1,198.000006042481,0|0,1:2|1:2,2:0:0:0:
127,104,80857,2,0,P|113:157|133:211,1,99.0000030212403,8|0,2:0|1:0,2:0:0:0:
236,191,81110,1,8,2:0:0:0:
213,175,81194,2,0,P|163:171|123:200,1,99.0000030212403,0|0,1:2|1:0,2:0:0:0:
242,345,81531,2,0,B|299:337|299:337|330:348|330:348|392:339,1,148.50000453186,8|0,2:0|2:0,2:0:0:0:
447,210,81868,6,0,B|364:196|364:196|319:208|319:208|220:187,1,215.999993408203,6|8,1:2|2:0,2:0:0:0:
84,326,82374,1,0,1:0:0:0:
84,326,82458,1,8,2:0:0:0:
84,326,82543,2,0,P|67:279|84:227,1,99.0000030212403,0|0,1:0|1:0,2:0:0:0:
233,98,82880,2,0,P|250:146|231:195,1,99.0000030212403,8|0,2:0|2:0,2:0:0:0:
17,63,83217,6,0,B|54:68|80:99|80:99|111:53|169:57,1,161.999995056153,6|0,1:2|2:0,2:0:0:0:
233,98,83554,1,8,0:0:0:0:
332,291,83722,2,0,L|340:242,1,49.5000015106202,2|8,1:2|2:0,2:0:0:0:
428,145,83891,2,0,L|446:242,1,99.0000030212403,0|0,1:0|1:0,2:0:0:0:
477,364,84228,1,10,2:0:0:0:
332,291,84396,1,0,2:0:0:0:
428,62,84565,6,0,B|377:26|315:62|342:87|278:130|223:92,1,215.999993408203,6|8,1:2|2:0,2:0:0:0:
81,42,85071,1,0,1:0:0:0:
81,42,85155,1,8,2:0:0:0:
81,42,85239,2,0,P|99:91|77:141,1,107.999996704102,0|0,1:0|1:0,2:0:0:0:
0,243,85576,1,10,2:0:0:0:
199,377,85745,6,0,P|163:276|205:176,1,215.999993408203,6|2,1:2|1:2,2:0:0:0:
381,41,86250,5,10,2:0:0:0:
415,50,86335,1,2,2:0:0:0:
439,74,86419,1,2,1:2:0:0:
450,104,86503,1,10,2:0:0:0:
452,140,86587,2,0,P|443:171|438:207,1,53.9999983520508,2|2,1:2|2:0,2:0:0:0:
353,274,86756,2,0,P|360:302|364:326,1,53.9999983520508,2|2,1:2|2:0,2:0:0:0:
199,377,86925,2,0,P|205:326|223:257,1,107.999996704102,10|2,2:0|2:0,2:0:0:0:
46,83,87262,6,0,P|59:133|67:185,1,99.0000030212403,6|0,1:2|2:0,2:0:0:0:
65,300,87599,1,10,2:0:0:0:
227,176,87767,1,0,1:0:0:0:
227,176,87852,1,8,2:0:0:0:
227,176,87936,2,0,P|276:158|324:181,1,99.0000030212403,2|0,1:2|1:0,2:0:0:0:
403,273,88273,1,8,2:0:0:0:
509,74,88441,6,0,B|463:65|431:98|431:98|371:99|335:44,1,198.000006042481,2|2,2:0|2:0,2:0:0:0:
158,0,88947,2,0,P|146:44|166:98,1,99.0000030212403,8|2,2:0|1:2,2:0:0:0:
157,185,89200,1,8,2:0:0:0:
132,179,89284,2,0,B|76:178|35:231|35:231|-5:205|0:155,1,198.000006042481,2|8,1:2|2:0,2:0:0:0:
34,68,89790,1,2,2:0:0:0:
143,288,89958,6,0,B|194:324|256:288|229:263|293:220|348:258,1,215.999993408203,6|10,1:2|2:0,2:0:0:0:
457,382,90464,1,2,1:2:0:0:
457,382,90548,1,8,2:0:0:0:
457,382,90632,2,0,P|441:335|453:288,1,99.0000030212403,0|2,1:0|1:2,2:0:0:0:
512,53,90969,6,0,B|491:93|441:95|441:95|406:44|336:51,1,198.000006042481,14|0,2:0|1:2,2:0:0:0:
240,117,91475,1,0,2:0:0:0:
71,40,91644,2,0,P|89:91|66:140,1,99.0000030212403,10|0,2:0|1:0,2:0:0:0:
28,195,91896,1,8,2:0:0:0:
40,216,91981,1,2,1:2:0:0:
141,341,92149,1,2,2:0:0:0:
240,214,92318,2,0,P|233:162|246:95,1,99.0000030212403,8|0,2:0|2:0,2:0:0:0:
436,20,92655,5,14,2:0:0:0:
239,116,92823,1,2,1:2:0:0:
461,140,92992,2,0,P|383:148|297:169,1,148.50000453186,10|0,2:0|2:0,2:0:0:0:
240,214,93329,1,10,2:0:0:0:
43,83,93498,1,2,1:2:0:0:
75,69,93582,1,8,2:0:0:0:
105,83,93666,1,10,2:0:0:0:
16,308,93835,6,0,B|69:275|120:310|101:327|152:363|202:327,1,198.000006042481,6|2,1:2|1:2,2:0:0:0:
286,272,94340,1,10,2:0:0:0:
167,161,94509,2,2,P|152:211|173:268,1,99.0000030212403,6|2,1:2|2:0,2:0:0:0:
375,334,94846,1,10,2:0:0:0:
389,302,94930,1,10,2:0:0:0:
375,272,95014,1,10,2:0:0:0:
261,88,95183,2,0,P|255:62|264:31,1,49.5000015106202,10|8,2:0|2:0,2:0:0:0:
163,254,95521,5,0,1:0:0:0:
131,268,95605,1,0,1:0:0:0:
101,254,95689,1,14,0:0:0:0:
256,192,95773,12,2,100745,0:0:0:0:
