osu file format v14

[General]
AudioFilename: audio.mp3
AudioLeadIn: 0
PreviewTime: 60604
Countdown: 0
SampleSet: Soft
StackLeniency: 0.5
Mode: 0
LetterboxInBreaks: 0
WidescreenStoryboard: 0

[Editor]
DistanceSpacing: 1.6
BeatDivisor: 4
GridSize: 4
TimelineZoom: 2

[Metadata]
Title:Korekara
TitleUnicode:コレカラ
Artist:Machico
ArtistUnicode:Machico
Creator:sahuang
Version:kunka's Hard
Source:りゅうおうのおしごと!
Tags:CloudSplash16 misure lasse my angel azusa kunka doormat little starrstyx neta sekaii Sekai-nyan sekai The Ryuo's Work is Never Done Ryuuou no Oshigoto opening tv size
BeatmapID:1520775
BeatmapSetID:718735

[Difficulty]
HPDrainRate:5
CircleSize:4
OverallDifficulty:6
ApproachRate:7
SliderMultiplier:1.3
SliderTickRate:1

[Events]
//Background and Video events
0,0,"889949.jpg",0,0
Video,0,"op.mp4"
//Break Periods
//Storyboard Layer 0 (Background)
//Storyboard Layer 1 (Fail)
//Storyboard Layer 2 (Pass)
//Storyboard Layer 3 (Foreground)
//Storyboard Sound Samples

[TimingPoints]
1716,370.37037037037,4,2,1,60,1,0
5234,-100,4,2,1,5,0,0
5419,-100,4,2,1,60,0,0
5975,-100,4,2,1,5,0,0
6160,-100,4,2,1,60,0,0
13382,-90.9090909090909,4,2,1,70,0,0
25419,-100,4,2,1,40,0,0
37178,-100,4,2,1,5,0,0
37271,-100,4,2,1,60,0,0
49123,-100,4,2,1,50,0,0
55049,-111.111111111111,4,2,1,30,0,0
58012,-100,4,2,1,60,0,0
60790,-90.9090909090909,4,2,1,70,0,1
86530,-100,4,2,1,60,0,0
87641,-100,4,2,1,5,0,0

[Colours]
Combo1 : 255,119,255
Combo2 : 108,255,108
Combo3 : 255,146,94
Combo4 : 89,255,255

[HitObjects]
299,76,1716,5,8,1:2:0:0:
299,76,1901,1,8,1:2:0:0:
406,326,2456,1,8,1:2:0:0:
406,326,2641,1,8,1:2:0:0:
317,348,2827,1,8,1:2:0:0:
230,319,3012,6,0,P|198:305|167:305,1,65,12|0,0:0|0:0,0:0:0:0:
92,354,3382,2,0,P|78:322|78:291,1,65,8|0,0:0|0:0,0:0:0:0:
104,204,3753,1,12,0:0:0:0:
284,226,4123,1,8,0:0:0:0:
284,226,4215,1,8,0:0:0:0:
284,226,4308,2,0,L|319:218,3,32.5,8|8|8|8,0:0|0:0|0:0|0:0,0:0:0:0:
359,230,4678,6,0,P|461:216|489:137,1,195,4|0,0:0|0:0,0:0:0:0:
439,62,5419,2,0,P|337:76|309:155,1,195,4|0,0:0|0:0,0:0:0:0:
359,230,6160,1,4,1:2:0:0:
191,301,6530,1,4,1:2:0:0:
62,172,6901,1,8,0:0:0:0:
78,261,7086,1,8,0:0:0:0:
78,261,7178,1,8,0:0:0:0:
78,261,7271,1,8,0:0:0:0:
220,110,7641,6,0,L|232:46,1,65,6|0,1:2|0:0,0:0:0:0:
322,60,8012,2,0,L|310:124,1,65,0|0,1:2|0:0,0:0:0:0:
276,208,8382,2,0,L|288:272,1,65,2|0,1:2|0:0,0:0:0:0:
378,258,8753,2,0,L|366:194,1,65,0|0,1:2|0:0,0:0:0:0:
310,123,9123,6,0,P|276:115|246:121,1,65,2|0,1:2|0:0,0:0:0:0:
212,205,9493,2,0,P|246:213|276:207,1,65,0|0,1:2|0:0,0:0:0:0:
366,194,9864,1,2,1:2:0:0:
366,194,10049,1,0,1:2:0:0:
310,123,10234,1,0,1:2:0:0:
310,123,10419,1,0,1:2:0:0:
212,205,10604,5,8,0:0:0:0:
78,37,12086,6,0,P|109:30|140:37,1,65,12|0,0:0|0:0,0:0:0:0:
139,37,12456,2,0,P|170:44|201:37,1,65,12|0,0:0|0:0,0:0:0:0:
201,36,12827,2,0,P|232:29|263:36,1,65,8|0,1:2|1:2,0:0:0:0:
344,81,13197,1,2,0:0:0:0:
327,194,13382,6,0,L|319:265,1,71.5000021820069,12|0,0:0|0:0,0:0:0:0:
387,339,13753,1,0,1:2:0:0:
468,280,13938,2,0,L|476:209,1,71.5000021820069,8|0,0:0|0:0,0:0:0:0:
408,135,14308,1,8,0:0:0:0:
408,135,14493,1,0,1:2:0:0:
327,194,14678,1,8,0:0:0:0:
245,135,14864,6,0,P|211:119|175:119,1,71.5000021820069,4|0,0:0|0:0,0:0:0:0:
84,155,15234,1,0,1:2:0:0:
54,250,15419,2,0,L|62:321,1,71.5000021820069,8|0,0:0|0:0,0:0:0:0:
155,358,15790,1,8,0:0:0:0:
155,358,15975,1,0,1:2:0:0:
220,282,16160,1,8,0:0:0:0:
202,183,16345,6,0,L|194:112,1,71.5000021820069,4|0,0:0|0:0,0:0:0:0:
110,167,16715,1,0,1:2:0:0:
54,250,16901,2,0,P|85:265|121:266,1,71.5000021820069,8|0,0:0|0:0,0:0:0:0:
220,282,17271,1,8,0:0:0:0:
318,267,17456,2,0,L|353:261,3,35.7500010910034,8|8|8|8,0:0|0:0|0:0|0:0,0:0:0:0:
403,271,17827,5,4,0:0:0:0:
509,101,18197,1,4,0:0:0:0:
309,94,18567,1,12,0:0:0:0:
403,271,18938,1,12,0:0:0:0:
373,44,19308,6,0,P|345:21|311:13,1,71.5000021820069,4|0,0:0|0:0,0:0:0:0:
211,23,19678,1,0,1:2:0:0:
146,100,19864,2,0,L|154:171,1,71.5000021820069,8|0,0:0|0:0,0:0:0:0:
224,242,20234,2,0,P|161:272|93:250,1,143.000004364014,8|8,0:0|0:0,0:0:0:0:
63,155,20790,1,0,1:2:0:0:
146,100,20975,6,0,L|217:108,1,71.5000021820069,8|0,0:0|0:0,0:0:0:0:
297,167,21345,2,0,L|368:159,1,71.5000021820069,8|0,0:0|0:0,0:0:0:0:
441,91,21715,2,0,P|468:148|446:223,1,143.000004364014,8|8,0:0|0:0,0:0:0:0:
351,252,22271,1,2,1:2:0:0:
272,190,22456,6,0,L|264:119,1,71.5000021820069,8|0,0:0|0:0,0:0:0:0:
163,124,22827,2,0,L|171:195,1,71.5000021820069,8|0,0:0|0:0,0:0:0:0:
223,281,23197,2,0,P|292:291|350:252,1,143.000004364014,10|8,0:0|0:0,0:0:0:0:
272,190,23753,5,4,0:0:0:0:
81,130,24123,1,4,1:2:0:0:
123,325,24493,2,0,P|256:320|272:190,1,286.000008728028,12|8,0:0|0:0,0:0:0:0:
247,146,25327,1,8,0:0:0:0:
247,146,25419,6,0,P|286:98|352:87,1,130,4|0,1:2|1:2,0:0:0:0:
440,104,25975,1,2,0:0:0:0:
419,192,26160,2,0,P|407:254|403:324,1,130,0|0,1:2|1:2,0:0:0:0:
241,236,26901,2,0,P|179:229|125:268,1,130,0|0,1:2|1:2,0:0:0:0:
53,321,27456,1,2,0:0:0:0:
2,245,27641,2,0,P|5:180|18:116,1,130,0|0,1:2|1:2,0:0:0:0:
187,48,28382,6,0,P|238:85|302:79,1,130,0|0,1:2|1:2,0:0:0:0:
392,64,28938,1,2,0:0:0:0:
467,114,29123,2,0,P|479:176|483:246,1,130,0|0,1:2|1:2,0:0:0:0:
469,332,29678,1,2,0:0:0:0:
388,375,29864,1,2,1:2:0:0:
280,228,30234,1,0,1:2:0:0:
390,84,30604,2,0,P|398:52|414:21,1,65,0|0,1:2|0:0,0:0:0:0:
500,47,30975,2,0,P|485:76|477:107,1,65,0|2,1:2|0:0,0:0:0:0:
413,172,31345,6,0,P|349:165|306:119,1,130,0|0,1:2|1:2,0:0:0:0:
239,56,31901,1,2,0:0:0:0:
150,36,32086,2,0,P|118:44|87:60,1,65,0|0,1:2|0:0,0:0:0:0:
113,146,32457,2,0,P|142:131|173:123,1,65,0|2,1:2|0:0,0:0:0:0:
239,56,32827,2,0,P|268:113|253:174,1,130,0|0,1:2|1:2,0:0:0:0:
74,208,33567,2,0,P|59:269|88:326,1,130,0|0,1:2|1:2,0:0:0:0:
179,334,34123,1,2,0:0:0:0:
258,267,34308,6,0,P|315:247|384:249,1,130,0|0,1:2|1:2,0:0:0:0:
473,267,34864,1,2,0:0:0:0:
366,119,35234,1,2,0:0:0:0:
258,267,35604,1,10,0:0:0:0:
147,323,36715,1,0,1:2:0:0:
147,323,36901,2,0,P|98:341|54:332,1,97.5,0|0,1:2|0:0,0:0:0:0:
23,290,37271,6,0,P|26:224|32:161,1,130,4|8,0:0|0:0,0:0:0:0:
117,192,37827,1,2,0:0:0:0:
200,156,38012,2,0,P|230:145|264:139,1,65
325,204,38382,2,0,P|356:203|390:209,1,65,8|0,0:0|0:0,0:0:0:0:
443,283,38753,2,0,P|479:225|470:167,1,130,2|8,0:0|0:0,0:0:0:0:
436,82,39308,1,2,0:0:0:0:
362,28,39493,2,0,P|330:27|296:33,1,65,0|0,0:0|0:2,0:0:0:0:
206,34,39864,1,8,0:0:0:0:
79,199,40234,6,0,P|70:262|105:315,1,130,4|8,1:2|0:0,0:0:0:0:
226,288,40790,2,0,P|234:224|199:171,1,130,4|0,1:2|0:0,0:0:0:0:
124,119,41345,1,8,0:0:0:0:
153,244,41530,2,0,P|215:236|281:254,1,130,4|0,1:2|0:0,0:0:0:0:
360,295,42086,1,10,0:0:0:0:
497,175,42456,2,0,P|505:111|470:58,1,130,2|10,1:2|0:0,0:0:0:0:
393,9,43012,1,0,0:0:0:0:
301,57,43197,6,0,L|313:187,1,130,4|8,0:0|0:0,0:0:0:0:
298,276,43753,1,2,0:0:0:0:
231,337,43938,2,0,P|172:362|111:343,1,130,0|8,0:0|0:0,0:0:0:0:
39,287,44493,1,0,0:0:0:0:
107,227,44678,2,0,P|165:201|226:220,1,130,2|8,0:0|0:0,0:0:0:0:
382,127,45419,2,0,P|367:156|359:187,1,65,2|0,0:0|0:0,0:0:0:0:
447,211,45790,2,0,P|455:179|470:150,1,65,8|0,0:0|0:0,0:0:0:0:
448,49,46160,6,0,P|391:21|328:42,1,130,12|0,0:0|1:2,0:0:0:0:
255,91,46715,1,2,0:0:0:0:
172,130,46901,2,0,P|140:122|108:121,1,65,8|0,0:0|1:2,0:0:0:0:
104,212,47272,2,0,P|136:212|167:220,1,65,8|0,0:0|0:0,0:0:0:0:
250,259,47641,2,0,P|314:257|377:240,2,130,10|8|2,0:0|0:0|1:2,0:0:0:0:
175,312,48567,1,0,1:2:0:0:
175,312,48660,1,8,0:0:0:0:
175,312,48753,2,0,P|158:311|143:307,3,32.5,8|8|8|8,0:0|0:0|0:0|0:0,0:0:0:0:
92,295,49123,6,0,P|73:234|101:177,1,130,4|8,0:0|0:0,0:0:0:0:
184,140,49678,1,0,1:2:0:0:
184,140,49771,1,0,1:2:0:0:
184,140,49864,2,0,P|163:109|140:96,1,65,0|0,1:2|1:2,0:0:0:0:
48,103,50234,1,8,0:0:0:0:
164,242,50604,6,0,B|227:254|227:254|292:242,1,130,0|8,1:2|0:0,0:0:0:0:
368,192,51160,1,0,1:2:0:0:
368,192,51253,1,0,1:2:0:0:
368,192,51346,2,0,L|431:205,1,65,0|0,1:2|1:2,0:0:0:0:
510,248,51715,1,8,0:0:0:0:
491,67,52086,6,0,P|434:39|373:57,1,130,0|8,1:2|0:0,0:0:0:0:
316,128,52641,1,0,1:2:0:0:
316,128,52734,1,0,1:2:0:0:
316,128,52827,2,0,P|280:140|254:136,1,65,0|0,1:2|1:2,0:0:0:0:
169,100,53197,2,0,P|161:131|172:179,1,65,8|0,0:0|0:0,0:0:0:0:
212,241,53567,6,0,B|224:304|224:304|212:369,1,130,0|8,1:2|0:0,0:0:0:0:
142,309,54123,1,0,1:2:0:0:
142,309,54216,1,0,1:2:0:0:
142,309,54309,2,0,L|129:246,1,65,0|0,1:2|1:2,0:0:0:0:
93,123,54678,1,8,0:0:0:0:
47,201,54864,1,8,0:0:0:0:
174,167,55049,5,2,0:0:0:0:
370,122,55790,1,0,0:0:0:0:
452,41,56160,1,2,0:0:0:0:
485,152,56530,1,2,0:0:0:0:
395,368,57271,1,2,0:0:0:0:
219,48,58012,6,0,L|209:82,3,32.5,8|0|0|0,0:0|0:0|0:0|0:0,0:0:0:0:
239,115,58382,2,0,L|248:149,3,32.5,8|0|0|0,0:0|0:0|0:0|0:0,0:0:0:0:
219,181,58753,2,0,L|209:215,3,32.5,8|0|0|0,0:0|0:0|0:0|0:0,0:0:0:0:
238,247,59123,1,8,0:0:0:0:
238,247,59215,1,8,0:0:0:0:
238,247,59308,6,0,P|298:265|355:237,1,130,4|0,0:0|1:2,0:0:0:0:
362,132,59864,1,0,1:2:0:0:
247,146,60049,1,4,1:2:0:0:
44,318,60790,6,0,P|19:249|44:185,1,143.000004364014,4|0,0:0|1:2,0:0:0:0:
123,127,61345,1,8,0:0:0:0:
209,177,61530,2,0,L|201:249,1,71.5000021820069,0|0,0:0|1:2,0:0:0:0:
265,325,61901,1,0,1:2:0:0:
265,325,62086,1,8,0:0:0:0:
332,249,62271,6,0,P|263:224|199:249,1,143.000004364014,0|0,1:2|1:2,0:0:0:0:
115,301,62827,1,8,0:0:0:0:
37,238,63012,2,0,P|23:205|24:169,2,71.5000021820069,2|0|0,0:0|1:2|1:2,0:0:0:0:
123,187,63567,2,0,P|158:185|191:199,1,71.5000021820069,8|0,0:0|0:0,0:0:0:0:
299,238,63938,6,0,P|345:264|395:254,1,107.25000327301,2|2,1:2|0:0,0:0:0:0:
434,222,64308,2,0,P|445:188|471:162,1,71.5000021820069,8|2,0:0|0:0,0:0:0:0:
422,75,64678,2,0,P|375:48|325:58,1,107.25000327301,2|2,1:2|0:0,0:0:0:0:
287,91,65048,2,0,P|275:124|249:150,1,71.5000021820069,8|2,0:0|0:0,0:0:0:0:
153,175,65419,6,0,B|90:145|37:166|37:166|34:195,1,143.000004364014,0|8,1:2|0:0,0:0:0:0:
86,276,65975,1,2,0:0:0:0:
165,336,66160,2,0,P|182:305|184:269,1,71.5000021820069,0|0,0:0|1:2,0:0:0:0:
153,175,66530,1,8,0:0:0:0:
86,276,66715,6,0,L|225:314,1,143.000004364014,4|0,0:0|1:2,0:0:0:0:
303,252,67271,1,8,0:0:0:0:
221,193,67456,2,0,L|152:174,1,71.5000021820069,0|0,0:0|1:2,0:0:0:0:
73,113,67827,1,0,1:2:0:0:
73,113,68012,1,8,0:0:0:0:
155,54,68197,6,0,P|224:29|288:54,1,143.000004364014,0|0,1:2|1:2,0:0:0:0:
368,111,68753,1,8,0:0:0:0:
463,80,68938,2,0,L|487:13,2,71.5000021820069,0|2|0,1:2|0:0|1:2,0:0:0:0:
443,178,69493,2,0,P|448:213|438:247,1,71.5000021820069,8|0,0:0|0:0,0:0:0:0:
330,207,69864,6,0,P|293:201|258:202,1,71.5000021820069,4|0,0:0|0:0,0:0:0:0:
177,260,70234,2,0,P|141:259|106:265,1,71.5000021820069,8|0,0:0|0:0,0:0:0:0:
98,165,70604,2,0,P|133:159|168:159,1,71.5000021820069,0|0,1:2|1:2,0:0:0:0:
217,174,70882,1,8,0:0:0:0:
259,201,70975,2,0,P|294:200|329:206,1,71.5000021820069,8|0,0:0|1:2,0:0:0:0:
441,230,71345,5,4,3:0:0:0:
366,316,71530,1,4,3:0:0:0:
412,91,71901,2,0,P|355:43|287:45,1,143.000004364014,4|8,0:0|0:0,0:0:0:0:
256,60,72364,1,8,0:0:0:0:
232,86,72456,1,8,0:0:0:0:
320,157,72641,6,0,P|343:222|318:288,1,143.000004364014,4|0,0:0|1:2,0:0:0:0:
241,353,73197,1,8,0:0:0:0:
147,317,73382,2,0,P|111:311|76:311,1,71.5000021820069,0|0,0:0|1:2,0:0:0:0:
11,234,73753,1,0,1:2:0:0:
11,234,73938,1,8,0:0:0:0:
55,144,74123,6,0,P|122:126|185:156,1,143.000004364014,0|0,1:2|1:2,0:0:0:0:
239,241,74678,1,8,0:0:0:0:
321,298,74864,2,0,P|356:299|389:285,2,71.5000021820069,2|0|0,0:0|1:2|1:2,0:0:0:0:
338,199,75419,2,0,P|336:163|350:130,1,71.5000021820069,8|2,0:0|0:0,0:0:0:0:
417,37,75790,6,0,P|369:15|313:23,1,107.25000327301,2|2,1:2|0:0,0:0:0:0:
270,41,76160,2,0,P|237:54|201:53,1,71.5000021820069,8|2,0:0|0:0,0:0:0:0:
113,99,76530,2,0,P|91:147|99:203,1,107.25000327301,2|2,1:2|0:0,0:0:0:0:
124,242,76900,2,0,P|159:240|192:254,1,71.5000021820069,8|2,0:0|0:0,0:0:0:0:
306,249,77271,5,4,1:2:0:0:
509,145,77641,1,12,0:0:0:0:
316,21,78012,1,4,1:2:0:0:
362,109,78197,1,8,0:0:0:0:
362,109,78290,1,8,0:0:0:0:
362,109,78382,1,8,0:0:0:0:
247,101,78567,6,0,B|139:88|139:88|111:109,1,143.000004364014,4|0,0:0|1:2,0:0:0:0:
70,200,79123,1,8,0:0:0:0:
103,294,79308,2,0,P|168:327|235:310,1,143.000004364014,2|0,0:0|1:2,0:0:0:0:
308,244,79864,1,8,0:0:0:0:
265,153,80049,6,0,P|299:143|334:146,1,71.5000021820069,2|0,0:0|1:2,0:0:0:0:
427,109,80419,1,2,0:0:0:0:
427,109,80604,1,8,0:0:0:0:
467,201,80790,2,0,L|459:273,1,71.5000021820069,2|0,0:0|1:2,0:0:0:0:
372,321,81160,1,0,1:2:0:0:
308,244,81345,1,8,0:0:0:0:
385,160,81530,6,0,P|319:126|252:143,1,143.000004364014,4|0,0:0|1:2,0:0:0:0:
162,183,82086,2,0,L|91:174,1,71.5000021820069,8|0,0:0|0:0,0:0:0:0:
103,74,82456,2,0,L|174:83,1,71.5000021820069,8|0,0:0|1:2,0:0:0:0:
254,142,82827,1,8,0:0:0:0:
162,183,83012,1,0,1:2:0:0:
103,74,83197,5,12,0:0:0:0:
323,13,83567,1,12,0:0:0:0:
469,189,83938,1,8,0:0:0:0:
469,189,84030,1,0,1:2:0:0:
469,189,84123,2,0,P|470:223|457:257,1,71.5000021820069,0|0,1:2|1:2,0:0:0:0:
369,209,84493,1,0,1:2:0:0:
256,192,84678,6,0,P|186:215|123:189,1,143.000004364014,4|8,0:0|0:0,0:0:0:0:
192,117,85234,1,0,1:2:0:0:
127,41,85419,2,0,P|196:17|259:43,1,143.000004364014,2|2,0:0|0:0,0:0:0:0:
324,119,85975,1,12,0:0:0:0:
217,288,86345,1,0,1:2:0:0:
256,192,86530,5,4,0:0:0:0:
256,192,86623,12,0,87641,0:0:0:0:
