osu file format v14

[General]
AudioFilename: audio.mp3
AudioLeadIn: 0
PreviewTime: 60604
Countdown: 0
SampleSet: Soft
StackLeniency: 0.7
Mode: 0
LetterboxInBreaks: 0
WidescreenStoryboard: 0

[Editor]
DistanceSpacing: 0.9
BeatDivisor: 4
GridSize: 4
TimelineZoom: 1.4

[Metadata]
Title:Korekara
TitleUnicode:コレカラ
Artist:Machico
ArtistUnicode:Machico
Creator:sahuang
Version:Misure's Insane
Source:りゅうおうのおしごと!
Tags:CloudSplash16 misure lasse my angel azusa kunka doormat little starrstyx neta sekaii Sekai-nyan sekai The Ryuo's Work is Never Done Ryuuou no Oshigoto opening tv size
BeatmapID:1523702
BeatmapSetID:718735

[Difficulty]
HPDrainRate:6
CircleSize:4
OverallDifficulty:7
ApproachRate:8
SliderMultiplier:1.6
SliderTickRate:1

[Events]
//Background and Video events
0,0,"889949.jpg",0,0
Video,0,"op.mp4"
//Break Periods
//Storyboard Layer 0 (Background)
//Storyboard Layer 1 (Fail)
//Storyboard Layer 2 (Pass)
//Storyboard Layer 3 (Foreground)
//Storyboard Sound Samples

[TimingPoints]
1716,370.37037037037,4,2,1,65,1,0
4678,-125,4,2,1,60,0,0
5049,-125,4,2,1,20,0,0
5095,-125,4,2,1,60,0,0
5419,-83.3333333333333,4,2,1,70,0,0
5790,-83.3333333333333,4,2,1,20,0,0
5836,-83.3333333333333,4,2,1,70,0,0
6160,-125,4,2,1,60,0,0
6530,-83.3333333333333,4,2,1,70,0,0
6901,-83.3333333333333,4,2,1,65,0,0
7271,-125,4,2,1,60,0,0
7549,-125,4,2,1,20,0,0
7641,-100,4,2,1,70,0,0
10604,-100,4,2,1,50,0,0
12086,-111.111111111111,4,2,1,60,0,0
13197,-100,4,2,1,70,0,0
13382,-76.9230769230769,4,2,1,75,0,0
13938,-83.3333333333333,4,2,1,75,0,0
17827,-71.4285714285714,4,2,1,80,0,0
18104,-71.4285714285714,4,2,1,20,0,0
18197,-71.4285714285714,4,2,1,80,0,0
18475,-71.4285714285714,4,2,1,20,0,0
18567,-71.4285714285714,4,2,1,80,0,0
18845,-71.4285714285714,4,2,1,20,0,0
18938,-125,4,2,1,70,0,0
19215,-125,4,2,1,15,0,0
19308,-76.9230769230769,4,2,1,75,0,0
19864,-83.3333333333333,4,2,1,75,0,0
23753,-76.9230769230769,4,2,1,80,0,0
24030,-76.9230769230769,4,2,1,20,0,0
24123,-90.9090909090909,4,2,1,75,0,0
24401,-90.9090909090909,4,2,1,20,0,0
24493,-105.263157894737,4,2,1,50,0,0
25234,-105.263157894737,4,2,1,60,0,0
25419,-125,4,2,1,60,0,0
37271,-100,4,2,1,70,0,0
49123,-111.111111111111,4,2,1,65,0,0
54493,-111.111111111111,4,2,1,70,0,0
54678,-111.111111111111,4,2,1,75,0,0
54864,-111.111111111111,4,2,1,80,0,0
55049,-125,4,2,1,50,0,0
58012,-100,4,2,1,65,0,0
59030,-100,4,2,1,70,0,0
59308,-100,4,2,1,75,0,0
60604,-100,4,2,1,65,0,0
60790,-76.9230769230769,4,2,1,75,0,1
61345,-83.3333333333333,4,2,1,75,0,1
69864,-71.4285714285714,4,2,1,70,0,1
70234,-71.4285714285714,4,2,1,60,0,1
70604,-83.3333333333333,4,2,1,60,0,1
70790,-83.3333333333333,4,2,1,70,0,1
70975,-83.3333333333333,4,2,1,75,0,1
71345,-83.3333333333333,4,2,1,80,0,0
72641,-76.9230769230769,4,2,1,75,0,1
73197,-83.3333333333333,4,2,1,75,0,1
86530,-100,4,2,1,65,0,0
86623,-100,4,2,1,60,0,0
86901,-100,4,2,1,50,0,0
87271,-100,4,2,1,40,0,0
87641,-100,4,2,1,30,0,0

[Colours]
Combo1 : 255,119,255
Combo2 : 108,255,108
Combo3 : 255,146,94
Combo4 : 89,255,255

[HitObjects]
368,184,1716,5,8,0:0:0:0:
368,184,1901,1,8,0:0:0:0:
161,69,2456,1,0,0:0:0:0:
161,69,2641,2,0,P|167:109|171:149,1,80,0|0,0:0|0:0,0:0:0:0:
108,218,3012,5,8,0:0:0:0:
358,265,3382,2,0,P|362:225|368:186,1,80,8|0,0:0|0:0,0:0:0:0:
420,334,3753,1,8,0:0:0:0:
198,181,4123,1,8,0:0:0:0:
198,181,4216,1,8,0:0:0:0:
198,181,4308,2,0,L|236:171,3,40,8|8|8|8,0:0|0:0|0:0|0:0,0:0:0:0:
260,96,4679,6,0,P|279:183|368:185,1,192,4|0,0:0|0:0,0:0:0:0:
398,61,5419,2,0,P|401:193|270:211,1,287.999991210938,4|0,0:0|0:0,0:0:0:0:
94,105,6160,6,0,P|141:108|185:128,1,96,4|0,0:0|0:0,0:0:0:0:
185,177,6530,2,0,P|141:196|93:200,1,96,4|0,0:0|0:0,0:0:0:0:
13,336,6901,1,8,0:0:0:0:
41,353,6994,1,8,0:0:0:0:
74,357,7086,1,8,0:0:0:0:
106,346,7179,1,8,0:0:0:0:
131,324,7271,2,0,P|134:276|120:231,1,96,8|0,0:0|0:0,0:0:0:0:
93,200,7642,6,0,P|54:197|14:186,2,80,4|0|8,0:0|0:0|0:0,0:0:0:0:
172,112,8197,1,0,0:0:0:0:
172,112,8382,2,0,P|212:109|251:99,2,80,2|0|8,0:0|0:0|0:0,0:0:0:0:
196,233,8937,6,0,P|231:251|269:265,1,80,2|0,0:0|0:0,0:0:0:0:
376,112,9307,2,0,P|362:149|345:185,1,80,2|8,0:0|0:0,0:0:0:0:
250,99,9678,2,0,P|233:63|219:26,2,80,2|0|0,0:0|0:0|0:0,0:0:0:0:
376,112,10234,1,8,0:0:0:0:
321,24,10419,1,0,0:0:0:0:
206,215,10604,5,4,0:0:0:0:
278,166,12086,6,0,P|225:159|180:186,1,107.999996704102,4|0,0:0|0:0,0:0:0:0:
54,198,12456,2,0,P|106:190|151:217,1,107.999996704102,4|0,0:0|0:0,0:0:0:0:
186,311,12827,1,8,0:0:0:0:
322,274,13012,1,8,0:0:0:0:
322,274,13105,1,8,0:0:0:0:
322,273,13197,2,0,P|329:254|333:235,1,40,8|0,0:0|0:0,0:0:0:0:
278,166,13382,6,0,P|368:200|425:121,1,207.999990478516,4|0,0:0|0:0,0:0:0:0:
435,320,13938,2,0,P|408:281|405:234,1,95.9999970703126,8|0,0:0|0:0,0:0:0:0:
194,102,14308,1,8,0:0:0:0:
278,166,14494,1,0,0:0:0:0:
362,22,14679,1,8,0:0:0:0:
405,234,14864,6,0,P|322:198|258:262,1,191.999994140625,4|0,0:0|0:0,0:0:0:0:
122,154,15419,2,0,P|148:191|152:239,1,95.9999970703126,8|0,0:0|0:0,0:0:0:0:
322,350,15790,1,8,0:0:0:0:
258,261,15976,1,0,0:0:0:0:
139,362,16161,1,8,0:0:0:0:
122,154,16345,6,0,P|185:218|268:182,1,191.999994140625,4|0,0:0|0:0,0:0:0:0:
434,297,16901,2,0,P|387:288|350:258,1,95.9999970703126,8|0,0:0|0:0,0:0:0:0:
201,141,17271,1,8,0:0:0:0:
98,316,17456,1,8,0:0:0:0:
127,341,17548,1,8,0:0:0:0:
165,348,17641,1,8,0:0:0:0:
203,347,17734,1,8,0:0:0:0:
239,335,17827,6,0,P|279:262|268:180,1,167.999994873047,4|0,0:0|0:0,0:0:0:0:
245,197,18197,2,0,P|255:278|312:338,1,167.999994873047,4|0,0:0|0:0,0:0:0:0:
344,332,18567,2,0,P|384:259|373:177,1,167.999994873047,4|0,0:0|0:0,0:0:0:0:
356,196,18938,6,0,L|449:218,1,96,6|0,0:0|0:0,0:0:0:0:
471,140,19308,6,0,P|414:61|323:95,1,207.999990478516,4|0,0:0|0:0,0:0:0:0:
363,250,19864,2,0,P|410:246|449:219,1,95.9999970703126,8|0,0:0|0:0,0:0:0:0:
173,199,20234,1,8,0:0:0:0:
258,268,20419,1,0,0:0:0:0:
323,95,20604,1,8,0:0:0:0:
311,342,20790,5,4,0:0:0:0:
311,342,20975,2,0,P|274:313|258:268,1,95.9999970703126,8|0,0:0|0:0,0:0:0:0:
449,218,21345,2,0,P|458:263|442:308,1,95.9999970703126,8|0,0:0|0:0,0:0:0:0:
258,268,21715,1,8,0:0:0:0:
174,199,21900,1,0,0:0:0:0:
323,95,22085,1,8,0:0:0:0:
99,145,22271,5,4,0:0:0:0:
99,145,22456,2,0,P|129:181|174:199,1,95.9999970703126,8|0,0:0|0:0,0:0:0:0:
228,16,22827,2,0,P|181:6|136:19,1,95.9999970703126,8|0,0:0|0:0,0:0:0:0:
27,173,23197,1,8,0:0:0:0:
106,262,23382,1,0,0:0:0:0:
186,102,23567,1,8,0:0:0:0:
255,256,23753,6,0,P|179:239|106:263,1,155.999992858887,4|0,0:0|0:0,0:0:0:0:
116,307,24123,2,0,P|174:335|240:336,1,132.00000402832,4|0,0:0|0:0,0:0:0:0:
255,256,24493,6,0,L|268:181,2,75.9999979705811,8|0|0,0:0|0:0|0:0,0:0:0:0:
157,194,25049,2,0,P|119:187|84:198,1,75.9999979705811,0|8,0:0|0:0,0:0:0:0:
38,260,25327,1,8,0:0:0:0:
38,260,25419,6,0,L|23:132,2,128,4|8|2,0:0|0:0|0:0,0:0:0:0:
141,321,26345,1,0,0:0:0:0:
141,321,26531,2,0,L|133:384,1,64,8|0,0:0|0:0,0:0:0:0:
288,308,26901,5,2,0:0:0:0:
256,220,27086,1,0,0:0:0:0:
288,308,27271,1,8,0:0:0:0:
256,220,27457,1,0,0:0:0:0:
368,232,27642,2,0,P|418:194|422:133,1,128,2|8,0:0|0:0,0:0:0:0:
256,220,28197,1,0,0:0:0:0:
256,220,28382,6,0,L|128:205,1,128,2|8,0:0|0:0,0:0:0:0:
328,136,28938,1,0,0:0:0:0:
328,136,29124,2,0,L|335:72,1,64,2|0,0:0|0:0,0:0:0:0:
224,4,29493,2,0,L|231:67,1,64,8|0,0:0|0:0,0:0:0:0:
120,148,29864,5,2,0:0:0:0:
32,116,30049,1,0,0:0:0:0:
120,148,30234,1,8,0:0:0:0:
32,116,30420,1,0,0:0:0:0:
0,267,30605,2,0,P|29:256|57:239,1,64,2|0,0:0|0:0,0:0:0:0:
177,175,30975,2,0,P|150:158|120:148,1,64,8|0,0:0|0:0,0:0:0:0:
160,284,31345,6,0,L|166:347,2,64,2|0|8,0:0|0:0|0:0,0:0:0:0:
320,312,31901,1,0,0:0:0:0:
320,312,32086,2,0,P|304:344|282:363,1,64,2|0,0:0|0:0,0:0:0:0:
292,148,32456,2,0,P|311:178|318:206,1,64,8|0,0:0|0:0,0:0:0:0:
420,264,32827,5,2,0:0:0:0:
452,176,33012,1,0,0:0:0:0:
420,264,33197,1,8,0:0:0:0:
452,176,33382,1,0,0:0:0:0:
255,192,33567,2,0,L|317:205,1,64,2|0,0:0|0:0,0:0:0:0:
388,80,33938,2,0,L|325:92,1,64,8|0,0:0|0:0,0:0:0:0:
156,172,34308,6,0,P|145:123|137:45,1,128,2|8,0:0|0:0,0:0:0:0:
255,193,34864,1,0,0:0:0:0:
255,193,35049,2,0,P|252:228|243:255,2,64,2|0|8,0:0|0:0|0:0,0:0:0:0:
140,248,35605,1,4,0:0:0:0:
140,248,35975,5,2,0:0:0:0:
220,344,36160,1,2,0:0:0:0:
255,193,36345,1,2,0:0:0:0:
220,344,36530,1,8,0:0:0:0:
140,248,36715,1,4,0:3:0:0:
332,252,36901,2,0,P|334:283|326:313,1,64,8|0,0:0|0:0,0:0:0:0:
255,193,37271,6,0,P|329:208|380:151,1,160,4|8,0:0|0:0,0:0:0:0:
260,80,37827,2,0,P|252:40|249:0,2,80,0|2|0,0:0|0:0|0:0,0:0:0:0:
344,248,38382,1,8,0:0:0:0:
255,193,38568,1,0,0:0:0:0:
168,324,38753,6,0,P|207:320|246:311,1,80,2|0,0:0|0:0,0:0:0:0:
128,228,39123,2,0,P|89:219|49:215,1,80,8|0,0:0|0:0,0:0:0:0:
246,310,39493,1,2,0:0:0:0:
296,208,39679,1,0,0:0:0:0:
128,228,39864,2,0,P|131:267|140:306,1,80,8|0,0:0|0:0,0:0:0:0:
296,208,40234,6,0,P|317:133|276:66,1,160,4|8,0:0|0:0,0:0:0:0:
107,86,40790,2,0,P|87:161|127:227,1,160,4|0,0:0|0:0,0:0:0:0:
296,208,41345,1,8,0:0:0:0:
244,308,41531,6,0,P|195:311|84:323,1,160,4|0,0:0|0:0,0:0:0:0:
16,152,42086,1,8,0:0:0:0:
92,224,42271,1,0,0:0:0:0:
188,160,42457,2,0,L|165:42,1,120,2|0,0:0|0:0,0:0:0:0:
132,64,42827,2,0,P|92:60|55:44,1,80,8|0,0:0|0:0,0:0:0:0:
268,20,43197,6,0,P|263:59|252:97,1,80,4|0,0:0|0:0,0:0:0:0:
132,64,43568,1,8,0:0:0:0:
136,172,43753,2,0,P|215:177|295:186,1,160,2|0,0:0|0:0,0:0:0:0:
308,364,44308,2,0,P|296:325|289:286,1,80,8|0,0:0|0:0,0:0:0:0:
452,328,44679,5,2,0:0:0:0:
388,244,44864,1,0,0:0:0:0:
500,124,45049,2,0,P|494:163|483:202,1,80,8|0,0:0|0:0,0:0:0:0:
288,40,45419,2,0,P|319:89|375:106,1,120,2|0,0:0|0:0,0:0:0:0:
411,81,45790,2,0,L|403:2,1,80,8|0,0:0|0:0,0:0:0:0:
160,100,46160,5,4,0:0:0:0:
301,162,46345,1,0,0:0:0:0:
288,40,46531,1,8,0:0:0:0:
204,204,46716,2,0,L|363:216,1,160,2|2,0:0|0:0,0:0:0:0:
232,316,47271,2,0,L|152:308,1,80,8|2,0:0|0:0,0:0:0:0:
42,223,47642,6,0,P|85:160|52:90,1,160,4|8,0:0|0:0,0:0:0:0:
194,14,48197,2,0,P|188:51|185:93,1,80,2|4,0:0|0:3,0:0:0:0:
324,240,48567,1,8,0:0:0:0:
307,199,48659,1,8,0:0:0:0:
266,182,48752,1,8,0:0:0:0:
225,199,48844,1,8,0:0:0:0:
209,239,48937,1,8,0:0:0:0:
225,280,49029,1,8,0:0:0:0:
225,280,49122,5,4,0:0:0:0:
80,30,49494,1,8,0:0:0:0:
36,122,49679,2,0,L|4:136,2,35.9999989013672,0|8|8,0:0|0:3|0:3,0:0:0:0:
36,122,50049,1,0,0:0:0:0:
163,193,50234,2,0,P|131:209|96:213,1,71.9999978027344,8|0,0:0|0:0,0:0:0:0:
18,311,50605,6,0,P|13:346|22:380,1,71.9999978027344,2|0,0:0|0:0,0:0:0:0:
135,370,50975,2,0,P|139:334|127:300,1,71.9999978027344,8|0,0:0|0:0,0:0:0:0:
134,288,51253,1,8,0:3:0:0:
142,276,51345,2,0,L|211:295,1,71.9999978027344,8|0,0:3|0:0,0:0:0:0:
364,222,51715,2,0,L|295:242,1,71.9999978027344,8|0,0:0|0:0,0:0:0:0:
288,112,52086,5,2,0:0:0:0:
288,112,52271,1,0,0:0:0:0:
376,152,52457,2,0,P|375:187|364:222,1,71.9999978027344,8|0,0:0|0:0,0:0:0:0:
355,233,52734,1,8,0:3:0:0:
347,245,52827,2,0,P|347:280|358:315,1,71.9999978027344,8|0,0:3|0:0,0:0:0:0:
460,293,53197,1,8,0:0:0:0:
476,195,53382,1,0,0:0:0:0:
377,70,53568,6,0,P|342:78|309:94,2,71.9999978027344,2|2|8,0:0|0:0|0:0,0:0:0:0:
296,200,54123,1,0,0:0:0:0:
267,195,54216,1,8,0:3:0:0:
241,182,54308,1,8,0:3:0:0:
189,83,54494,1,2,0:0:0:0:
168,272,54679,1,8,0:0:0:0:
64,152,54864,1,8,0:0:0:0:
32,286,55049,6,0,P|157:310|281:341,1,256
495,98,56530,2,0,P|385:99|416:205,1,256
119,80,58012,5,4,0:0:0:0:
207,221,58197,1,2,0:0:0:0:
119,80,58382,1,8,0:0:0:0:
43,270,58567,1,2,0:0:0:0:
119,80,58753,1,8,0:0:0:0:
135,321,58938,5,2,0:0:0:0:
175,321,59031,1,2,0:0:0:0:
207,297,59123,1,8,0:0:0:0:
219,259,59216,1,8,0:0:0:0:
207,221,59309,1,6,0:0:0:0:
207,221,59678,5,10,0:0:0:0:
317,242,59864,1,8,0:0:0:0:
427,263,60050,1,12,0:0:0:0:
85,317,60790,6,0,P|182:315|207:222,1,207.999990478516,4|0,0:0|0:0,0:0:0:0:
106,113,61345,2,0,P|97:159|113:204,2,95.9999970703126,8|0|2,0:0|0:0|0:0,0:0:0:0:
197,27,61901,1,0,0:0:0:0:
197,27,62086,1,8,0:0:0:0:
341,150,62271,6,0,P|298:229|207:222,1,191.999994140625,2|0,0:0|0:0,0:0:0:0:
339,352,62827,2,0,P|350:305|341:258,1,95.9999970703126,8|0,0:0|0:0,0:0:0:0:
248,116,63197,1,2,0:0:0:0:
148,264,63382,1,0,0:0:0:0:
256,156,63567,1,8,0:0:0:0:
88,96,63753,1,0,0:0:0:0:
313,38,63938,6,0,P|292:103|342:151,1,143.999995605469,4|2,0:0|0:0,0:0:0:0:
419,156,64308,1,8,0:0:0:0:
470,0,64494,1,2,0:0:0:0:
475,235,64678,6,0,P|414:266|357:226,1,143.999995605469,4|2,0:0|0:0,0:0:0:0:
341,150,65049,1,8,0:0:0:0:
485,74,65234,1,2,0:0:0:0:
485,329,65419,6,0,P|414:311|342:300,1,143.999995605469,4|0,0:0|0:0,0:0:0:0:
281,361,65790,1,8,0:0:0:0:
134,344,65975,2,0,P|118:299|124:252,2,95.9999970703126,2|0|0,0:0|0:0|0:0,0:0:0:0:
234,292,66530,1,8,0:0:0:0:
156,145,66716,6,0,P|112:223|25:204,1,191.999994140625,4|0,0:0|0:0,0:0:0:0:
40,37,67271,2,0,P|86:29|131:45,1,95.9999970703126,8|0,0:0|0:0,0:0:0:0:
252,184,67641,1,2,0:0:0:0:
353,146,67827,2,0,L|365:46,1,95.9999970703126,0|8,0:0|0:0,0:0:0:0:
156,145,68197,6,0,P|137:232|215:275,1,191.999994140625,2|0,0:0|0:0,0:0:0:0:
345,237,68752,2,0,P|360:192|353:145,1,95.9999970703126,8|0,0:0|0:0,0:0:0:0:
156,145,69123,1,2,0:0:0:0:
216,275,69308,1,0,0:0:0:0:
252,184,69493,1,8,0:0:0:0:
80,252,69678,1,0,0:0:0:0:
74,61,69864,6,0,P|170:49|156:145,1,223.999993164063,6|8,0:0|0:0,0:0:0:0:
156,145,70604,5,2,0:0:0:0:
168,103,70697,1,2,0:0:0:0:
203,78,70790,1,8,0:0:0:0:
245,81,70882,1,8,0:0:0:0:
282,102,70975,2,0,L|299:196,1,95.9999970703126,10|0,0:0|0:0,0:0:0:0:
255,281,71345,5,4,0:0:0:0:
345,19,71530,1,4,0:0:0:0:
512,372,71901,1,4,0:0:0:0:
299,196,72271,6,0,P|276:202|255:212,1,47.9999985351563,8|0,0:0|0:0,0:0:0:0:
198,298,72456,2,0,P|219:308|242:315,1,47.9999985351563,8|0,0:0|0:0,0:0:0:0:
157,192,72641,6,0,P|73:240|3:173,1,207.999990478516,4|0,0:0|0:0,0:0:0:0:
48,34,73197,2,0,P|94:26|139:42,2,95.9999970703126,8|0|2,0:0|0:0|0:0,0:0:0:0:
84,160,73753,1,0,0:0:0:0:
84,160,73938,1,8,0:0:0:0:
280,190,74123,6,0,L|304:0,1,191.999994140625,2|0,0:0|0:0,0:0:0:0:
217,258,74679,2,0,P|258:280|306:279,1,95.9999970703126,8|0,0:0|0:0,0:0:0:0:
406,62,75049,1,2,0:0:0:0:
280,190,75234,1,0,0:0:0:0:
319,83,75419,1,8,0:0:0:0:
447,164,75604,1,0,0:0:0:0:
410,345,75790,6,0,P|342:361|286:319,1,143.999995605469,4|2,0:0|0:0,0:0:0:0:
201,315,76160,2,0,P|248:311|284:282,1,95.9999970703126,8|2,0:0|0:0,0:0:0:0:
230,84,76531,6,0,P|162:68|106:110,1,143.999995605469,4|2,0:0|0:0,0:0:0:0:
21,113,76900,2,0,P|68:116|104:145,1,95.9999970703126,8|2,0:0|0:0,0:0:0:0:
201,315,77271,6,0,P|130:329|59:336,1,143.999995605469,4|0,0:0|0:0,0:0:0:0:
132,267,77641,2,0,P|169:237|217:235,1,95.9999970703126,12|0,0:0|0:0,0:0:0:0:
360,384,78012,6,0,P|380:341|373:294,1,95.9999970703126,4|8,0:0|0:0,0:0:0:0:
350,263,78290,1,8,0:0:0:0:
347,224,78382,1,8,0:0:0:0:
365,190,78475,1,8,0:0:0:0:
403,189,78567,6,0,P|317:219|256:153,1,191.999994140625,4|0,0:0|0:0,0:0:0:0:
74,258,79123,2,0,P|121:259|163:236,1,95.9999970703126,8|0,0:0|0:0,0:0:0:0:
225,41,79494,1,2,0:0:0:0:
344,175,79678,2,0,P|297:176|256:153,1,95.9999970703126,0|8,0:0|0:0,0:0:0:0:
453,28,80049,6,0,P|453:75|436:120,1,95.9999970703126,2|0,0:0|0:0,0:0:0:0:
359,266,80419,2,0,P|341:222|344:175,1,95.9999970703126,2|8,0:0|0:0,0:0:0:0:
225,41,80790,2,0,P|272:40|317:57,2,95.9999970703126,2|0|0,0:0|0:0|0:0,0:0:0:0:
144,144,81345,1,8,0:0:0:0:
209,310,81530,6,0,P|297:333|359:266,1,191.999994140625,4|8,0:0|0:0,0:0:0:0:
144,144,82086,2,0,P|139:190|159:233,1,95.9999970703126,8|0,0:0|0:0,0:0:0:0:
312,188,82456,2,0,L|331:93,1,95.9999970703126,8|0,0:0|0:0,0:0:0:0:
128,54,82827,2,0,P|123:100|143:143,1,95.9999970703126,8|0,0:0|0:0,0:0:0:0:
233,7,83197,5,4,0:0:0:0:
209,377,83567,1,4,0:0:0:0:
271,192,83938,2,0,L|317:202,3,47.9999985351563,8|8|8|8,0:0|0:0|0:0|0:0,0:0:0:0:
348,132,84308,2,0,L|206:158,1,143.999995605469,8|0,0:0|0:0,0:0:0:0:
166,246,84678,6,0,P|110:174|139:87,1,191.999994140625,4|8,0:0|0:0,0:0:0:0:
272,228,85234,2,0,P|269:274|245:316,1,95.9999970703126,8|0,0:0|0:0,0:0:0:0:
77,221,85604,2,0,P|118:244|166:246,1,95.9999970703126,8|0,0:0|0:0,0:0:0:0:
206,158,85975,1,4,0:0:0:0:
394,233,86345,5,8,0:0:0:0:
426,117,86530,1,4,0:0:0:0:
256,192,86623,12,0,87641,0:0:0:0:
