osu file format v14

[General]
AudioFilename: audio.mp3
AudioLeadIn: 0
PreviewTime: 60604
Countdown: 0
SampleSet: Soft
StackLeniency: 0.5
Mode: 0
LetterboxInBreaks: 0
WidescreenStoryboard: 0

[Editor]
Bookmarks: 25349,26831
DistanceSpacing: 1.3
BeatDivisor: 2
GridSize: 4
TimelineZoom: 1.5

[Metadata]
Title:Korekara
TitleUnicode:コレカラ
Artist:Machico
ArtistUnicode:Machico
Creator:sahuang
Version:Collab Normal
Source:りゅうおうのおしごと!
Tags:CloudSplash16 misure lasse my angel azusa kunka doormat little starrstyx neta sekaii Sekai-nyan sekai The Ryuo's Work is Never Done Ryuuou no Oshigoto opening tv size
BeatmapID:1528870
BeatmapSetID:718735

[Difficulty]
HPDrainRate:4
CircleSize:3.5
OverallDifficulty:4
ApproachRate:5
SliderMultiplier:1.2
SliderTickRate:1

[Events]
//Background and Video events
0,0,"889949.jpg",0,0
Video,0,"op.mp4"
//Break Periods
//Storyboard Layer 0 (Background)
//Storyboard Layer 1 (Fail)
//Storyboard Layer 2 (Pass)
//Storyboard Layer 3 (Foreground)
//Storyboard Sound Samples

[TimingPoints]
1716,370.37037037037,4,2,1,60,1,0
13938,-100,4,2,1,65,0,0
17827,-100,4,2,1,70,0,0
18938,-100,4,2,1,60,0,0
22271,-100,4,2,1,40,0,0
23753,-100,4,2,1,60,0,0
25419,-100,4,2,1,50,0,0
37271,-100,4,2,1,60,0,0
58012,-100,4,2,1,60,0,0
59678,-100,4,2,1,40,0,0
60790,-90.9090909090909,4,2,1,70,0,1
71345,-90.9090909090909,4,2,1,80,0,1
71901,-90.9090909090909,4,2,1,70,0,0
72641,-90.9090909090909,4,2,1,70,0,1
84678,-100,4,2,1,60,0,0
85419,-100,4,2,1,50,0,0
86715,-100,4,2,1,40,0,0
86901,-100,4,2,1,30,0,0
87086,-100,4,2,1,20,0,0
87271,-100,4,2,1,10,0,0
87456,-100,4,2,1,5,0,0

[Colours]
Combo1 : 255,119,255
Combo2 : 108,255,108
Combo3 : 255,146,94
Combo4 : 89,255,255

[HitObjects]
398,344,1716,6,0,P|367:353|326:344,1,60,8|8,0:0|0:0,0:0:0:0:
223,149,2456,2,0,P|183:145|139:161,2,60,2|0|0,0:0|0:0|0:0,0:0:0:0:
292,186,3012,2,0,P|352:190|408:158,2,120,8|8|2,0:0|0:0|0:0,0:0:0:0:
252,36,4123,2,0,P|220:36|184:28,1,60,8|8,0:0|0:0,0:0:0:0:
116,28,4493,1,8,0:0:0:0:
56,80,4678,6,0,P|20:152|56:248,1,180,4|0,0:0|0:0,0:0:0:0:
124,268,5419,2,0,B|156:256|204:268|204:268|216:260|216:260|256:280|328:260,1,180,4|0,0:0|0:0,0:0:0:0:
376,264,6160,1,4,0:0:0:0:
412,112,6530,2,0,P|380:112|308:60,1,120,4|2,0:0|0:0,0:0:0:0:
152,64,7271,1,8,0:0:0:0:
112,216,7641,6,0,L|84:276,1,60,4|0,0:0|0:0,0:0:0:0:
148,320,8012,2,0,L|200:208,1,120,8|2,0:0|0:0,0:0:0:0:
304,328,8753,2,0,P|368:336|400:332,1,60,8|0,0:0|0:0,0:0:0:0:
440,332,9123,2,0,P|428:296|412:276,1,60,0|0,0:0|0:0,0:0:0:0:
340,252,9493,2,0,P|336:204|364:136,1,120,8|0,0:0|0:0,0:0:0:0:
256,24,10234,1,8,0:0:0:0:
124,104,10604,5,4,0:0:0:0:
124,104,12086,2,0,L|108:168,1,60,4|0,0:0|0:0,0:0:0:0:
184,188,12456,2,0,L|198:129,1,60,4|0,0:0|0:0,0:0:0:0:
272,160,12827,2,0,L|257:218,2,60,8|8|8,0:0|0:0|0:0,0:0:0:0:
320,100,13382,6,0,P|388:72|496:112,1,180,12|8,0:0|0:0,0:0:0:0:
424,244,14308,2,0,P|384:260|348:288,1,60,8|0,0:0|0:0,0:0:0:0:
312,320,14678,1,8,0:0:0:0:
312,320,14864,2,0,P|256:344|196:312,1,120,4|0,0:0|0:0,0:0:0:0:
256,264,15419,2,0,L|256:136,1,120,8|8,0:0|0:0,0:0:0:0:
144,36,16160,1,8,0:0:0:0:
144,36,16345,6,0,P|76:44|36:99,1,120,4|0,0:0|0:0,0:0:0:0:
24,156,16901,1,8,0:0:0:0:
84,300,17271,1,8,0:0:0:0:
84,300,17456,2,0,L|144:308,1,60,8|8,0:0|0:0,0:0:0:0:
220,320,17827,1,4,0:0:0:0:
372,348,18197,1,4,0:0:0:0:
450,213,18567,1,12,0:0:0:0:
298,185,18938,1,12,0:0:0:0:
200,64,19308,6,0,L|64:68,1,120,4|0,0:0|0:0,0:0:0:0:
60,144,19864,2,0,L|128:140,1,60,8|0,0:0|0:0,0:0:0:0:
144,216,20234,2,0,L|84:219,1,60,8|0,0:0|0:0,0:0:0:0:
108,292,20604,1,8,0:0:0:0:
185,304,20790,2,0,P|245:292|321:320,1,120,2|0,0:0|0:0,0:0:0:0:
377,324,21345,1,8,0:0:0:0:
460,192,21715,2,0,P|468:164|468:128,2,60,8|0|8,0:0|0:0|0:0,0:0:0:0:
388,156,22271,6,0,P|328:156|272:124,1,120,4|8,0:0|0:0,0:0:0:0:
220,72,22827,2,0,L|92:56,1,120,8|2,0:0|0:0,0:0:0:0:
92,212,23567,1,8,0:0:0:0:
92,212,23753,5,4,0:0:0:0:
108,368,24123,1,4,0:0:0:0:
256,316,24493,1,10,0:0:0:0:
448,64,25234,1,8,0:0:0:0:
448,64,25419,6,0,P|388:48|312:76,2,120,4|8|2,0:0|0:0|0:0,0:0:0:0:
460,220,26530,2,0,P|464:256|456:300,1,60,8|0,0:0|0:0,0:0:0:0:
388,312,26901,2,0,P|384:276|392:232,1,60,2|0,0:0|0:0,0:0:0:0:
336,192,27271,2,0,L|204:192,2,120,8|2|8,0:0|0:0|0:0,0:0:0:0:
200,272,28382,6,0,P|148:236|140:164,1,120,2|8,0:0|0:0,0:0:0:0:
148,104,28938,1,0,0:0:0:0:
148,104,29123,2,0,L|268:104,1,120,2|8,0:0|0:0,0:0:0:0:
344,128,29678,1,0,0:0:0:0:
408,176,29864,2,0,P|424:240|400:300,1,120,2|8,0:0|0:0,0:0:0:0:
256,328,30604,1,2,0:0:0:0:
123,244,30975,2,0,P|94:248|65:242,1,60,8|0,0:0|0:0,0:0:0:0:
96,168,31345,6,0,L|84:44,1,120,2|8,0:0|0:0,0:0:0:0:
160,24,31901,1,0,0:0:0:0:
224,68,32086,2,0,P|280:64|312:52,1,60,2|0,0:0|0:0,0:0:0:0:
356,96,32456,2,0,P|412:100|444:112,1,60,8|0,0:0|0:0,0:0:0:0:
448,172,32827,2,0,P|464:224|444:288,1,120,2|8,0:0|0:0,0:0:0:0:
296,332,33567,2,0,L|176:335,1,120,2|8,0:0|0:0,0:0:0:0:
101,310,34123,1,0,0:0:0:0:
160,259,34308,6,0,L|279:255,1,120,2|8,0:0|0:0,0:0:0:0:
358,248,34864,1,0,0:0:0:0:
469,138,35234,1,0,0:0:0:0:
340,48,35604,1,4,0:0:0:0:
340,48,36715,2,0,L|264:36,2,60,0|2|2,0:0|0:0|0:0,0:0:0:0:
316,124,37271,6,0,L|184:108,1,120,4|8,0:0|0:0,0:0:0:0:
120,96,37827,1,0,0:0:0:0:
88,168,38012,2,0,P|72:220|96:284,1,120,2|8,0:0|0:0,0:0:0:0:
232,348,38753,2,0,P|288:332|356:352,1,120,4|8,0:0|0:0,0:0:0:0:
424,360,39308,1,0,0:0:0:0:
400,288,39493,2,0,P|353:264|320:260,2,60,2|0|8,0:0|0:0|0:0,0:0:0:0:
332,148,40234,6,0,L|356:16,1,120,6|8,0:0|0:0,0:0:0:0:
276,28,40790,2,0,L|254:146,1,120,4|0,0:0|0:0,0:0:0:0:
212,212,41345,1,8,0:0:0:0:
212,212,41530,2,0,P|152:236|88:196,1,120,4|0,0:0|0:0,0:0:0:0:
156,156,42086,1,8,0:0:0:0:
156,312,42456,1,2,0:0:0:0:
12,252,42827,1,8,0:0:0:0:
156,156,43197,6,0,P|152:100|196:32,1,120,4|8,0:0|0:0,0:0:0:0:
257,61,43753,2,0,P|316:59|368:88,1,120,2|0,0:0|0:0,0:0:0:0:
420,145,44308,2,0,L|417:213,1,60,8|0,0:0|0:0,0:0:0:0:
354,251,44678,2,0,P|406:283|478:255,1,120,2|8,0:0|0:0,0:0:0:0:
317,333,45419,2,0,P|291:311|274:277,1,60,2|0,0:0|0:0,0:0:0:0:
205,258,45790,2,0,P|222:233|249:214,1,60,8|0,0:0|0:0,0:0:0:0:
310,172,46160,6,0,L|450:128,1,120,4|8,0:0|0:0,0:0:0:0:
400,61,46715,1,0,0:0:0:0:
326,34,46901,2,0,L|211:69,1,120,2|8,0:0|0:0,0:0:0:0:
52,56,47641,2,0,P|36:112|68:180,1,120,4|0,0:0|0:0,0:0:0:0:
104,232,48197,1,2,0:0:0:0:
104,232,48382,2,0,P|119:288|99:344,1,120,0|8,0:0|0:0,0:0:0:0:
256,336,49123,6,0,L|380:324,1,120,4|8,0:0|0:0,0:0:0:0:
388,248,49678,1,0,0:0:0:0:
388,248,49864,2,0,L|268:259,1,120,2|8,0:0|0:0,0:0:0:0:
176,132,50604,2,0,P|160:72|184:12,1,120,2|8,0:0|0:0,0:0:0:0:
256,36,51160,1,0,0:0:0:0:
324,72,51345,2,0,L|452:80,1,120,2|8,0:0|0:0,0:0:0:0:
428,236,52086,6,0,P|356:236|308:280,1,120,2|8,0:0|0:0,0:0:0:0:
256,308,52641,1,0,0:0:0:0:
192,263,52827,2,0,P|142:231|84:236,1,120,2|8,0:0|0:0,0:0:0:0:
80,80,53567,2,0,B|128:80|128:80|152:88|152:88|200:88,1,120,2|8,0:0|0:0,0:0:0:0:
274,67,54123,2,0,B|321:67|321:67|345:59|345:59|393:59,1,120,2|0,0:0|0:0,0:0:0:0:
457,102,54678,2,0,L|458:175,1,60,8|8,0:0|0:0,0:0:0:0:
431,236,55049,5,2,0:0:0:0:
12,28,56160,1,2,0:0:0:0:
168,28,56530,1,2,0:0:0:0:
68,324,57271,1,2,0:0:0:0:
352,192,58012,6,0,P|364:124|336:68,1,120,4|8,0:0|0:0,0:0:0:0:
216,164,58753,2,0,P|195:219|208:277,1,120,8|8,0:0|0:0,0:0:0:0:
256,340,59308,1,6,0:0:0:0:
120,264,59678,2,0,P|116:226|122:198,2,60,6|6|4,0:0|0:0|0:0,0:0:0:0:
120,264,60790,6,0,L|109:98,1,132.00000402832,4|0,0:0|0:0,0:0:0:0:
145,61,61345,1,8,0:0:0:0:
145,61,61530,2,0,P|224:46|274:56,1,132.00000402832,2|0,0:0|0:0,0:0:0:0:
337,103,62086,1,8,0:0:0:0:
376,171,62271,2,0,P|387:257|312:338,1,198.000006042481,2|8,0:0|0:0,0:0:0:0:
182,252,63197,1,2,0:0:0:0:
52,342,63567,2,0,P|43:310|46:267,1,66.0000020141602,8|0,0:0|0:0,0:0:0:0:
75,204,63938,6,0,L|62:56,1,132.00000402832,2|8,0:0|0:0,0:0:0:0:
213,21,64678,2,0,L|224:152,1,132.00000402832,2|8,0:0|0:0,0:0:0:0:
266,220,65234,1,2,0:0:0:0:
266,220,65419,2,0,L|350:209,1,66.0000020141602,4|0,0:0|0:0,0:0:0:0:
357,286,65790,2,0,L|291:294,1,66.0000020141602,8|0,0:0|0:0,0:0:0:0:
308,371,66160,2,0,L|373:362,2,66.0000020141602,2|0|8,0:0|0:0|0:0,0:0:0:0:
228,371,66715,6,0,P|161:364|104:238,1,198.000006042481,4|8,0:0|0:0,0:0:0:0:
124,183,67456,2,0,L|131:44,1,132.00000402832,2|0,0:0|0:0,0:0:0:0:
203,18,68012,1,8,0:0:0:0:
269,60,68197,2,0,P|360:76|424:49,1,132.00000402832,2|0,0:0|0:0,0:0:0:0:
467,29,68753,1,8,0:0:0:0:
467,29,68938,2,0,B|489:63|484:119|484:119|434:159|431:234,1,198.000006042481,2|8,0:0|0:0,0:0:0:0:
349,342,69864,6,0,L|268:330,1,66.0000020141602,6|0,0:0|0:0,0:0:0:0:
209,360,70234,2,0,L|178:283,1,66.0000020141602,8|0,0:0|0:0,0:0:0:0:
124,247,70604,2,0,L|174:182,1,66.0000020141602,6|0,0:0|0:0,0:0:0:0:
179,116,70975,2,0,L|260:128,1,66.0000020141602,8|0,0:0|0:0,0:0:0:0:
314,89,71345,5,6,0:0:0:0:
314,89,71530,1,6,0:0:0:0:
432,194,71901,2,0,B|406:321|406:321|329:367,1,198.000006042481,4|8,0:0|0:0,0:0:0:0:
284,308,72641,6,0,P|230:299|127:334,1,132.00000402832,12|0,0:0|0:0,0:0:0:0:
107,378,73196,1,8,0:0:0:0:
107,378,73382,2,0,L|87:222,1,132.00000402832,2|0,0:0|0:0,0:0:0:0:
120,173,73937,1,8,0:0:0:0:
79,104,74123,2,0,B|127:79|173:111|173:111|220:78|263:111,1,198.000006042481,2|8,0:0|0:0,0:0:0:0:
402,36,75048,1,2,0:0:0:0:
493,165,75418,2,0,L|499:240,1,66.0000020141602,8|0,0:0|0:0,0:0:0:0:
458,299,75789,6,0,P|412:330|310:312,1,132.00000402832,2|8,0:0|0:0,0:0:0:0:
207,236,76530,2,0,P|151:202|86:206,1,132.00000402832,2|8,0:0|0:0,0:0:0:0:
16,171,77085,1,2,0:0:0:0:
16,171,77270,2,0,L|5:87,1,66.0000020141602,12|0,0:0|0:0,0:0:0:0:
86,94,77641,2,0,L|75:10,1,66.0000020141602,12|0,0:0|0:0,0:0:0:0:
156,40,78012,2,0,P|180:54|224:63,1,66.0000020141602,12|8,0:0|0:0,0:0:0:0:
288,29,78382,1,8,0:0:0:0:
353,73,78567,6,0,B|411:119|411:119|383:299,1,198.000006042481,12|8,0:0|0:0,0:0:0:0:
335,297,79307,2,0,L|196:290,1,132.00000402832,2|0,0:0|0:0,0:0:0:0:
126,267,79863,1,8,0:0:0:0:
126,267,80048,2,0,P|108:181|124:117,1,132.00000402832,2|2,0:0|0:0,0:0:0:0:
154,69,80604,1,8,0:0:0:0:
154,69,80789,2,0,B|239:19|250:121|349:56,1,198.000006042481,2|8,0:0|0:0,0:0:0:0:
419,46,81530,6,0,L|431:251,1,198.000006042481,4|10,0:0|0:0,0:0:0:0:
301,336,82456,2,0,L|298:252,1,66.0000020141602,2|0,0:0|0:0,0:0:0:0:
298,190,82827,1,10,0:0:0:0:
174,288,83197,5,4,0:0:0:0:
76,164,83567,1,4,0:0:0:0:
200,66,83938,2,0,P|230:61|273:65,1,66.0000020141602,2|0,0:0|0:0,0:0:0:0:
333,104,84308,2,0,P|363:109|406:105,1,66.0000020141602,8|0,0:0|0:0,0:0:0:0:
468,140,84678,6,0,P|477:209|454:266,1,120,6|2,0:0|0:0,0:0:0:0:
388,285,85234,1,0,0:0:0:0:
310,286,85419,2,0,L|223:267,2,60,2|2|8,0:0|0:0|0:0,0:0:0:0:
388,285,85975,2,0,L|370:148,1,120,2|8,0:0|0:0,0:0:0:0:
358,89,86530,5,12,0:0:0:0:
256,192,86715,12,0,87641,0:0:0:0:
