osu file format v14

[General]
AudioFilename: audio.mp3
AudioLeadIn: 0
PreviewTime: 60604
Countdown: 0
SampleSet: Soft
StackLeniency: 0.5
Mode: 0
LetterboxInBreaks: 0
WidescreenStoryboard: 0

[Editor]
DistanceSpacing: 0.7
BeatDivisor: 4
GridSize: 16
TimelineZoom: 1.9

[Metadata]
Title:Korekara
TitleUnicode:コレカラ
Artist:Machico
ArtistUnicode:Machico
Creator:sahuang
Version:Insane
Source:りゅうおうのおしごと!
Tags:CloudSplash16 misure lasse my angel azusa kunka doormat little starrstyx neta sekaii Sekai-nyan sekai The Ryuo's Work is Never Done Ryuuou no Oshigoto opening tv size
BeatmapID:1518000
BeatmapSetID:718735

[Difficulty]
HPDrainRate:6
CircleSize:3.8
OverallDifficulty:8
ApproachRate:8.6
SliderMultiplier:1.6
SliderTickRate:1

[Events]
//Background and Video events
0,0,"889949.jpg",0,0
Video,0,"op.mp4"
//Break Periods
//Storyboard Layer 0 (Background)
//Storyboard Layer 1 (Fail)
//Storyboard Layer 2 (Pass)
//Storyboard Layer 3 (Foreground)
//Storyboard Sound Samples

[TimingPoints]
1716,370.37037037037,4,2,1,50,1,0
12086,-125,4,2,1,60,0,0
12456,-83.3333333333333,4,2,1,60,0,0
13382,-100,4,2,1,60,0,0
24493,-100,4,2,1,60,0,0
24586,-100,4,2,1,10,0,0
24678,-100,4,2,1,60,0,0
25234,-100,4,2,1,60,0,0
36901,-125,4,2,1,60,0,0
37271,-90.9090909090909,4,2,1,60,0,0
46160,-76.9230769230769,4,2,1,60,0,0
49123,-100,4,2,1,60,0,0
55049,-133.333333333333,4,2,1,40,0,0
57919,-133.333333333333,4,2,1,5,0,0
58012,-76.9230769230769,4,2,1,60,0,0
60790,-83.3333333333333,4,2,1,70,0,1
77641,-76.9230769230769,4,2,1,60,0,1
78012,-71.4285714285714,4,2,1,60,0,1
78567,-83.3333333333333,4,2,1,60,0,1
84678,-100,4,2,1,60,0,0
86715,-100,4,2,1,40,0,0
86901,-100,4,2,1,30,0,0
87086,-100,4,2,1,20,0,0
87271,-100,4,2,1,10,0,0
87456,-100,4,2,1,5,0,0

[Colours]
Combo1 : 255,119,255
Combo2 : 108,255,108
Combo3 : 255,146,94
Combo4 : 89,255,255

[HitObjects]
126,213,1716,5,8,0:0:0:0:
376,139,1901,1,8,0:0:0:0:
376,139,2456,1,2,0:0:0:0:
310,80,2641,1,2,0:0:0:0:
395,56,2827,1,8,0:0:0:0:
357,222,3012,5,8,0:0:0:0:
225,104,3382,1,8,0:0:0:0:
189,278,3753,2,0,P|222:323|296:336,1,120,10|0,0:0|0:0,0:0:0:0:
355,308,4123,1,8,0:0:0:0:
368,306,4215,1,8,0:0:0:0:
381,305,4308,2,0,L|431:316,3,40,8|8|8|8,0:0|0:0|0:0|0:0,0:0:0:0:
441,239,4678,6,0,P|427:172|418:107,2,120,4|0|0,0:0|0:0|0:0,0:0:0:0:
260,199,5419,2,0,P|278:128|283:67,2,120,4|0|0,0:0|0:0|0:0,0:0:0:0:
197,282,6160,6,0,P|162:304|121:302,1,80,4|0,0:0|0:0,0:0:0:0:
82,151,6530,2,0,P|118:170|137:206,1,80,4|0,0:0|0:0,0:0:0:0:
44,242,6901,1,8,0:0:0:0:
5,98,7086,1,8,0:0:0:0:
5,98,7178,1,8,0:0:0:0:
5,98,7271,1,8,0:0:0:0:
82,151,7456,1,8,0:0:0:0:
161,96,7641,6,0,P|204:80|244:79,1,80,4|0,0:0|0:0,0:0:0:0:
329,106,8012,1,8,0:0:0:0:
391,178,8197,2,0,P|392:219|370:253,1,80,0|2,0:0|0:0,0:0:0:0:
220,212,8567,2,0,P|254:190|296:192,1,80,0|8,0:0|0:0,0:0:0:0:
335,344,8938,6,0,P|298:324|279:288,1,80,0|0,0:0|0:0,0:0:0:0:
238,138,9308,2,0,P|239:179|217:213,1,80,0|8,0:0|0:0,0:0:0:0:
113,329,9678,1,2,0:0:0:0:
113,329,9864,2,0,P|147:307|189:309,1,80
335,344,10234,2,0,P|374:344|407:322,1,80,8|0,0:0|0:0,0:0:0:0:
469,162,10604,5,4,0:0:0:0:
376,149,12086,2,0,P|423:145|468:161,1,96,4|0,0:0|0:0,0:0:0:0:
455,186,12456,6,0,P|364:172|307:198,1,143.999995605469,4|0,0:0|0:0,0:0:0:0:
256,251,12827,1,8,0:0:0:0:
236,251,12919,1,8,0:0:0:0:
218,246,13012,1,8,0:0:0:0:
201,238,13104,1,8,0:0:0:0:
186,225,13197,2,0,P|168:195|162:160,1,47.9999985351563,8|0,0:0|0:0,0:0:0:0:
105,110,13382,6,0,P|114:168|117:280,1,160,12|0,0:0|0:0,0:0:0:0:
225,339,13938,2,0,P|265:344|305:329,1,80,8|0,0:0|0:0,0:0:0:0:
405,220,14308,1,8,0:0:0:0:
256,251,14493,1,0,0:0:0:0:
394,313,14678,1,8,0:0:0:0:
319,181,14864,6,0,P|284:161|239:158,1,80,4|0,0:0|0:0,0:0:0:0:
198,303,15234,1,0,0:0:0:0:
198,303,15419,2,0,P|232:282|255:250,1,80,8|0,0:0|0:0,0:0:0:0:
152,137,15790,2,0,P|150:178|168:214,1,80,8|0,0:0|0:0,0:0:0:0:
319,181,16160,1,8,0:0:0:0:
296,9,16345,6,0,P|373:15|417:78,1,160,4|0,0:0|0:0,0:0:0:0:
319,181,16901,2,0,P|320:141|327:99,1,80,8|0,0:0|0:0,0:0:0:0:
512,55,17271,2,0,P|511:95|502:135,1,80,8|8,0:0|0:0,0:0:0:0:
483,139,17549,1,8,0:0:0:0:
464,145,17641,1,8,0:0:0:0:
445,151,17734,1,8,0:0:0:0:
426,157,17827,5,4,0:0:0:0:
118,51,18197,1,4,0:0:0:0:
150,272,18567,1,4,0:0:0:0:
386,48,18938,1,6,0:0:0:0:
313,135,19308,6,0,L|234:142,1,80,4|0,0:0|0:0,0:0:0:0:
386,48,19678,1,0,0:0:0:0:
386,48,19864,2,0,L|465:55,1,80,8|0,0:0|0:0,0:0:0:0:
320,215,20234,1,8,0:0:0:0:
306,55,20419,1,0,0:0:0:0:
393,128,20604,1,8,0:0:0:0:
233,142,20790,6,0,P|193:137|159:116,1,80,4|0,0:0|0:0,0:0:0:0:
45,17,21160,1,0,0:0:0:0:
45,17,21345,2,0,P|85:22|119:43,1,80,8|0,0:0|0:0,0:0:0:0:
124,193,21715,2,0,P|90:213|50:218,1,80,8|0,0:0|0:0,0:0:0:0:
159,116,22086,2,0,L|199:121,1,40,8|0,0:0|0:0,0:0:0:0:
293,162,22271,1,0,0:0:0:0:
224,237,22456,5,8,0:0:0:0:
302,58,22641,1,0,0:0:0:0:
343,251,22827,1,8,0:0:0:0:
198,120,23012,1,0,0:0:0:0:
393,139,23197,1,8,0:0:0:0:
188,144,23382,1,0,0:0:0:0:
404,115,23567,1,8,0:0:0:0:
224,237,23753,6,0,P|201:237|161:234,1,40,4|0,0:0|0:0,0:0:0:0:
392,326,24123,2,0,P|415:326|455:323,1,40,4|0,0:0|0:0,0:0:0:0:
209,333,24493,2,0,P|186:333|146:330,1,40,4|2,0:0|0:0,0:0:0:0:
74,301,24678,5,2,0:0:0:0:
148,239,24864,1,0,0:0:0:0:
58,206,25049,1,8,0:0:0:0:
139,155,25234,1,8,0:0:0:0:
139,155,25327,1,8,0:0:0:0:
139,155,25419,6,0,P|177:142|217:147,1,80,4|0,0:0|0:0,0:0:0:0:
192,308,25790,2,0,L|185:229,1,80,8|0,0:0|0:0,0:0:0:0:
132,75,26160,2,0,L|139:154,1,80,2|0,0:0|0:0,0:0:0:0:
106,311,26530,2,0,L|99:232,1,80,8|0,0:0|0:0,0:0:0:0:
262,221,26901,6,0,P|225:233|185:228,1,80,2|0,0:0|0:0,0:0:0:0:
62,152,27271,2,0,P|101:144|139:155,1,80,8|0,0:0|0:0,0:0:0:0:
262,221,27641,2,0,L|255:300,1,80,2|0,0:0|0:0,0:0:0:0:
139,155,28012,2,0,L|146:76,1,80,8|0,0:0|0:0,0:0:0:0:
364,76,28382,6,0,P|287:95|214:31,1,160,2|8,0:0|0:0,0:0:0:0:
426,20,28938,2,0,P|447:61|445:96,1,80,0|2,0:0|0:0,0:0:0:0:
379,236,29308,2,0,P|358:195|360:160,1,80,0|8,0:0|0:0,0:0:0:0:
436,336,29678,1,0,0:0:0:0:
436,336,29864,6,0,L|342:333,1,80,2|0,0:0|0:0,0:0:0:0:
195,229,30234,2,0,L|274:232,1,80,8|0,0:0|0:0,0:0:0:0:
379,236,30604,1,2,0:0:0:0:
219,319,30790,1,0,0:0:0:0:
227,140,30975,1,8,0:0:0:0:
379,236,31160,1,0,0:0:0:0:
195,229,31345,6,0,P|139:173|145:93,1,160,2|8,0:0|0:0,0:0:0:0:
217,35,31901,1,0,0:0:0:0:
298,86,32086,2,0,P|349:105|387:99,1,80,2|0,0:0|0:0,0:0:0:0:
456,53,32456,1,8,0:0:0:0:
422,213,32641,1,0,0:0:0:0:
298,85,32827,6,0,P|304:125|305:164,1,80,2|0,0:0|0:0,0:0:0:0:
197,281,33197,2,0,P|191:241|190:202,1,80,8|0,0:0|0:0,0:0:0:0:
359,237,33567,2,0,P|358:277|352:317,1,80,2|0,0:0|0:0,0:0:0:0:
136,128,33938,2,0,P|137:88|143:48,1,80,8|0,0:0|0:0,0:0:0:0:
350,209,34308,6,0,P|288:229|219:217,1,120,2|0,0:0|0:0,0:0:0:0:
190,201,34678,1,8,0:0:0:0:
233,62,34864,2,0,P|272:51|323:55,1,80,0|2,0:0|0:0,0:0:0:0:
485,136,35234,2,0,P|446:147|395:143,1,80,0|8,0:0|0:0,0:0:0:0:
233,62,35604,5,4,0:0:0:0:
416,278,35975,1,2,0:0:0:0:
406,145,36160,1,2,0:0:0:0:
296,220,36345,1,2,0:0:0:0:
496,192,36530,5,4,0:0:0:0:
406,145,36715,1,0,0:0:0:0:
316,98,36901,2,0,P|285:100|249:119,1,64,2|2,0:0|0:0,0:0:0:0:
182,294,37271,6,0,L|89:284,1,88.000002685547,4|0,0:0|0:0,0:0:0:0:
178,193,37641,1,8,0:0:0:0:
178,193,37827,1,0,0:0:0:0:
268,239,38012,2,0,P|282:284|272:336,1,88.000002685547,2|0,0:0|0:0,0:0:0:0:
88,156,38382,1,8,0:0:0:0:
182,294,38567,1,0,0:0:0:0:
274,83,38753,6,0,L|367:73,1,88.000002685547,4|0,0:0|0:0,0:0:0:0:
500,128,39123,1,8,0:0:0:0:
383,221,39308,1,0,0:0:0:0:
345,58,39493,1,2,0:0:0:0:
404,236,39678,1,0,0:0:0:0:
500,128,39864,2,0,P|498:83|496:34,1,88.000002685547,8|0,0:0|0:0,0:0:0:0:
279,173,40234,6,0,L|298:306,1,132.00000402832,4|0,0:0|0:0,0:0:0:0:
305,347,40604,1,8,0:0:0:0:
127,303,40790,2,0,L|146:170,1,132.00000402832,2|0,0:0|0:0,0:0:0:0:
153,129,41160,1,0,0:0:0:0:
51,59,41345,1,8,0:0:0:0:
153,129,41530,6,0,B|241:87|238:169|328:122,1,176.000005371094,4|0,0:0|0:0,0:0:0:0:
410,29,42086,1,8,0:0:0:0:
276,50,42271,1,0,0:0:0:0:
361,155,42456,2,0,P|421:164|487:137,1,132.00000402832,2|2,0:0|0:0,0:0:0:0:
503,112,42827,1,8,0:0:0:0:
350,80,43012,1,2,0:0:0:0:
255,209,43197,6,0,P|242:257|252:300,1,88.000002685547,4|0,0:0|0:0,0:0:0:0:
329,375,43567,1,8,0:0:0:0:
423,309,43753,2,0,P|436:261|426:218,1,88.000002685547,0|2,0:0|0:0,0:0:0:0:
282,108,44123,1,0,0:0:0:0:
255,209,44308,2,0,P|284:240|325:256,1,88.000002685547,8|0,0:0|0:0,0:0:0:0:
282,108,44678,5,2,0:0:0:0:
182,133,44864,1,0,0:0:0:0:
351,175,45049,1,8,0:0:0:0:
307,14,45234,1,0,0:0:0:0:
250,231,45419,5,2,0:0:0:0:
405,74,45604,1,0,0:0:0:0:
182,133,45790,1,8,0:0:0:0:
426,194,45975,1,0,0:0:0:0:
307,14,46160,6,0,B|278:67|278:67|306:219,1,207.999990478516,4|8,0:0|0:0,0:0:0:0:
343,341,46715,1,8,0:0:0:0:
192,247,46901,1,8,0:0:0:0:
430,245,47086,1,2,0:0:0:0:
231,349,47271,1,8,0:0:0:0:
369,136,47456,1,2,0:0:0:0:
192,247,47641,6,0,P|151:215|136:166,1,103.999995239258,4|0,0:0|0:0,0:0:0:0:
350,261,48012,1,8,0:0:0:0:
220,167,48197,1,2,0:0:0:0:
231,349,48382,5,8,0:0:0:0:
350,261,48567,2,0,L|361:199,1,51.999997619629,8|8,0:0|0:0,0:0:0:0:
302,114,48753,1,8,0:0:0:0:
285,93,48845,1,8,0:0:0:0:
264,79,48938,1,8,0:0:0:0:
239,70,49030,1,8,0:0:0:0:
213,69,49123,6,0,L|120:83,1,80,4|0,0:0|0:0,0:0:0:0:
43,112,49493,2,0,P|23:154|26:194,1,80,8|0,0:0|0:0,0:0:0:0:
48,218,49771,1,0,0:0:0:0:
48,218,49864,1,2,0:0:0:0:
139,189,50049,1,0,0:0:0:0:
188,270,50234,2,0,P|224:286|263:289,1,80,8|0,0:0|0:0,0:0:0:0:
382,355,50604,6,0,L|388:275,1,80,2|0,0:0|0:0,0:0:0:0:
420,184,50975,2,0,P|436:126|430:92,1,80,8|0,0:0|0:0,0:0:0:0:
416,70,51253,1,0,0:0:0:0:
416,70,51345,1,2,0:0:0:0:
324,42,51530,1,0,0:0:0:0:
248,103,51715,2,0,P|207:121|154:121,1,80,8|0,0:0|0:0,0:0:0:0:
73,51,52086,5,2,0:0:0:0:
182,0,52271,1,0,0:0:0:0:
160,240,52456,1,8,0:0:0:0:
62,171,52641,1,0,0:0:0:0:
62,171,52734,1,0,0:0:0:0:
62,171,52827,1,2,0:0:0:0:
172,124,53012,1,0,0:0:0:0:
160,240,53197,2,0,L|170:334,1,80,8|0,0:0|0:0,0:0:0:0:
281,175,53567,5,2,0:0:0:0:
270,55,53753,1,0,0:0:0:0:
172,124,53938,1,8,0:0:0:0:
388,224,54123,1,0,0:0:0:0:
388,224,54215,1,0,0:0:0:0:
388,224,54308,2,0,P|392:172|379:128,1,80,2|0,0:0|0:0,0:0:0:0:
270,55,54678,5,8,0:0:0:0:
292,295,54864,1,8,0:0:0:0:
270,55,55049,6,0,B|230:79|183:52|183:52|156:88|156:88|100:52|45:84,1,240.000009155274,2|2,0:0|0:0,0:0:0:0:
16,190,56160,1,2,0:0:0:0:
81,290,56530,2,0,P|156:319|246:260,1,180.000006866455,2|0,0:0|0:0,0:0:0:0:
150,206,57271,2,0,B|258:263|265:156|358:212,1,210.000008010865,2|0,0:0|0:0,0:0:0:0:
349,207,58012,5,4,0:0:0:0:
251,93,58197,1,2,0:0:0:0:
233,304,58382,1,8,0:0:0:0:
455,217,58567,1,2,0:0:0:0:
181,193,58753,1,8,0:0:0:0:
365,347,58938,6,0,P|382:326|390:302,1,51.999997619629,8|8,0:0|0:0,0:0:0:0:
389,73,59123,2,0,P|372:93|364:117,1,51.999997619629,8|8,0:0|0:0,0:0:0:0:
455,217,59308,6,0,L|267:205,1,155.999992858887,6|0,0:0|0:0,0:0:0:0:
181,193,59678,1,10,0:0:0:0:
365,347,59864,1,10,0:0:0:0:
389,73,60049,1,6,0:0:0:0:
389,73,60604,1,2,0:0:0:0:
206,187,60790,6,0,B|147:202|147:202|82:178|82:178|22:193,1,191.999994140625,4|0,0:0|0:0,0:0:0:0:
73,290,61345,1,8,0:0:0:0:
206,187,61530,2,0,P|214:138|211:92,1,95.9999970703126,0|2,0:0|0:0,0:0:0:0:
74,94,61901,1,0,0:0:0:0:
73,290,62086,1,8,0:0:0:0:
296,188,62271,6,0,P|304:139|301:93,1,95.9999970703126,0|2,0:0|0:0,0:0:0:0:
182,142,62641,1,0,0:0:0:0:
195,258,62827,1,8,0:0:0:0:
74,94,63012,1,0,0:0:0:0:
296,188,63197,1,2,0:0:0:0:
296,188,63382,1,0,0:0:0:0:
109,338,63567,2,0,P|81:276|87:216,1,95.9999970703126,8|0,0:0|0:0,0:0:0:0:
281,53,63938,6,0,P|308:114|291:196,1,143.999995605469,2|2,0:0|0:0,0:0:0:0:
277,216,64308,2,0,L|386:199,1,95.9999970703126,8|2,0:0|0:0,0:0:0:0:
406,308,64678,2,0,L|249:334,1,143.999995605469,2|2,0:0|0:0,0:0:0:0:
229,334,65049,2,0,P|183:328|130:288,1,95.9999970703126,8|2,0:0|0:0,0:0:0:0:
128,144,65419,6,0,P|168:118|215:111,1,95.9999970703126,4|0,0:0|0:0,0:0:0:0:
369,233,65790,1,8,0:0:0:0:
204,225,65975,1,2,0:0:0:0:
381,109,66160,1,4,0:3:0:0:
381,109,66345,1,4,0:3:0:0:
285,331,66530,1,0,1:1:0:0:
128,144,66715,6,0,B|187:123|187:123|253:148|253:148|309:131,1,191.999994140625,4|0,0:0|0:0,0:0:0:0:
414,31,67271,1,8,0:0:0:0:
501,145,67456,2,0,L|486:246,1,95.9999970703126,0|2,0:0|0:0,0:0:0:0:
285,331,67827,1,0,0:0:0:0:
351,195,68012,1,8,0:0:0:0:
469,325,68197,6,0,B|382:358|370:277|279:334,1,191.999994140625,2|0,0:0|0:0,0:0:0:0:
213,214,68753,1,8,0:0:0:0:
347,104,68938,1,0,0:0:0:0:
347,104,69123,2,0,P|361:149|352:195,1,95.9999970703126,2|0,0:0|0:0,0:0:0:0:
213,214,69493,1,8,0:0:0:0:
387,296,69678,1,0,0:0:0:0:
144,368,69864,5,6,0:0:0:0:
277,153,70049,1,0,0:0:0:0:
274,349,70234,5,8,0:0:0:0:
141,130,70419,1,0,0:0:0:0:
387,296,70604,5,6,0:0:0:0:
58,242,70790,1,8,0:0:0:0:
58,242,70882,1,8,0:0:0:0:
58,242,70975,2,0,P|109:273|149:274,1,95.9999970703126,8|0,0:0|0:0,0:0:0:0:
287,199,71345,6,0,L|272:130,1,47.9999985351563,6|0,0:0|0:0,0:0:0:0:
416,123,71530,2,0,L|431:54,1,47.9999985351563,6|0,0:0|0:0,0:0:0:0:
466,318,71901,6,0,L|303:303,1,143.999995605469,4|0,0:0|0:0,0:0:0:0:
238,274,72271,1,8,0:0:0:0:
220,257,72364,1,8,0:0:0:0:
208,236,72456,1,8,0:0:0:0:
199,214,72549,1,8,0:0:0:0:
196,190,72641,6,0,P|204:112|309:54,1,191.999994140625,12|0,0:0|0:0,0:0:0:0:
477,141,73197,2,0,P|430:147|384:131,1,95.9999970703126,8|0,0:0|0:0,0:0:0:0:
293,53,73567,1,2,0:0:0:0:
365,221,73753,1,0,0:0:0:0:
405,42,73938,1,8,0:0:0:0:
267,163,74123,6,0,B|183:202|165:130|81:164,1,191.999994140625,2|0,0:0|0:0,0:0:0:0:
135,354,74678,2,0,L|126:259,1,95.9999970703126,8|0,0:0|0:0,0:0:0:0:
258,67,75049,2,0,L|267:162,1,95.9999970703126,2|0,0:0|0:0,0:0:0:0:
364,292,75419,1,8,0:0:0:0:
431,143,75604,1,0,0:0:0:0:
258,67,75790,6,0,P|197:101|99:105,1,143.999995605469,2|2,0:0|0:0,0:0:0:0:
92,96,76160,2,0,L|111:209,1,95.9999970703126,8|2,0:0|0:0,0:0:0:0:
204,341,76530,2,0,B|240:325|276:335|276:335|308:344|345:335,1,143.999995605469,2|2,0:0|0:0,0:0:0:0:
374,340,76901,1,8,0:0:0:0:
349,135,77086,1,2,0:0:0:0:
244,242,77271,6,0,P|290:245|340:250,1,95.9999970703126,12|0,0:0|0:0,0:0:0:0:
139,155,77641,2,0,P|92:158|31:166,1,103.999995239258,12|0,0:0|0:0,0:0:0:0:
235,352,78012,2,0,P|245:294|243:240,1,111.999996582031,12|8,0:0|0:0,0:0:0:0:
219,157,78290,1,8,0:0:0:0:
217,143,78382,1,8,0:0:0:0:
214,129,78475,1,8,0:0:0:0:
212,115,78567,6,0,P|291:99|420:117,1,191.999994140625,12|0,0:0|0:0,0:0:0:0:
327,241,79123,1,8,0:0:0:0:
150,202,79308,2,0,P|114:169|102:121,1,95.9999970703126,0|2,0:0|0:0,0:0:0:0:
327,241,79678,1,0,0:0:0:0:
204,374,79864,1,8,0:0:0:0:
150,202,80049,6,0,P|196:187|244:200,1,95.9999970703126,0|2,0:0|0:0,0:0:0:0:
464,339,80419,2,0,P|417:353|369:340,1,95.9999970703126,0|8,0:0|0:0,0:0:0:0:
399,81,80790,2,0,L|409:197,1,95.9999970703126,0|2,0:0|0:0,0:0:0:0:
314,270,81160,1,8,0:0:0:0:
241,119,81345,1,0,0:0:0:0:
427,34,81530,6,0,L|440:236,1,191.999994140625,4|12,0:0|0:0,0:0:0:0:
358,342,82086,5,8,0:0:0:0:
241,119,82271,1,2,0:0:0:0:
225,347,82456,5,8,0:0:0:0:
373,113,82641,1,2,0:0:0:0:
147,224,82827,5,8,0:0:0:0:
451,236,83012,1,2,0:0:0:0:
118,105,83197,6,0,P|66:97|21:119,1,95.9999970703126,4|0,0:0|0:0,0:0:0:0:
147,224,83567,2,0,L|308:213,1,143.999995605469,4|0,0:0|0:0,0:0:0:0:
367,183,83938,1,8,0:0:0:0:
380,174,84030,1,8,0:0:0:0:
392,163,84123,1,8,0:0:0:0:
401,150,84215,1,8,0:0:0:0:
408,136,84308,2,0,L|418:58,2,47.9999985351563,8|0|0,0:0|0:0|0:0,0:0:0:0:
290,214,84678,6,0,L|107:196,1,160,4|8,0:0|0:0,0:0:0:0:
255,305,85234,1,0,0:0:0:0:
272,114,85419,2,0,L|182:105,1,80,2|0,0:0|0:0,0:0:0:0:
290,214,85790,1,8,0:0:0:0:
371,110,85975,6,0,P|346:48|284:15,1,120,10|0,0:0|0:0,0:0:0:0:
265,10,86345,1,8,0:0:0:0:
48,160,86530,1,12,0:0:0:0:
256,192,86623,12,0,87641,0:0:0:0:
