osu file format v14

[General]
AudioFilename: audio.mp3
AudioLeadIn: 0
PreviewTime: 60512
Countdown: 0
SampleSet: None
StackLeniency: 0.7
Mode: 3
LetterboxInBreaks: 0
SpecialStyle: 0
WidescreenStoryboard: 1

[Editor]
DistanceSpacing: 1
BeatDivisor: 4
GridSize: 4
TimelineZoom: 1.9

[Metadata]
Title:Korekara (TV Size)
TitleUnicode:コレカラ (TV Size)
Artist:Machico
ArtistUnicode:Machico
Creator:_Asha
Version:Hard
Source:りゅうおうのおしごと!
Tags:Ryuuou no Oshigoto opening Amiichii dudehacker
BeatmapID:1668250
BeatmapSetID:794264

[Difficulty]
HPDrainRate:7.5
CircleSize:4
OverallDifficulty:7.5
ApproachRate:5
SliderMultiplier:1.4
SliderTickRate:1

[Events]
//Background and Video events
0,0,"Korekara (TV Size).jpg",0,0
Video,0,"Video.mp4"
//Break Periods
//Storyboard Layer 0 (Background)
//Storyboard Layer 1 (Fail)
//Storyboard Layer 2 (Pass)
//Storyboard Layer 3 (Foreground)
//Storyboard Sound Samples
Sample,38197,0,"HHClose.wav",50
Sample,38567,0,"HHClose.wav",50
Sample,38938,0,"HHClose.wav",50
Sample,39678,0,"HHClose.wav",50
Sample,42641,0,"HHClose.wav",50
Sample,44123,0,"HHClose.wav",50
Sample,44493,0,"HHClose.wav",50
Sample,44864,0,"HHClose.wav",50
Sample,45419,0,"HHClose.wav",50
Sample,47086,0,"HHClose.wav",50
Sample,49864,0,"Tom3.wav",50
Sample,50049,0,"Tom3.wav",50
Sample,51345,0,"Tom3.wav",50
Sample,51530,0,"Tom3.wav",50
Sample,52827,0,"Tom3.wav",50
Sample,53012,0,"Tom3.wav",50
Sample,54308,0,"Tom3.wav",50
Sample,54493,0,"Tom3.wav",50

[TimingPoints]
1716,370.37037037037,4,3,1,50,1,0
25419,-100,4,3,1,30,0,0
37271,-100,4,3,1,50,0,0
55790,-100,4,3,1,30,0,0
58012,-100,4,3,1,50,0,0
60790,-100,4,3,1,50,0,1
71901,-100,4,3,1,50,0,0
72641,-100,4,3,1,50,0,1
83197,-100,4,3,1,50,0,0

[HitObjects]
64,192,1716,5,10,0:0:0:0:
320,192,1716,1,0,0:0:0:70:Tom3.wav
192,192,1901,1,8,0:0:0:0:
448,192,1901,1,0,0:0:0:70:Tom3.wav
64,192,2456,1,0,0:0:0:70:Tom3.wav
192,192,2456,1,10,0:0:0:0:
448,192,2641,1,0,0:0:0:70:Tom3.wav
320,192,2641,1,8,0:0:0:0:
64,192,2827,1,2,0:0:0:0:
448,192,2827,1,0,0:0:0:0:
192,192,3012,128,8,3197:0:0:0:0:
320,192,3012,128,0,3197:0:0:0:60:CrashRight.wav
64,192,3382,128,0,3567:0:0:0:60:CrashLeft.wav
320,192,3382,128,8,3567:0:0:0:0:
448,192,3753,128,8,4123:0:0:0:0:
192,192,3753,1,0,0:0:0:60:CrashRight.wav
64,192,4123,1,8,0:0:0:0:
192,192,4215,1,8,0:0:0:0:
448,192,4308,1,8,0:0:0:0:
320,192,4401,1,8,0:0:0:0:
64,192,4493,1,8,0:0:0:0:
192,192,4586,1,8,0:0:0:0:
320,192,4678,1,2,0:0:0:0:
448,192,4678,1,0,0:0:0:60:CrashLeft.wav
64,192,5419,1,2,0:0:0:0:
192,192,5419,1,0,0:0:0:60:CrashRight.wav
192,192,6160,1,2,0:0:0:0:
448,192,6160,1,0,0:0:0:60:CrashLeft.wav
64,192,6530,1,0,0:0:0:60:CrashRight.wav
320,192,6530,1,2,0:0:0:0:
448,192,6901,1,8,0:0:0:0:
320,192,6901,1,2,0:0:0:0:
192,192,7086,1,8,0:0:0:0:
64,192,7086,1,0,0:0:0:0:
320,192,7178,1,8,0:0:0:0:
448,192,7271,1,8,0:0:0:0:
64,192,7641,1,2,0:0:0:0:
448,192,7641,1,0,0:0:0:60:CrashLeft.wav
192,192,7827,1,0,0:0:0:0:
320,192,8012,1,6,0:0:0:0:
448,192,8197,1,0,0:0:0:0:
192,192,8382,1,4,0:0:0:0:
320,192,8382,1,2,0:0:0:0:
64,192,8567,1,0,0:0:0:0:
448,192,8753,1,6,0:0:0:0:
192,192,8938,1,0,0:0:0:0:
64,192,9123,1,2,0:0:0:0:
448,192,9123,1,4,0:0:0:0:
320,192,9308,1,0,0:0:0:0:
64,192,9493,1,6,0:0:0:0:
448,192,9678,1,0,0:0:0:0:
192,192,9864,1,4,0:0:0:0:
320,192,9864,1,2,0:0:0:0:
64,192,10049,1,0,0:0:0:0:
320,192,10234,1,6,0:0:0:0:
448,192,10419,1,0,0:0:0:0:
64,192,10604,1,2,0:0:0:0:
320,192,10604,1,4,0:0:0:0:
192,192,10604,1,8,0:0:0:0:
64,192,12086,1,8,0:0:0:0:
448,192,12086,1,0,0:0:0:60:CrashRight.wav
320,192,12086,128,2,12271:0:0:0:0:
448,192,12456,1,0,0:0:0:60:CrashLeft.wav
320,192,12456,128,2,12827:0:0:0:0:
64,192,12456,1,8,0:0:0:0:
192,192,12827,1,0,0:0:0:70:Tom1.wav
64,192,12827,128,2,13197:0:0:0:0:
192,192,13197,1,0,0:0:0:70:Tom3.wav
320,192,13382,1,2,0:0:0:0:
448,192,13382,128,0,14308:0:0:0:60:CrashRight.wav
64,192,13382,1,0,0:0:0:0:
320,192,13753,1,2,0:0:0:0:
64,192,13938,1,4,0:0:0:0:
192,192,13938,1,10,0:0:0:0:
64,192,14123,1,0,0:0:0:0:
320,192,14308,1,8,0:0:0:0:
192,192,14308,1,4,0:0:0:0:
320,192,14493,1,2,0:0:0:0:
64,192,14678,1,8,0:0:0:0:
448,192,14678,1,0,0:0:0:0:
320,192,14864,128,2,15790:0:0:0:0:
192,192,14864,1,0,0:0:0:60:CrashLeft.wav
192,192,15234,1,2,0:0:0:0:
64,192,15419,1,10,0:0:0:0:
448,192,15419,1,4,0:0:0:0:
64,192,15604,1,0,0:0:0:0:
192,192,15790,1,8,0:0:0:0:
448,192,15790,1,4,0:0:0:0:
320,192,15975,1,2,0:0:0:0:
64,192,16160,1,8,0:0:0:0:
448,192,16160,1,0,0:0:0:0:
192,192,16345,128,0,17271:0:0:0:60:CrashLeft.wav
320,192,16345,1,2,0:0:0:0:
448,192,16715,1,2,0:0:0:0:
320,192,16901,1,10,0:0:0:0:
64,192,16901,1,4,0:0:0:0:
64,192,17086,1,0,0:0:0:0:
448,192,17271,1,4,0:0:0:0:
320,192,17271,1,10,0:0:0:0:
64,192,17456,1,8,0:0:0:0:
320,192,17549,1,8,0:0:0:0:
192,192,17641,1,8,0:0:0:0:
448,192,17734,1,8,0:0:0:0:
64,192,17827,128,2,18012:0:0:0:0:
192,192,17827,128,4,18012:0:0:0:0:
192,192,18197,128,2,18382:0:0:0:0:
448,192,18197,128,4,18382:0:0:0:0:
320,192,18567,128,4,18753:0:0:0:0:
448,192,18567,128,2,18753:0:0:0:0:
64,192,18938,128,2,19123:0:0:0:0:
320,192,18938,128,4,19123:0:0:0:0:
448,192,19308,1,2,0:0:0:0:
192,192,19308,1,0,0:0:0:60:CrashLeft.wav
64,192,19308,128,0,20234:0:0:0:0:
320,192,19678,1,2,0:0:0:0:
448,192,19864,1,0,0:0:0:60:CrashRight.wav
192,192,19864,1,10,0:0:0:0:
448,192,20049,1,0,0:0:0:0:
320,192,20234,1,8,0:0:0:0:
192,192,20234,1,4,0:0:0:0:
320,192,20419,1,2,0:0:0:0:
64,192,20604,1,8,0:0:0:0:
192,192,20604,1,4,0:0:0:0:
320,192,20790,1,0,0:0:0:0:
448,192,20790,128,2,21715:0:0:0:0:
64,192,20975,1,8,0:0:0:0:
192,192,20975,1,4,0:0:0:0:
192,192,21160,1,2,0:0:0:0:
64,192,21345,1,8,0:0:0:0:
320,192,21345,1,6,0:0:0:0:
64,192,21530,1,0,0:0:0:0:
192,192,21715,1,8,0:0:0:0:
320,192,21715,1,4,0:0:0:0:
64,192,21901,1,2,0:0:0:0:
320,192,22086,1,4,0:0:0:0:
448,192,22086,1,8,0:0:0:0:
64,192,22271,1,2,0:0:0:0:
192,192,22271,128,0,22827:0:0:0:0:
320,192,22456,1,10,0:0:0:0:
448,192,22456,1,4,0:0:0:0:
320,192,22641,1,0,0:0:0:0:
64,192,22827,1,2,0:0:0:0:
448,192,22827,1,12,0:0:0:0:
64,192,23012,1,0,0:0:0:0:
320,192,23197,128,10,23567:0:0:0:0:
192,192,23197,1,4,0:0:0:0:
192,192,23382,1,0,0:0:0:0:
64,192,23567,1,10,0:0:0:0:
448,192,23567,1,4,0:0:0:0:
192,192,23753,128,4,23938:0:0:0:0:
320,192,23753,128,2,23938:0:0:0:0:
64,192,24123,128,4,24308:0:0:0:0:
448,192,24123,128,2,24308:0:0:0:0:
448,192,24493,128,0,25327:0:0:0:60:CrashLeft.wav
320,192,24493,128,10,25327:0:0:0:0:
64,192,25234,1,8,0:0:0:0:
192,192,25327,1,8,0:0:0:0:
448,192,25419,1,2,0:0:0:0:
320,192,25419,1,0,0:0:0:60:CrashRight.wav
192,192,25604,1,0,0:0:0:0:
64,192,25790,1,2,0:0:0:0:
448,192,25790,1,0,0:0:0:50:HHClose.wav
320,192,25975,1,0,0:0:0:50:HHClose.wav
192,192,26160,1,2,0:0:0:0:
448,192,26160,1,0,0:0:0:50:HHClose.wav
64,192,26345,1,0,0:0:0:50:HHClose.wav
192,192,26530,1,2,0:0:0:0:
320,192,26530,1,0,0:0:0:50:HHClose.wav
448,192,26715,1,0,0:0:0:50:HHClose.wav
64,192,26901,1,2,0:0:0:0:
320,192,26901,1,0,0:0:0:50:HHClose.wav
192,192,27086,1,0,0:0:0:50:HHClose.wav
320,192,27271,1,2,0:0:0:0:
448,192,27271,1,0,0:0:0:50:HHClose.wav
64,192,27456,1,0,0:0:0:50:HHClose.wav
192,192,27641,1,2,0:0:0:0:
320,192,27641,1,0,0:0:0:50:HHClose.wav
448,192,27827,1,0,0:0:0:50:HHClose.wav
64,192,28012,1,0,0:0:0:50:HHClose.wav
192,192,28012,1,2,0:0:0:0:
320,192,28197,1,0,0:0:0:50:HHClose.wav
192,192,28382,1,0,0:0:0:50:HHClose.wav
448,192,28382,1,2,0:0:0:0:
64,192,28567,1,0,0:0:0:50:HHClose.wav
192,192,28753,1,0,0:0:0:50:HHClose.wav
320,192,28753,1,2,0:0:0:0:
448,192,28938,1,0,0:0:0:50:HHClose.wav
64,192,29123,1,2,0:0:0:0:
192,192,29123,1,0,0:0:0:50:HHClose.wav
320,192,29308,1,0,0:0:0:50:HHClose.wav
64,192,29493,1,2,0:0:0:0:
448,192,29493,1,0,0:0:0:50:HHClose.wav
192,192,29678,1,0,0:0:0:50:HHClose.wav
320,192,29864,1,2,0:0:0:0:
448,192,29864,1,0,0:0:0:50:HHClose.wav
64,192,30049,1,0,0:0:0:50:HHClose.wav
192,192,30234,1,0,0:0:0:50:HHClose.wav
448,192,30234,1,2,0:0:0:0:
320,192,30419,1,0,0:0:0:50:HHClose.wav
64,192,30604,1,0,0:0:0:50:HHClose.wav
192,192,30604,1,2,0:0:0:0:
448,192,30790,1,0,0:0:0:50:HHClose.wav
64,192,30975,1,0,0:0:0:50:HHClose.wav
192,192,30975,1,2,0:0:0:0:
320,192,31160,1,4,0:0:0:0:
64,192,31345,1,0,0:0:0:50:HHClose.wav
192,192,31345,1,2,0:0:0:0:
448,192,31530,1,0,0:0:0:50:HHClose.wav
64,192,31715,1,2,0:0:0:0:
320,192,31715,1,0,0:0:0:50:HHClose.wav
192,192,31901,1,0,0:0:0:50:HHClose.wav
320,192,32086,1,2,0:0:0:0:
448,192,32086,1,0,0:0:0:50:HHClose.wav
64,192,32271,1,0,0:0:0:50:HHClose.wav
320,192,32456,1,2,0:0:0:0:
448,192,32456,1,0,0:0:0:50:HHClose.wav
192,192,32641,1,0,0:0:0:50:HHClose.wav
320,192,32827,1,2,0:0:0:0:
448,192,32827,1,0,0:0:0:50:HHClose.wav
64,192,33012,1,0,0:0:0:50:HHClose.wav
192,192,33197,1,0,0:0:0:50:HHClose.wav
448,192,33197,1,2,0:0:0:0:
320,192,33382,1,0,0:0:0:50:HHClose.wav
64,192,33567,1,0,0:0:0:50:HHClose.wav
192,192,33567,1,2,0:0:0:0:
448,192,33753,1,0,0:0:0:50:HHClose.wav
64,192,33938,1,0,0:0:0:50:HHClose.wav
320,192,33938,1,2,0:0:0:0:
192,192,34123,1,0,0:0:0:50:HHClose.wav
64,192,34308,1,2,0:0:0:0:
448,192,34308,1,0,0:0:0:50:HHClose.wav
192,192,34493,1,0,0:0:0:50:HHClose.wav
320,192,34678,1,0,0:0:0:50:HHClose.wav
448,192,34678,1,2,0:0:0:0:
64,192,34864,1,0,0:0:0:50:HHClose.wav
320,192,35049,1,0,0:0:0:50:HHClose.wav
192,192,35049,1,2,0:0:0:0:
448,192,35234,1,0,0:0:0:50:HHClose.wav
64,192,35419,1,0,0:0:0:50:HHClose.wav
192,192,35419,1,2,0:0:0:0:
320,192,35604,1,2,0:0:0:0:
448,192,35604,1,12,0:0:0:0:
192,192,35975,128,0,36160:0:0:0:0:
320,192,36160,128,0,36345:0:0:0:0:
448,192,36345,128,0,36530:0:0:0:0:
64,192,36530,128,0,36715:0:0:0:0:
320,192,36715,1,2,0:0:0:0:
192,192,36715,128,0,36901:0:0:0:0:
64,192,36901,1,8,0:0:0:0:
448,192,36901,128,0,37271:0:0:0:70:Tom3.wav
64,192,37271,1,2,0:0:0:0:
192,192,37271,1,0,0:0:0:60:CrashRight.wav
320,192,37271,1,0,0:0:0:0:
448,192,37641,1,8,0:0:0:0:
320,192,37641,1,0,0:0:0:50:HHClose.wav
192,192,37827,128,0,38012:0:0:0:50:HHClose.wav
64,192,38012,1,2,0:0:0:0:
320,192,38012,1,0,0:0:0:50:HHClose.wav
448,192,38197,1,2,0:0:0:0:
64,192,38382,1,8,0:0:0:0:
192,192,38382,1,0,0:0:0:50:HHClose.wav
448,192,38567,1,2,0:0:0:0:
192,192,38753,1,0,0:0:0:50:HHClose.wav
320,192,38938,1,2,0:0:0:0:
64,192,39123,1,8,0:0:0:0:
192,192,39123,1,0,0:0:0:50:HHClose.wav
448,192,39308,128,0,39493:0:0:0:50:HHClose.wav
320,192,39493,1,2,0:0:0:0:
64,192,39493,1,0,0:0:0:50:HHClose.wav
192,192,39678,1,2,0:0:0:0:
448,192,39864,1,8,0:0:0:0:
64,192,39864,1,0,0:0:0:50:HHClose.wav
320,192,40049,1,0,0:0:0:50:HHClose.wav
192,192,40234,1,2,0:0:0:0:
448,192,40234,1,0,0:0:0:60:CrashLeft.wav
64,192,40234,1,0,0:0:0:0:
320,192,40419,1,4,0:0:0:0:
64,192,40604,1,8,0:0:0:0:
192,192,40604,1,0,0:0:0:30:Hat Pedal.wav
448,192,40790,1,2,0:0:0:0:
320,192,40790,1,0,0:0:0:60:CrashRight.wav
64,192,40790,1,0,0:0:0:0:
448,192,41160,1,6,0:0:0:0:
192,192,41345,1,8,0:0:0:0:
320,192,41345,1,0,0:0:0:30:Hat Pedal.wav
64,192,41530,1,2,0:0:0:0:
192,192,41530,1,0,0:0:0:60:CrashLeft.wav
448,192,41530,1,0,0:0:0:0:
320,192,41901,1,2,0:0:0:0:
64,192,42086,1,8,0:0:0:0:
192,192,42086,128,0,42456:0:0:0:50:HHClose.wav
320,192,42456,128,2,42827:0:0:0:0:
448,192,42456,1,0,0:0:0:50:HHClose.wav
192,192,42641,1,2,0:0:0:0:
448,192,42827,128,8,43197:0:0:0:0:
64,192,42827,1,0,0:0:0:50:HHClose.wav
192,192,43197,1,2,0:0:0:0:
64,192,43197,1,0,0:0:0:60:CrashLeft.wav
320,192,43197,1,0,0:0:0:0:
320,192,43567,1,8,0:0:0:0:
448,192,43567,1,0,0:0:0:50:HHClose.wav
64,192,43753,128,0,43938:0:0:0:50:HHClose.wav
192,192,43938,1,2,0:0:0:0:
320,192,43938,1,0,0:0:0:50:HHClose.wav
448,192,44123,1,2,0:0:0:0:
64,192,44308,1,8,0:0:0:0:
192,192,44308,1,0,0:0:0:50:HHClose.wav
320,192,44493,1,2,0:0:0:0:
64,192,44678,1,0,0:0:0:50:HHClose.wav
448,192,44864,1,2,0:0:0:0:
64,192,45049,1,8,0:0:0:0:
192,192,45049,1,0,0:0:0:50:HHClose.wav
448,192,45234,128,0,45419:0:0:0:50:HHClose.wav
64,192,45419,128,2,45604:0:0:0:0:
192,192,45604,1,2,0:0:0:0:
320,192,45604,1,0,0:0:0:50:HHClose.wav
64,192,45790,1,8,0:0:0:0:
448,192,45790,1,0,0:0:0:50:HHClose.wav
192,192,45975,1,0,0:0:0:50:HHClose.wav
64,192,46160,1,2,0:0:0:0:
448,192,46160,1,0,0:0:0:60:CrashLeft.wav
320,192,46160,128,0,46530:0:0:0:0:
64,192,46530,1,8,0:0:0:0:
192,192,46530,1,0,0:0:0:50:HHClose.wav
448,192,46715,1,0,0:0:0:50:HHClose.wav
448,192,46901,1,8,0:0:0:0:
320,192,46901,1,0,0:0:0:50:HHClose.wav
64,192,47086,1,2,0:0:0:0:
64,192,47271,1,8,0:0:0:0:
192,192,47271,1,0,0:0:0:50:HHClose.wav
448,192,47456,1,0,0:0:0:50:HHClose.wav
320,192,47641,1,10,0:0:0:0:
192,192,47641,128,0,48012:0:0:0:50:HHClose.wav
64,192,48012,1,8,0:0:0:0:
448,192,48012,1,0,0:0:0:50:HHClose.wav
320,192,48197,1,0,0:0:0:50:HHClose.wav
64,192,48197,1,0,0:0:0:0:
448,192,48382,1,8,0:0:0:0:
192,192,48382,1,6,0:0:0:0:
64,192,48567,1,8,0:0:0:0:
320,192,48660,1,8,0:0:0:0:
192,192,48753,1,8,0:0:0:0:
448,192,48845,1,8,0:0:0:0:
64,192,48938,1,8,0:0:0:0:
320,192,49030,1,8,0:0:0:0:
192,192,49123,1,2,0:0:0:0:
64,192,49123,1,0,0:0:0:60:CrashLeft.wav
448,192,49123,1,0,0:0:0:0:
64,192,49493,1,8,0:0:0:0:
448,192,49493,1,0,0:0:0:70:Tom3.wav
192,192,49678,1,0,0:0:0:50:Tom3.wav
320,192,49771,1,0,0:0:0:50:Tom1.wav
448,192,49864,1,2,0:0:0:0:
192,192,50049,1,2,0:0:0:0:
64,192,50234,1,0,0:0:0:70:Tom3.wav
320,192,50234,1,8,0:0:0:0:
192,192,50604,1,2,0:0:0:0:
320,192,50604,1,0,0:0:0:70:Tom3.wav
64,192,50975,1,0,0:0:0:70:Tom3.wav
448,192,50975,1,8,0:0:0:0:
320,192,51160,1,0,0:0:0:50:Tom3.wav
192,192,51253,1,0,0:0:0:50:Tom1.wav
64,192,51345,1,2,0:0:0:0:
320,192,51530,1,2,0:0:0:0:
448,192,51715,1,0,0:0:0:70:Tom3.wav
192,192,51715,1,8,0:0:0:0:
192,192,52086,1,2,0:0:0:0:
320,192,52086,1,0,0:0:0:70:Tom3.wav
64,192,52456,1,0,0:0:0:70:Tom3.wav
448,192,52456,1,8,0:0:0:0:
192,192,52641,1,0,0:0:0:50:Tom3.wav
320,192,52734,1,0,0:0:0:50:Tom1.wav
448,192,52827,1,2,0:0:0:0:
64,192,53012,1,2,0:0:0:0:
448,192,53197,1,0,0:0:0:70:Tom3.wav
192,192,53197,1,8,0:0:0:0:
192,192,53567,1,0,0:0:0:70:Tom3.wav
320,192,53567,1,2,0:0:0:0:
64,192,53938,1,8,0:0:0:0:
448,192,53938,1,0,0:0:0:70:Tom3.wav
320,192,54123,1,0,0:0:0:50:Tom3.wav
192,192,54215,1,0,0:0:0:50:Tom1.wav
64,192,54308,1,2,0:0:0:0:
448,192,54493,1,2,0:0:0:0:
64,192,54678,1,8,0:0:0:0:
192,192,54678,1,0,0:0:0:70:Tom3.wav
320,192,54864,1,8,0:0:0:0:
448,192,54864,1,4,0:0:0:0:
64,192,55049,128,0,55790:0:0:0:30:Hat Pedal.wav
192,192,55790,128,0,56160:0:0:0:0:
320,192,56160,128,0,56530:0:0:0:0:
192,192,56530,128,0,57271:0:0:0:0:
448,192,57271,128,0,58012:0:0:0:0:
64,192,58012,1,2,0:0:0:0:
192,192,58012,1,8,0:0:0:0:
320,192,58197,1,8,0:0:0:0:
64,192,58382,1,2,0:0:0:0:
448,192,58382,1,8,0:0:0:0:
192,192,58567,1,8,0:0:0:0:
320,192,58753,1,2,0:0:0:0:
448,192,58753,1,8,0:0:0:0:
64,192,58938,1,8,0:0:0:0:
192,192,59030,1,8,0:0:0:0:
448,192,59123,1,8,0:0:0:0:
320,192,59123,1,0,0:0:0:0:
192,192,59215,1,8,0:0:0:0:
64,192,59215,1,0,0:0:0:0:
448,192,59308,1,10,0:0:0:0:
320,192,59308,128,0,59678:0:0:0:70:Tom3.wav
64,192,59678,1,0,0:0:0:70:Tom3.wav
192,192,59678,1,8,0:0:0:0:
320,192,59864,1,0,0:0:0:70:Tom3.wav
192,192,59864,1,8,0:0:0:0:
64,192,60049,1,8,0:0:0:0:
448,192,60049,1,0,0:0:0:70:Tom3.wav
320,192,60049,1,0,0:0:0:0:
320,192,60604,1,0,0:0:0:0:
64,192,60790,1,2,0:0:0:0:
192,192,60790,1,0,0:0:0:0:
448,192,60790,128,0,61160:0:0:0:60:CrashRight.wav
64,192,61160,1,2,0:0:0:0:
320,192,61160,1,0,0:0:0:0:
192,192,61345,1,8,0:0:0:0:
448,192,61345,1,0,0:0:0:60:CrashLeft.wav
64,192,61530,1,0,0:0:0:0:
320,192,61715,1,2,0:0:0:0:
448,192,61715,1,4,0:0:0:0:
192,192,61901,1,2,0:0:0:0:
64,192,61901,1,0,0:0:0:0:
192,192,62086,1,4,0:0:0:0:
448,192,62086,1,8,0:0:0:0:
320,192,62271,1,2,0:0:0:0:
448,192,62271,1,0,0:0:0:0:
64,192,62456,1,4,0:0:0:0:
320,192,62641,1,2,0:0:0:0:
448,192,62641,1,0,0:0:0:0:
64,192,62827,1,4,0:0:0:0:
320,192,62827,1,8,0:0:0:0:
192,192,63012,1,0,0:0:0:0:
448,192,63197,1,4,0:0:0:0:
320,192,63197,1,2,0:0:0:0:
64,192,63382,1,2,0:0:0:0:
192,192,63382,1,0,0:0:0:0:
448,192,63567,1,8,0:0:0:0:
192,192,63567,1,4,0:0:0:0:
320,192,63753,1,0,0:0:0:0:
192,192,63938,1,4,0:0:0:0:
64,192,63938,128,2,64308:0:0:0:0:
320,192,64308,1,8,0:0:0:0:
448,192,64308,1,4,0:0:0:0:
192,192,64493,1,0,0:0:0:0:
448,192,64678,1,2,0:0:0:0:
320,192,64678,128,4,64864:0:0:0:0:
64,192,64864,1,2,0:0:0:0:
192,192,64864,1,0,0:0:0:0:
192,192,65049,1,8,0:0:0:0:
448,192,65049,1,4,0:0:0:0:
320,192,65234,1,0,0:0:0:0:
64,192,65419,1,4,0:0:0:0:
192,192,65419,128,2,65790:0:0:0:0:
320,192,65790,1,4,0:0:0:0:
448,192,65790,128,8,65975:0:0:0:0:
64,192,65975,1,2,0:0:0:0:
192,192,65975,1,0,0:0:0:0:
320,192,66160,128,4,66345:0:0:0:0:
192,192,66345,1,2,0:0:0:0:
64,192,66345,1,0,0:0:0:0:
448,192,66530,1,4,0:0:0:0:
192,192,66530,1,8,0:0:0:0:
320,192,66715,1,2,0:0:0:0:
64,192,66715,1,0,0:0:0:60:CrashLeft.wav
448,192,66715,128,0,67086:0:0:0:0:
64,192,67086,1,2,0:0:0:0:
192,192,67086,1,0,0:0:0:0:
192,192,67271,1,8,0:0:0:0:
448,192,67271,1,4,0:0:0:0:
320,192,67456,1,0,0:0:0:0:
64,192,67641,1,2,0:0:0:0:
192,192,67641,1,4,0:0:0:0:
448,192,67827,1,2,0:0:0:0:
320,192,67827,1,0,0:0:0:0:
64,192,68012,1,8,0:0:0:0:
320,192,68012,1,4,0:0:0:0:
192,192,68197,1,2,0:0:0:0:
64,192,68197,128,0,68382:0:0:0:0:
448,192,68382,1,4,0:0:0:0:
64,192,68567,1,2,0:0:0:0:
192,192,68567,1,0,0:0:0:0:
192,192,68753,1,8,0:0:0:0:
448,192,68753,1,4,0:0:0:0:
320,192,68938,1,2,0:0:0:0:
448,192,68938,1,0,0:0:0:0:
192,192,69123,1,4,0:0:0:0:
448,192,69308,1,2,0:0:0:0:
320,192,69308,1,0,0:0:0:0:
64,192,69493,1,8,0:0:0:0:
320,192,69493,1,4,0:0:0:0:
192,192,69678,1,0,0:0:0:0:
448,192,69864,1,2,0:0:0:0:
64,192,69864,128,0,70234:0:0:0:60:CrashLeft.wav
320,192,69864,1,0,0:0:0:0:
192,192,70234,1,8,0:0:0:0:
448,192,70234,128,4,70604:0:0:0:0:
320,192,70604,1,4,0:0:0:0:
192,192,70604,128,2,70790:0:0:0:0:
64,192,70790,1,8,0:0:0:0:
448,192,70790,1,0,0:0:0:0:
320,192,70882,1,8,0:0:0:0:
192,192,70975,1,8,0:0:0:0:
64,192,70975,1,0,0:0:0:0:
448,192,70975,1,0,0:0:0:0:
64,192,71345,1,8,0:0:0:0:
192,192,71345,1,0,0:0:0:70:Tom3.wav
320,192,71345,1,0,0:0:0:0:
192,192,71530,1,0,0:0:0:70:Tom3.wav
64,192,71530,1,8,0:0:0:0:
320,192,71530,1,0,0:0:0:0:
64,192,71901,1,2,0:0:0:0:
320,192,71901,1,0,0:0:0:60:CrashRight.wav
448,192,71901,128,0,72456:0:0:0:0:
192,192,72271,1,8,0:0:0:0:
320,192,72364,1,8,0:0:0:0:
64,192,72456,1,8,0:0:0:0:
320,192,72549,1,8,0:0:0:0:
448,192,72641,1,0,0:0:0:60:CrashLeft.wav
192,192,72641,1,2,0:0:0:0:
64,192,72641,128,0,73012:0:0:0:0:
320,192,73012,1,2,0:0:0:0:
448,192,73012,1,0,0:0:0:0:
64,192,73197,1,8,0:0:0:0:
320,192,73197,1,0,0:0:0:0:
448,192,73382,1,4,0:0:0:0:
64,192,73567,1,2,0:0:0:0:
192,192,73567,1,0,0:0:0:0:
448,192,73753,1,4,0:0:0:0:
320,192,73753,1,2,0:0:0:0:
64,192,73938,1,8,0:0:0:0:
320,192,73938,1,0,0:0:0:0:
192,192,74123,128,2,74493:0:0:0:0:
64,192,74123,1,4,0:0:0:0:
448,192,74493,1,2,0:0:0:0:
320,192,74493,1,4,0:0:0:0:
320,192,74678,1,8,0:0:0:0:
64,192,74678,1,0,0:0:0:0:
448,192,74864,128,4,75049:0:0:0:0:
192,192,75049,1,2,0:0:0:0:
64,192,75049,1,0,0:0:0:0:
64,192,75234,1,4,0:0:0:0:
320,192,75234,128,2,75419:0:0:0:0:
192,192,75419,1,8,0:0:0:0:
448,192,75419,1,0,0:0:0:0:
64,192,75604,128,4,75790:0:0:0:0:
320,192,75790,1,2,0:0:0:0:
448,192,75790,128,0,75975:0:0:0:0:
192,192,75975,1,4,0:0:0:0:
64,192,76160,1,8,0:0:0:0:
320,192,76160,1,0,0:0:0:0:
448,192,76345,1,4,0:0:0:0:
64,192,76530,1,0,0:0:0:0:
192,192,76530,128,2,76715:0:0:0:0:
448,192,76715,1,2,0:0:0:0:
320,192,76715,1,4,0:0:0:0:
192,192,76901,1,8,0:0:0:0:
448,192,76901,1,0,0:0:0:0:
64,192,77086,1,4,0:0:0:0:
320,192,77271,1,2,0:0:0:0:
448,192,77271,128,0,77641:0:0:0:60:CrashLeft.wav
192,192,77271,1,0,0:0:0:0:
64,192,77641,1,2,0:0:0:0:
320,192,77641,128,0,78012:0:0:0:60:CrashRight.wav
192,192,77641,1,0,0:0:0:0:
448,192,78012,1,2,0:0:0:0:
64,192,78012,128,0,78382:0:0:0:60:CrashRight.wav
192,192,78012,1,0,0:0:0:0:
320,192,78197,1,8,0:0:0:0:
192,192,78290,1,8,0:0:0:0:
448,192,78382,1,8,0:0:0:0:
320,192,78475,1,8,0:0:0:0:
64,192,78567,1,2,0:0:0:0:
448,192,78567,1,0,0:0:0:60:CrashLeft.wav
192,192,78567,128,0,78938:0:0:0:0:
320,192,78938,1,2,0:0:0:0:
448,192,78938,1,0,0:0:0:0:
320,192,79123,1,8,0:0:0:0:
64,192,79123,1,4,0:0:0:0:
192,192,79308,1,0,0:0:0:0:
320,192,79493,1,2,0:0:0:0:
448,192,79493,1,4,0:0:0:0:
64,192,79678,1,2,0:0:0:0:
192,192,79678,1,0,0:0:0:0:
192,192,79864,1,4,0:0:0:0:
448,192,79864,1,8,0:0:0:0:
320,192,80049,128,0,80234:0:0:0:0:
192,192,80234,1,2,0:0:0:0:
64,192,80234,1,4,0:0:0:0:
448,192,80419,1,0,0:0:0:0:
320,192,80604,1,8,0:0:0:0:
64,192,80604,1,4,0:0:0:0:
448,192,80790,1,0,0:0:0:0:
192,192,80975,1,2,0:0:0:0:
64,192,80975,1,4,0:0:0:0:
448,192,81160,1,2,0:0:0:0:
320,192,81160,1,0,0:0:0:0:
64,192,81345,1,4,0:0:0:0:
320,192,81345,1,8,0:0:0:0:
448,192,81530,1,2,0:0:0:0:
64,192,81530,128,0,81901:0:0:0:60:CrashLeft.wav
192,192,81530,1,0,0:0:0:0:
320,192,81901,1,2,0:0:0:0:
448,192,81901,1,0,0:0:0:0:
64,192,82086,128,8,82178:0:0:0:0:
192,192,82086,128,4,82178:0:0:0:0:
64,192,82271,1,0,0:0:0:0:
448,192,82271,1,0,0:0:0:0:
192,192,82456,128,4,82549:0:0:0:0:
320,192,82456,128,10,82549:0:0:0:0:
192,192,82641,1,2,0:0:0:0:
64,192,82641,1,0,0:0:0:0:
320,192,82827,128,4,82919:0:0:0:0:
448,192,82827,128,8,82919:0:0:0:0:
448,192,83012,1,2,0:0:0:0:
64,192,83012,1,0,0:0:0:0:
64,192,83197,1,2,0:0:0:0:
320,192,83197,1,8,0:0:0:0:
448,192,83197,128,0,83382:0:0:0:60:CrashRight.wav
320,192,83567,1,8,0:0:0:0:
64,192,83567,1,2,0:0:0:0:
448,192,83567,128,0,83938:0:0:0:60:CrashRight.wav
192,192,83938,1,2,0:0:0:0:
64,192,83938,128,8,84308:0:0:0:0:
448,192,84308,1,0,0:0:0:70:Tom3.wav
320,192,84308,128,0,84678:0:0:0:0:
64,192,84678,1,2,0:0:0:0:
192,192,84678,128,0,85049:0:0:0:60:CrashRight.wav
448,192,85049,1,8,0:0:0:0:
64,192,85049,1,0,0:0:0:30:Hat Pedal.wav
192,192,85234,128,2,85419:0:0:0:0:
320,192,85234,128,4,85419:0:0:0:0:
64,192,85604,128,2,85790:0:0:0:0:
448,192,85604,128,12,85790:0:0:0:0:
320,192,85975,128,6,86160:0:0:0:0:
64,192,85975,128,8,86160:0:0:0:0:
192,192,86345,1,2,0:0:0:0:
320,192,86345,1,0,0:0:0:0:
320,192,86530,1,2,0:0:0:0:
64,192,86530,1,0,0:0:0:60:CrashLeft.wav
448,192,86530,128,0,87641:0:0:0:0:
