osu file format v14

[General]
AudioFilename: audio.mp3
AudioLeadIn: 0
PreviewTime: 60512
Countdown: 0
SampleSet: Soft
StackLeniency: 0.7
Mode: 0
LetterboxInBreaks: 0
WidescreenStoryboard: 0

[Editor]
DistanceSpacing: 0.9
BeatDivisor: 4
GridSize: 4
TimelineZoom: 1.1

[Metadata]
Title:Korekara (TV Size)
TitleUnicode:コレカラ (TV Size)
Artist:Machico
ArtistUnicode:Machico
Creator:Affirmation
Version:Normal
Source:りゅうおうのおしごと!
Tags:Ryuuou no Oshigoto opening tv size YukiZura- Habiholic Asuka_-
BeatmapID:1620775
BeatmapSetID:770524

[Difficulty]
HPDrainRate:4
CircleSize:3.3
OverallDifficulty:4
ApproachRate:5
SliderMultiplier:1
SliderTickRate:1

[Events]
//Background and Video events
0,0,"BG.jpg",0,0
Video,0,"Video.mp4"
//Break Periods
//Storyboard Layer 0 (Background)
//Storyboard Layer 1 (Fail)
//Storyboard Layer 2 (Pass)
//Storyboard Layer 3 (Foreground)
//Storyboard Sound Samples

[TimingPoints]
1716,370.37037037037,4,2,1,70,1,0
1716,-90.9090909090909,4,2,1,70,0,0
4678,-90.9090909090909,4,2,1,70,0,0
5419,-90.9090909090909,4,2,1,70,0,0
6160,-90.9090909090909,4,2,1,70,0,0
7641,-90.9090909090909,4,2,1,50,0,0
12086,-90.9090909090909,4,2,1,40,0,0
12456,-90.9090909090909,4,2,1,40,0,0
13382,-90.9090909090909,4,2,1,50,0,0
19308,-90.9090909090909,4,2,1,65,0,0
24493,-90.9090909090909,4,2,1,50,0,0
25234,-90.9090909090909,4,2,1,50,0,0
25419,-90.9090909090909,4,2,1,35,0,0
37271,-90.9090909090909,4,2,1,50,0,0
49123,-90.9090909090909,4,2,1,50,0,0
55049,-90.9090909090909,4,2,1,35,0,0
58012,-90.9090909090909,4,2,1,50,0,0
60790,-90.9090909090909,4,2,1,50,0,1
71901,-90.9090909090909,4,2,1,50,0,0
72641,-90.9090909090909,4,2,1,50,0,1
83197,-90.9090909090909,4,2,1,50,0,0
83567,-90.9090909090909,4,2,1,50,0,0
84678,-90.9090909090909,4,2,1,65,0,0
85975,-90.9090909090909,4,2,1,65,0,0
86577,-90.9090909090909,4,2,1,65,0,0
87641,-90.9090909090909,4,2,1,5,0,0

[Colours]
Combo1 : 134,50,0
Combo2 : 248,139,41
Combo3 : 70,139,255
Combo4 : 245,86,111

[HitObjects]
468,74,1716,6,0,L|413:80,1,55.0000016784668,0|0,1:0|1:2,0:0:0:0:
456,222,2456,2,0,L|510:228,2,55.0000016784668,0|0|0,3:0|3:0|3:0,0:0:0:0:
416,191,3012,5,4,1:2:0:0:
371,279,3382,1,0,1:0:0:0:
283,234,3753,1,0,1:0:0:0:
328,146,4123,2,0,L|334:91,2,55.0000016784668,0|0|0,1:0|1:0|1:0,0:0:0:0:
372,169,4678,5,4,3:2:0:0:
188,242,5419,1,4,3:2:0:0:
343,364,6160,2,0,P|395:377|447:360,1,110.000003356934,4|4,3:2|3:2,0:0:0:0:
492,272,6901,2,0,L|497:217,2,55.0000016784668,0|0|0,1:0|1:0|1:0,0:0:0:0:
393,278,7641,6,0,L|381:168,1,110.000003356934,4|0,3:2|3:0,0:0:0:0:
339,142,8197,1,0,0:0:0:0:
296,115,8382,2,0,P|243:101|191:118,1,110.000003356934,0|0,3:0|3:0,0:0:0:0:
141,204,9123,2,0,P|193:217|245:200,2,110.000003356934,0|0|0,3:0|3:0|3:0,0:0:0:0:
91,117,10234,1,0,3:0:0:0:
189,117,10604,5,0,1:0:0:0:
189,117,12086,1,0,1:0:0:0:
245,199,12456,1,0,1:0:0:0:
306,121,12827,2,0,P|357:104|410:118,1,110.000003356934,0|0,1:0|1:0,0:0:0:0:
446,152,13382,6,0,L|439:261,1,110.000003356934,4|0,3:2|3:0,0:0:0:0:
409,301,13938,1,0,1:2:0:0:
321,254,14308,2,0,L|317:199,2,55.0000016784668,0|0|0,1:2|3:0|1:2,0:0:0:0:
283,287,14864,2,0,P|231:270|178:284,1,110.000003356934,2|0,3:2|3:0,0:0:0:0:
143,319,15419,1,0,1:0:0:0:
77,244,15790,2,0,L|22:247,2,55.0000016784668,0|0|0,1:0|3:0|1:0,0:0:0:0:
112,209,16345,6,0,L|118:99,1,110.000003356934,2|0,3:2|3:0,0:0:0:0:
124,49,16901,1,0,1:0:0:0:
200,111,17271,2,0,L|196:165,2,55.0000016784668,0|0|0,1:0|3:0|3:0,0:0:0:0:
236,77,17827,1,2,1:2:0:0:
298,0,18197,1,2,3:2:0:0:
390,34,18567,1,2,3:2:0:0:
385,133,18938,1,2,1:2:0:0:
290,159,19308,6,0,L|296:268,1,110.000003356934,4|0,3:2|3:0,0:0:0:0:
321,312,19864,1,0,1:0:0:0:
416,281,20234,2,0,L|419:226,1,55.0000016784668,0|0,1:0|3:0,0:0:0:0:
388,187,20604,2,0,L|384:132,1,55.0000016784668,0|0,1:0|3:3,0:0:0:0:
416,93,20975,6,0,P|363:107|311:90,1,110.000003356934,2|0,1:2|1:0,0:0:0:0:
224,43,21715,2,0,L|220:97,1,55.0000016784668,0|0,1:0|3:0,0:0:0:0:
189,137,22085,2,0,L|192:191,1,55.0000016784668,0|0,1:0|3:0,0:0:0:0:
224,231,22456,6,0,P|172:214|119:228,1,110.000003356934,2|0,1:2|1:0,0:0:0:0:
88,266,23012,1,0,3:0:0:0:
56,303,23197,2,0,L|59:357,2,55.0000016784668,0|0|0,1:0|3:0|1:3,0:0:0:0:
40,257,23753,5,2,3:2:0:0:
7,164,24123,1,2,3:2:0:0:
71,88,24493,2,0,B|132:73|177:99|177:99|224:125|283:96,1,220.000006713867,2|0,3:2|3:0,0:0:0:0:
318,62,25419,6,0,P|302:113|316:166,1,110.000003356934,4|2,3:2|3:2,0:0:0:0:
368,251,26160,2,0,L|477:246,1,110.000003356934,0|2,3:0|3:2,0:0:0:0:
430,333,26901,2,0,L|320:337,1,110.000003356934,0|2,3:0|3:2,0:0:0:0:
281,306,27456,1,0,0:0:0:0:
241,274,27641,2,0,P|224:222|238:169,1,110.000003356934,0|2,3:0|3:2,0:0:0:0:
286,82,28382,6,0,L|176:86,1,110.000003356934,0|2,3:0|3:2,0:0:0:0:
135,115,28938,1,0,0:0:0:0:
94,144,29123,2,0,P|77:195|91:248,1,110.000003356934,0|2,3:0|3:2,0:0:0:0:
171,310,29864,2,0,L|280:305,1,110.000003356934,0|2,3:3|3:2,0:0:0:0:
356,242,30604,2,0,P|361:215|359:187,1,55.0000016784668,0|0,3:0|0:0,0:0:0:0:
329,148,30975,2,0,P|323:121|325:93,1,55.0000016784668,0|0,3:0|0:0,0:0:0:0:
356,54,31345,6,0,L|246:58,1,110.000003356934,0|2,3:0|3:2,0:0:0:0:
166,117,32086,2,0,P|161:144|165:171,1,55.0000016784668,0|0,3:0|0:0,0:0:0:0:
199,207,32456,2,0,P|203:234|199:261,1,55.0000016784668,2|0,3:2|0:0,0:0:0:0:
180,307,32827,2,0,P|231:290|284:304,1,110.000003356934,0|2,3:0|3:2,0:0:0:0:
358,369,33567,1,0,3:0:0:0:
423,294,33938,1,2,3:2:0:0:
348,228,34308,6,0,L|346:118,1,110.000003356934,0|2,3:0|3:2,0:0:0:0:
305,90,34864,1,0,0:0:0:0:
259,111,35049,2,0,P|208:128|155:114,1,110.000003356934,0|0,3:0|3:0,0:0:0:0:
122,76,35604,1,0,1:0:0:0:
384,214,36715,2,0,L|377:268,1,55.0000016784668,0|0,3:0|1:0,0:0:0:0:
290,316,37271,6,0,P|238:298|186:312,1,110.000003356934,4|0,3:2|1:0,0:0:0:0:
150,346,37827,2,0,P|97:360|45:342,1,110.000003356934,0|0,3:0|3:0,0:0:0:0:
13,306,38382,1,0,1:0:0:0:
102,261,38753,2,0,L|98:151,1,110.000003356934,2|0,3:2|1:0,0:0:0:0:
139,123,39309,1,0,3:0:0:0:
183,144,39494,2,0,P|235:157|286:140,1,110.000003356934,0|0,3:0|1:0,0:0:0:0:
370,86,40234,6,0,L|366:195,1,110.000003356934,4|0,3:2|1:0,0:0:0:0:
370,245,40790,2,0,P|317:231|266:248,1,110.000003356934,4|0,3:2|1:0,0:0:0:0:
233,285,41345,1,0,1:0:0:0:
199,321,41530,2,0,P|147:338|95:324,1,110.000003356934,4|0,3:2|3:0,0:0:0:0:
67,282,42086,1,0,1:0:0:0:
113,194,42456,2,0,L|101:112,2,82.5000025177003,0|0|0,3:0|0:0|0:0,0:0:0:0:
162,195,43197,6,0,P|213:177|265:191,1,110.000003356934,4|0,3:2|1:0,0:0:0:0:
307,217,43753,2,0,L|310:107,1,110.000003356934,0|0,3:0|3:0,0:0:0:0:
338,66,44308,1,0,1:0:0:0:
416,128,44678,2,0,L|412:237,1,110.000003356934,2|0,3:2|1:0,0:0:0:0:
432,283,45234,1,0,3:0:0:0:
402,322,45419,2,0,P|350:339|298:325,1,110.000003356934,0|0,3:0|1:0,0:0:0:0:
236,248,46160,6,0,P|183:234|132:251,1,110.000003356934,4|0,3:2|1:0,0:0:0:0:
98,287,46715,1,0,3:0:0:0:
49,274,46901,2,0,L|44:219,1,55.0000016784668,0|0,1:0|3:0,0:0:0:0:
78,183,47271,2,0,L|83:128,1,55.0000016784668,0|0,1:0|3:0,0:0:0:0:
48,91,47641,2,0,P|100:104|151:87,1,110.000003356934,2|0,3:2|1:0,0:0:0:0:
186,52,48197,1,0,3:0:0:0:
234,63,48382,2,0,L|228:172,1,110.000003356934,0|0,1:0|3:0,0:0:0:0:
188,263,49123,6,0,P|135:247|83:262,2,110.000003356934,4|0|0,3:2|1:0|3:0,0:0:0:0:
256,335,50234,1,0,1:0:0:0:
324,263,50604,2,0,P|376:247|428:262,2,110.000003356934,2|0|0,3:2|1:0|3:0,0:0:0:0:
256,335,51715,1,0,1:0:0:0:
187,262,52086,6,0,P|180:209|206:162,1,110.000003356934,2|0,3:2|1:0,0:0:0:0:
305,162,52827,2,0,P|331:209|324:262,1,110.000003356934,0|0,3:0|1:0,0:0:0:0:
256,335,53567,2,0,L|147:325,1,110.000003356934,2|0,3:2|1:0,0:0:0:0:
96,317,54123,2,0,P|101:344|96:371,2,55.0000016784668,0|0|0,3:0|3:0|3:0,0:0:0:0:
75,273,54678,2,0,P|70:246|75:219,1,55.0000016784668,0|0,1:0|1:0,0:0:0:0:
108,181,55049,6,0,L|327:197,1,220.000006713867,4|0,0:0|0:0,0:0:0:0:
403,133,56160,1,0,0:0:0:0:
481,192,56530,2,0,P|501:242|486:294,1,110.000003356934,0|0,0:0|0:0,0:0:0:0:
397,337,57271,2,0,L|287:328,1,110.000003356934,0|0,0:0|0:0,0:0:0:0:
212,263,58012,6,0,L|157:267,1,55.0000016784668,4|0,1:2|3:0,0:0:0:0:
114,242,58382,2,0,P|114:214|106:188,1,55.0000016784668,0|0,1:0|3:0,0:0:0:0:
65,160,58753,2,0,L|10:164,2,55.0000016784668,0|0|0,1:0|3:0|3:0,0:0:0:0:
108,137,59308,2,0,L|217:145,1,110.000003356934,6|0,1:2|1:0,0:0:0:0:
264,127,59864,2,0,P|267:99|263:72,1,55.0000016784668,0|0,1:0|1:0,0:0:0:0:
212,263,60790,6,0,L|321:254,1,110.000003356934,6|0,3:2|3:0,0:0:0:0:
368,265,61345,2,0,P|363:239|367:211,1,55.0000016784668,0|0,1:0|0:0,0:0:0:0:
413,124,61900,2,0,L|358:120,1,55.0000016784668,0|0,3:0|1:0,0:0:0:0:
326,82,62271,2,0,L|216:90,1,110.000003356934,2|0,3:2|3:0,0:0:0:0:
185,129,62827,1,0,1:0:0:0:
153,167,63012,2,0,L|262:175,1,110.000003356934,0|0,0:0|3:0,0:0:0:0:
300,207,63567,1,0,1:0:0:0:
384,155,63938,6,0,P|399:207|384:259,1,110.000003356934,2|0,3:2|1:0,0:0:0:0:
297,306,64678,2,0,L|188:298,1,110.000003356934,2|0,3:2|1:0,0:0:0:0:
103,245,65419,2,0,P|118:192|103:140,1,110.000003356934,2|0,3:2|1:0,0:0:0:0:
72,101,65975,1,0,3:0:0:0:
40,61,66160,2,0,L|149:52,1,110.000003356934,0|0,1:0|1:0,0:0:0:0:
177,12,66715,6,0,L|286:20,1,110.000003356934,4|0,3:2|3:0,0:0:0:0:
327,45,67271,2,0,P|333:72|330:99,1,55.0000016784668,0|0,1:0|0:0,0:0:0:0:
281,185,67826,2,0,L|226:189,1,55.0000016784668,0|0,3:0|1:0,0:0:0:0:
176,190,68197,2,0,P|166:243|179:296,1,110.000003356934,2|0,3:2|3:0,0:0:0:0:
217,328,68753,1,0,1:0:0:0:
262,311,68938,2,0,L|371:302,1,110.000003356934,0|0,0:0|3:0,0:0:0:0:
407,268,69493,1,0,1:0:0:0:
486,208,69864,6,0,P|505:258|495:311,2,110.000003356934,2|0|2,3:2|1:0|3:2,0:0:0:0:
405,152,70975,1,0,1:0:0:0:
326,212,71345,2,0,L|271:207,1,55.0000016784668,0|0,1:0|1:0,0:0:0:0:
187,261,71901,2,0,P|172:208|187:155,1,110.000003356934,4|0,1:2|1:0,0:0:0:0:
221,121,72456,1,0,1:0:0:0:
256,86,72641,6,0,L|366:96,1,110.000003356934,4|0,3:2|3:0,0:0:0:0:
402,128,73197,2,0,P|395:155|395:183,1,55.0000016784668,0|0,1:0|0:0,0:0:0:0:
459,258,73753,2,0,P|465:284|465:312,1,55.0000016784668,0|0,3:0|1:0,0:0:0:0:
433,348,74123,2,0,P|378:357|324:351,1,110.000003356934,2|0,3:2|3:0,0:0:0:0:
285,321,74678,1,0,1:0:0:0:
244,290,74864,2,0,P|189:283|135:292,1,110.000003356934,0|0,0:0|3:0,0:0:0:0:
99,326,75419,1,0,1:0:0:0:
44,243,75790,6,0,L|44:133,1,110.000003356934,0|0,3:0|1:0,0:0:0:0:
135,93,76530,2,0,L|134:202,1,110.000003356934,2|0,3:2|1:0,0:0:0:0:
213,259,77271,2,0,P|264:242|315:261,1,110.000003356934,6|6,1:2|1:2,0:0:0:0:
357,288,77827,1,0,3:0:0:0:
397,313,78012,2,0,L|396:367,2,55.0000016784668,6|0|0,1:2|1:0|1:0,0:0:0:0:
399,266,78567,6,0,L|398:156,1,110.000003356934,4|0,3:2|3:0,0:0:0:0:
397,106,79123,1,0,1:0:0:0:
397,57,79308,2,0,P|342:48|288:55,1,110.000003356934,0|0,0:0|3:0,0:0:0:0:
212,119,80049,2,0,P|157:125|103:117,2,110.000003356934,2|0|0,3:2|3:0|0:0,0:0:0:0:
255,143,80975,2,0,L|254:252,1,110.000003356934,0|0,3:0|1:0,0:0:0:0:
233,298,81530,6,0,P|286:283|339:298,1,110.000003356934,4|0,3:2|3:0,0:0:0:0:
379,324,82086,1,0,1:0:0:0:
462,271,82456,2,0,P|465:243|464:216,1,55.0000016784668,0|0,1:0|3:0,0:0:0:0:
425,185,82827,2,0,P|421:157|422:130,1,55.0000016784668,0|0,1:0|3:0,0:0:0:0:
462,99,83197,1,0,1:0:0:0:
372,56,83567,1,0,1:0:0:0:
288,112,83938,2,0,P|234:119|180:111,1,110.000003356934,0|0,1:0|3:0,0:0:0:0:
104,48,84678,6,0,P|82:97|89:151,1,110.000003356934,4|0,1:2|1:0,0:0:0:0:
116,193,85234,1,0,1:0:0:0:
209,225,85604,1,0,1:0:0:0:
304,205,85975,2,0,P|358:197|413:204,1,110.000003356934,0|0,1:0|3:0,0:0:0:0:
473,216,86577,6,0,B|474:183|502:148|502:148|447:107|350:88|271:121,1,316.250009651184,4|0,1:2|0:0,0:0:0:0:
