osu file format v14

[General]
AudioFilename: audio.mp3
AudioLeadIn: 0
PreviewTime: 60512
Countdown: 0
SampleSet: Soft
StackLeniency: 0.6
Mode: 0
LetterboxInBreaks: 0
WidescreenStoryboard: 0

[Editor]
DistanceSpacing: 1.3
BeatDivisor: 4
GridSize: 4
TimelineZoom: 1.8

[Metadata]
Title:Korekara (TV Size)
TitleUnicode:コレカラ (TV Size)
Artist:Machico
ArtistUnicode:Machico
Creator:Affirmation
Version:Habi's Hard
Source:りゅうおうのおしごと!
Tags:Ryuuou no Oshigoto opening tv size YukiZura- Habiholic Asuka_-
BeatmapID:1620773
BeatmapSetID:770524

[Difficulty]
HPDrainRate:6
CircleSize:4
OverallDifficulty:6
ApproachRate:8
SliderMultiplier:1.46
SliderTickRate:1

[Events]
//Background and Video events
0,0,"BG.jpg",0,0
Video,0,"Video.mp4"
//Break Periods
//Storyboard Layer 0 (Background)
//Storyboard Layer 1 (Fail)
//Storyboard Layer 2 (Pass)
//Storyboard Layer 3 (Foreground)
//Storyboard Sound Samples

[TimingPoints]
1716,370.37037037037,4,2,1,70,1,0
4678,-200,4,2,1,70,0,0
6901,-100,4,2,1,70,0,0
7641,-100,4,2,1,50,0,0
12086,-100,4,2,1,40,0,0
12364,-100,4,2,1,5,0,0
12456,-100,4,2,1,40,0,0
13382,-100,4,2,1,50,0,0
19308,-100,4,2,1,65,0,0
24493,-100,4,2,1,50,0,0
25419,-133.333333333333,4,2,1,35,0,0
37271,-100,4,2,1,50,0,0
55049,-200,4,2,1,35,0,0
58012,-100,4,2,1,50,0,0
60790,-100,4,2,1,50,0,1
71901,-100,4,2,1,50,0,0
72641,-100,4,2,1,50,0,1
83197,-100,4,2,1,50,0,0
84678,-100,4,2,1,65,0,0
87641,-100,4,2,1,5,0,0

[Colours]
Combo1 : 134,50,0
Combo2 : 248,139,41
Combo3 : 70,139,255
Combo4 : 245,86,111

[HitObjects]
32,96,1716,6,0,L|40:176,1,73,0|0,1:0|1:2,0:0:0:0:
44,192,2456,5,0,3:0:0:0:
112,264,2641,2,0,L|192:248,1,73,0|0,3:0|3:0,0:0:0:0:
248,176,3012,6,0,P|312:208|382:193,1,146,4|0,1:2|1:0,0:0:0:0:
456,128,3567,1,0,0:0:0:0:
496,216,3753,2,0,L|488:292,1,73,0|0,1:0|0:0,0:0:0:0:
408,344,4123,1,0,1:0:0:0:
408,344,4215,1,0,1:0:0:0:
408,344,4308,2,0,L|368:336,3,36.5,0|0|0|0,1:0|1:0|1:0|1:0,0:0:0:0:
343,304,4678,6,0,P|286:346|215:338,1,146,4|4,3:2|3:2,0:0:0:0:
196,328,6160,6,0,L|208:244,1,73,4|4,3:2|3:2,0:0:0:0:
156,172,6715,1,0,0:0:0:0:
156,172,6901,6,0,L|112:184,4,36.5,0|0|0|0|0,1:0|3:0|1:0|1:0|1:0,0:0:0:0:
212,96,7456,1,0,3:0:0:0:
212,96,7641,6,0,L|356:116,1,146,4|0,3:2|3:0,0:0:0:0:
448,60,8197,1,2,0:0:0:0:
496,148,8382,2,0,P|496:184|489:220,1,73,0|2,3:0|0:0,0:0:0:0:
416,276,8753,2,0,L|340:264,1,73,0|2,3:0|0:0,0:0:0:0:
280,192,9123,6,0,L|200:200,1,73,0|2,3:0|0:0,0:0:0:0:
136,260,9493,1,0,3:0:0:0:
56,216,9678,2,0,P|36:146|58:78,1,146,2|2,0:0|1:2,0:0:0:0:
140,28,10234,2,0,L|212:44,1,73,0|2,3:0|0:2,0:0:0:0:
304,20,10604,5,0,1:0:0:0:
304,20,12086,6,0,P|296:76|304:128,1,109.5,0|0,1:0|0:0,0:0:0:0:
316,148,12456,2,0,L|388:136,1,73,0|0,1:0|0:0,0:0:0:0:
492,248,12827,2,0,L|344:228,1,146,0|0,1:0|1:0,0:0:0:0:
256,268,13382,6,0,B|200:260|200:260|160:272|160:272|108:264,1,146,4|0,3:2|3:0,0:0:0:0:
40,204,13938,2,0,P|32:168|40:128,1,73,0|0,1:2|3:0,0:0:0:0:
124,76,14308,2,0,P|132:112|124:152,2,73,0|0|0,1:2|3:0|1:2,0:0:0:0:
56,20,14864,6,0,L|200:40,1,146,2|0,3:2|3:0,0:0:0:0:
272,108,15419,2,0,L|352:96,1,73,0|0,1:0|3:0,0:0:0:0:
420,36,15790,1,0,1:0:0:0:
488,108,15975,2,0,P|488:144|480:184,1,73,0|0,3:0|1:0,0:0:0:0:
400,232,16345,6,0,L|252:216,1,146,2|0,3:2|3:0,0:0:0:0:
176,160,16901,1,0,1:0:0:0:
100,208,17086,1,0,3:0:0:0:
32,144,17271,2,0,P|28:108|36:72,1,73,0|0,1:0|3:0,0:0:0:0:
35,72,17549,1,0,3:0:0:0:
35,72,17641,1,0,3:0:0:0:
128,24,17827,6,0,L|276:44,1,146,2|2,1:2|3:2,0:0:0:0:
472,184,18567,2,0,L|324:164,1,146,2|2,3:2|1:2,0:0:0:0:
303,159,19308,6,0,P|323:229|303:298,1,146,4|0,3:2|3:0,0:0:0:0:
224,352,19864,2,0,L|152:340,1,73,0|0,1:0|3:0,0:0:0:0:
20,272,20234,2,0,L|92:260,1,73,0|0,1:0|3:0,0:0:0:0:
168,196,20604,1,0,1:0:0:0:
120,112,20790,1,0,3:3:0:0:
180,32,20975,6,0,L|252:48,1,73,2|0,1:2|3:0,0:0:0:0:
328,116,21345,2,0,L|404:104,1,73,0|0,1:0|3:0,0:0:0:0:
472,172,21715,1,0,1:0:0:0:
472,172,21901,2,0,L|460:244,1,73,0|0,3:0|1:0,0:0:0:0:
392,320,22271,1,0,3:0:0:0:
312,256,22456,6,0,P|239:257|179:296,1,146,2|0,1:2|1:0,0:0:0:0:
104,360,23012,1,0,3:0:0:0:
28,304,23197,2,0,L|16:232,1,73,0|0,1:0|3:0,0:0:0:0:
64,148,23567,1,0,1:3:0:0:
64,148,23753,6,0,B|108:172|108:172|208:152,1,146,2|2,3:2|3:2,0:0:0:0:
352,40,24493,1,2,3:2:0:0:
352,40,24678,2,0,L|368:112,1,73,0|0,0:0|0:0,0:0:0:0:
448,168,25049,1,0,0:0:0:0:
416,260,25234,1,0,3:0:0:0:
416,260,25326,1,0,3:0:0:0:
416,260,25419,6,0,L|304:240,1,109.500004177094,4|2,3:2|3:2,0:0:0:0:
236,176,25975,1,0,0:0:0:0:
236,176,26160,2,0,L|180:184,1,54.7500020885468,0|0,3:0|0:0,0:0:0:0:
100,224,26530,2,0,P|92:197|93:170,1,54.7500020885468,2|0,3:2|0:0,0:0:0:0:
144,88,26901,6,0,L|264:104,1,109.500004177094,0|2,3:0|3:2,0:0:0:0:
332,48,27456,1,0,0:0:0:0:
400,120,27641,2,0,L|388:176,1,54.7500020885468,0|0,3:0|0:0,0:0:0:0:
308,224,28012,2,0,L|316:280,1,54.7500020885468,2|0,3:2|0:0,0:0:0:0:
256,344,28382,6,0,P|208:324|148:332,1,109.500004177094,0|2,3:0|3:2,0:0:0:0:
68,360,28938,2,0,L|52:252,1,109.500004177094,0|0,0:0|0:0,0:0:0:0:
16,168,29493,2,0,L|24:108,1,54.7500020885468,2|0,3:2|0:0,0:0:0:0:
87,39,29864,6,0,P|132:70|186:70,1,109.500004177094,0|2,3:3|3:2,0:0:0:0:
264,24,30419,1,0,0:0:0:0:
332,88,30604,2,0,L|320:148,1,54.7500020885468,0|0,3:0|0:0,0:0:0:0:
240,188,30975,2,0,L|252:244,1,54.7500020885468,0|0,3:0|0:0,0:0:0:0:
192,312,31345,6,0,L|80:296,1,109.500004177094,0|2,3:0|3:2,0:0:0:0:
24,220,31901,1,0,0:0:0:0:
24,220,32086,2,0,P|20:188|24:160,1,54.7500020885468,0|0,3:0|0:0,0:0:0:0:
104,140,32456,2,0,P|106:112|102:85,1,54.7500020885468,2|0,3:2|0:0,0:0:0:0:
52,4,32827,6,0,L|172:20,1,109.500004177094,0|2,3:0|3:2,0:0:0:0:
227,90,33382,1,0,0:0:0:0:
227,90,33567,2,0,L|283:82,1,54.7500020885468,0|0,3:0|0:0,0:0:0:0:
372,44,33938,2,0,L|376:100,1,54.7500020885468,2|0,3:2|0:0,0:0:0:0:
332,168,34308,6,0,P|381:146|433:158,1,109.500004177094,0|2,3:0|3:2,0:0:0:0:
488,232,34864,2,0,L|472:344,1,109.500004177094,0|0,0:0|0:0,0:0:0:0:
388,368,35419,1,0,3:0:0:0:
324,308,35604,1,0,1:0:0:0:
324,308,35975,6,0,L|260:300,1,54.7500020885468,0|0,0:0|0:0,0:0:0:0:
184,344,36345,1,0,0:0:0:0:
116,276,36530,2,0,P|112:244|116:212,1,54.7500020885468,0|0,0:0|3:0,0:0:0:0:
184,160,36901,2,0,P|188:128|184:96,1,54.7500020885468,0|0,1:0|3:0,0:0:0:0:
128,32,37271,6,0,P|190:66|260:50,1,146,4|0,3:2|1:0,0:0:0:0:
344,16,37827,1,0,3:0:0:0:
412,80,38012,2,0,L|404:156,1,73,0|0,3:0|3:0,0:0:0:0:
312,212,38382,2,0,L|304:139,1,73,0|0,1:0|0:0,0:0:0:0:
208,112,38753,6,0,L|224:268,1,146,2|0,3:2|1:0,0:0:0:0:
156,328,39308,1,0,3:0:0:0:
244,364,39493,2,0,L|328:348,2,73,0|0|0,3:0|3:0|1:0,0:0:0:0:
47,271,40234,6,0,P|29:202|47:132,1,146,4|0,3:2|1:0,0:0:0:0:
124,80,40790,2,0,B|172:112|172:112|264:96,1,146,4|0,3:2|1:0,0:0:0:0:
336,32,41345,1,0,1:0:0:0:
407,95,41530,6,0,P|425:166|403:234,1,146,4|0,3:2|3:0,0:0:0:0:
320,288,42086,2,0,L|232:276,1,73,0|0,1:0|0:0,0:0:0:0:
188,196,42456,2,0,L|72:216,1,109.5,0|0,3:0|0:0,0:0:0:0:
51,215,42827,2,0,P|40:181|42:145,1,73,0|0,1:0|0:0,0:0:0:0:
104,68,43197,6,0,L|260:100,1,146,4|0,3:2|1:0,0:0:0:0:
319,40,43753,2,0,P|286:103|295:175,1,146,0|0,3:0|3:0,0:0:0:0:
380,224,44308,2,0,P|387:259|381:295,1,73,0|0,1:0|3:0,0:0:0:0:
304,344,44678,6,0,L|152:324,1,146,2|0,3:2|1:0,0:0:0:0:
76,364,45234,1,0,3:0:0:0:
24,292,45419,2,0,B|52:248|52:248|36:148,1,146,0|0,3:0|1:0,0:0:0:0:
32,132,46160,6,0,P|91:171|163:166,1,146,4|0,3:2|1:0,0:0:0:0:
236,112,46715,2,0,P|272:112|304:128,1,73,0|0,3:0|1:0,0:0:0:0:
372,200,47086,2,0,L|448:184,1,73,0|0,3:0|1:0,0:0:0:0:
492,264,47456,1,0,3:0:0:0:
416,320,47641,6,0,L|268:296,1,146,2|0,3:2|1:0,0:0:0:0:
200,236,48197,1,0,3:0:0:0:
128,304,48382,2,0,L|136:376,1,73,0|0,1:0|1:0,0:0:0:0:
48,248,48753,2,0,L|56:212,3,36.5,0|0|0|0,3:0|3:0|3:0|3:0,0:0:0:0:
60,180,49123,6,0,L|48:104,1,73,4|0,3:2|0:0,0:0:0:0:
116,32,49493,1,0,1:0:0:0:
191,95,49678,1,0,3:0:0:0:
191,95,49771,1,0,3:0:0:0:
191,95,49864,2,0,P|245:104|292:79,1,109.5,0|0,3:0|0:0,0:0:0:0:
312,60,50234,2,0,L|392:68,1,73,0|0,1:0|0:0,0:0:0:0:
460,132,50604,6,0,B|436:172|436:172|460:272,1,146,2|0,3:2|1:0,0:0:0:0:
396,336,51160,1,0,3:0:0:0:
396,336,51253,1,0,3:0:0:0:
396,336,51345,2,0,B|320:328|328:372|256:360,1,146,0|0,3:0|1:0,0:0:0:0:
179,295,51901,5,0,0:0:0:0:
179,295,52086,2,0,P|159:226|179:157,1,146,2|0,3:2|1:0,0:0:0:0:
252,96,52641,1,0,3:0:0:0:
252,96,52734,1,0,3:0:0:0:
252,96,52827,2,0,L|324:108,2,73,0|0|0,3:0|0:0|1:0,0:0:0:0:
188,24,53382,1,0,3:0:0:0:
104,76,53567,5,2,3:2:0:0:
16,24,53753,2,0,L|40:176,1,146,0|0,0:0|3:0,0:0:0:0:
38,168,54215,1,0,3:0:0:0:
38,168,54308,1,0,3:0:0:0:
112,232,54493,1,0,3:0:0:0:
112,232,54678,2,0,L|96:304,1,73,0|0,1:0|1:0,0:0:0:0:
168,367,55049,6,0,P|228:330|297:346,1,146,4|0,0:0|0:0,0:0:0:0:
408,268,56160,1,0,0:0:0:0:
408,268,56530,2,0,B|388:192|428:192|408:120,1,146
256,192,58012,12,4,60049,1:2:0:0:
32,48,60604,5,0,0:0:0:0:
32,48,60790,6,0,P|67:110|65:183,1,146,6|0,3:2|3:0,0:0:0:0:
128,264,61345,2,0,L|200:252,1,73,0|0,1:0|0:0,0:0:0:0:
280,188,61715,1,0,3:0:0:0:
280,188,61901,2,0,L|352:200,1,73,0|0,3:0|1:0,0:0:0:0:
420,286,62271,6,0,P|459:227|453:155,1,146,2|0,3:2|3:0,0:0:0:0:
376,84,62827,1,0,1:0:0:0:
376,84,63012,2,0,B|320:108|320:108|232:96,1,146,0|0,0:0|3:0,0:0:0:0:
164,32,63567,2,0,L|88:40,1,73,0|0,1:0|0:0,0:0:0:0:
24,104,63938,6,0,L|40:216,1,109.5,2|0,3:2|0:0,0:0:0:0:
56,224,64308,2,0,L|44:296,1,73,0|0,1:0|0:0,0:0:0:0:
123,356,64678,2,0,P|168:325|221:330,1,109.5,2|0,3:2|0:0,0:0:0:0:
248,344,65049,2,0,L|328:328,1,73,0|0,1:0|0:0,0:0:0:0:
408,372,65419,6,0,B|432:316|432:316|408:220,1,146,2|0,3:2|1:0,0:0:0:0:
352,155,65975,2,0,P|294:199|222:198,1,146,0|0,3:0|3:0,0:0:0:0:
148,132,66530,1,0,1:0:0:0:
64,184,66715,6,0,L|84:328,1,146,4|0,3:2|3:0,0:0:0:0:
164,376,67271,1,0,1:0:0:0:
232,312,67456,1,0,0:0:0:0:
304,368,67641,1,0,3:0:0:0:
304,368,67827,2,0,L|376:356,1,73,0|0,3:0|1:0,0:0:0:0:
440,284,68197,6,0,B|416:240|416:240|436:144,1,146,2|0,3:2|3:0,0:0:0:0:
384,68,68753,1,0,1:0:0:0:
384,68,68938,2,0,B|316:56|320:104|240:92,1,146,0|0,0:0|3:0,0:0:0:0:
144,60,69493,2,0,L|160:140,1,73,0|0,1:0|0:0,0:0:0:0:
175,227,69864,6,0,P|105:218|46:258,2,146,2|0|2,3:2|1:0|3:2,0:0:0:0:
244,292,70790,1,0,1:0:0:0:
244,292,70882,1,0,1:0:0:0:
244,292,70975,2,0,L|320:280,1,73,0|0,1:0|0:0,0:0:0:0:
396,224,71345,5,0,1:0:0:0:
396,224,71530,2,0,P|400:188|392:152,1,73,0|0,1:0|0:0,0:0:0:0:
328,88,71901,2,0,L|184:116,1,146,4|0,1:2|1:0,0:0:0:0:
184,115,72364,1,0,1:0:0:0:
184,115,72456,1,0,1:0:0:0:
100,63,72641,6,0,P|85:133|121:195,1,146,4|0,3:2|3:0,0:0:0:0:
192,252,73197,2,0,L|268:236,1,73,0|0,1:0|0:0,0:0:0:0:
344,172,73567,1,0,3:0:0:0:
344,172,73753,2,0,L|420:184,1,73,0|0,3:0|1:0,0:0:0:0:
472,252,74123,6,0,B|452:204|452:204|472:104,1,146,2|0,3:2|3:0,0:0:0:0:
412,40,74678,1,0,1:0:0:0:
412,40,74864,2,0,B|340:32|344:80|264:64,1,146,0|0,0:0|3:0,0:0:0:0:
192,16,75419,1,0,1:0:0:0:
104,48,75604,1,0,0:0:0:0:
104,48,75790,6,0,L|120:160,1,109.5,0|0,3:0|0:0,0:0:0:0:
136,168,76160,2,0,L|124:248,1,73,0|0,1:0|0:0,0:0:0:0:
163,323,76530,2,0,P|216:335|263:309,1,109.5,2|0,3:2|0:0,0:0:0:0:
280,288,76901,2,0,L|360:304,1,73,0|0,1:0|0:0,0:0:0:0:
439,260,77271,6,0,P|461:191|440:122,1,146,6|6,1:2|1:2,0:0:0:0:
372,60,77827,1,0,3:0:0:0:
372,60,78012,2,0,L|296:80,1,73,6|0,1:2|1:0,0:0:0:0:
301,78,78290,1,0,1:0:0:0:
301,78,78382,1,0,1:0:0:0:
228,144,78567,6,0,L|68:124,1,146,4|0,3:2|3:0,0:0:0:0:
8,192,79123,1,0,1:0:0:0:
72,276,79308,2,0,L|148:260,1,73,0|0,0:0|3:0,0:0:0:0:
224,220,79678,1,0,3:0:0:0:
292,280,79864,1,0,1:0:0:0:
376,228,80049,6,0,L|392:156,1,73,2|0,3:2|0:0,0:0:0:0:
312,88,80419,2,0,L|296:160,1,73,0|0,3:0|1:0,0:0:0:0:
223,220,80790,2,0,P|153:229|95:187,1,146,0|0,0:0|3:0,0:0:0:0:
76,92,81345,1,0,1:0:0:0:
8,160,81530,6,0,L|28:308,1,146,4|0,3:2|3:0,0:0:0:0:
104,360,82086,2,0,P|144:360|176:348,1,73,0|0,1:0|3:0,0:0:0:0:
240,276,82456,2,0,L|228:192,2,73,0|0|0,1:0|3:0|1:0,0:0:0:0:
304,348,83012,1,0,3:0:0:0:
368,272,83197,6,0,P|436:272|492:324,2,146,0|0|0,1:0|1:0|1:0,0:0:0:0:
368,272,84031,1,0,1:0:0:0:
368,272,84123,1,0,1:0:0:0:
295,207,84308,2,0,P|288:172|294:136,1,73,0|0,3:0|3:0,0:0:0:0:
376,84,84678,6,0,P|305:92|250:48,1,146,4|0,1:2|1:0,0:0:0:0:
152,16,85234,2,0,L|168:164,1,146,0|0,1:0|1:0,0:0:0:0:
104,232,85790,1,0,0:0:0:0:
176,296,85975,6,0,B|248:276|248:320|324:304,1,146,0|0,1:0|3:0,0:0:0:0:
397,215,86577,1,4,1:2:0:0:
256,192,86623,12,0,87641,0:0:0:0:
