osu file format v14

[General]
AudioFilename: audio.ogg
AudioLeadIn: 0
PreviewTime: 52939
Countdown: 0
SampleSet: Normal
StackLeniency: 0.7
Mode: 1
LetterboxInBreaks: 0
WidescreenStoryboard: 1

[Editor]
DistanceSpacing: 2.3
BeatDivisor: 4
GridSize: 32
TimelineZoom: 1.3

[Metadata]
Title:Growing Up (TV Size)
TitleUnicode:Growing Up (TV Size)
Artist:Machico
ArtistUnicode:Machico
Creator:iRedi
Version:Kantan
Source:この素晴らしい世界に祝福を!3
Tags:Zhuosh Irone OSU Irone_OSU kono subarashii sekai ni shukufuku syukufuku wo! このすば konosuba: god's blessing on this wonderful world! 3 season three 3rd third anime opening japanese pop jpop j-pop 園田健太郎 kentaro sonoda
BeatmapID:4566449
BeatmapSetID:2164814

[Difficulty]
HPDrainRate:8
CircleSize:0
OverallDifficulty:3
ApproachRate:10
SliderMultiplier:1.4
SliderTickRate:1

[Events]
//Background and Video events
0,0,"5.jpg",0,20
Video,-390,"output.mp4"
//Break Periods
//Storyboard Layer 0 (Background)
//Storyboard Layer 1 (Fail)
//Storyboard Layer 2 (Pass)
//Storyboard Layer 3 (Foreground)
//Storyboard Layer 4 (Overlay)
//Storyboard Sound Samples

[TimingPoints]
443,316.622691292876,4,1,0,70,1,0
443,-99.7368421050086,4,1,0,70,0,0
3913,315.789473684211,4,1,0,70,1,8
3913,-100,4,1,0,70,0,0
4229,315.789473684211,4,1,0,70,1,0
4229,-100,4,1,0,70,0,0
4698,-100,4,1,0,80,0,0
7856,-100,4,1,0,90,0,0
9513,-100,4,1,0,40,0,0
10777,-100,4,1,0,70,0,0
11171,-100,4,1,0,80,0,0
11645,-100,4,1,0,90,0,0
21987,-100,4,1,0,70,0,0
30750,-100,4,1,0,90,0,0
32013,-100,4,1,0,80,0,0
39592,-100,4,1,0,90,0,0
42123,315.789473684211,7,1,0,80,1,8
42124,315.789473684211,7,1,0,80,1,0
42124,-100,7,1,0,80,0,0
48755,315.789473684211,7,1,0,80,1,8
49071,315.789473684211,4,1,0,70,1,0
49071,-100,4,1,0,70,0,0
51592,-100,4,1,0,85,0,0
54123,-100,4,1,0,100,0,1
76860,-100,4,1,0,90,0,0
81913,-100,4,1,0,100,0,1
86807,-100,4,1,0,85,0,0
86960,-100,4,1,0,60,0,0
87592,-100,4,1,0,50,0,0
87908,-100,4,1,0,40,0,0
88223,-100,4,1,0,30,0,0
88539,-100,4,1,0,20,0,0
88855,-100,4,1,0,5,0,0

[HitObjects]
256,192,443,5,0,0:0:0:0:
256,192,1076,1,8,0:0:0:0:
256,192,1709,1,0,0:0:0:0:
256,192,2817,1,0,0:0:0:0:
256,192,3292,1,8,0:0:0:0:
256,192,4229,1,8,0:0:0:0:
256,192,4703,1,0,0:0:0:0:
512,0,5334,1,12,0:0:0:0:
256,192,5965,1,0,0:0:0:0:
512,0,6597,1,12,0:0:0:0:
256,192,7229,1,0,0:0:0:0:
512,0,7861,1,12,0:0:0:0:
256,192,8334,1,0,0:0:0:0:
256,192,8650,1,0,0:0:0:0:
256,192,8966,1,0,0:0:0:0:
512,0,9282,1,12,0:0:0:0:
256,192,11176,1,0,0:0:0:0:
512,0,11650,1,12,0:0:0:0:
256,192,12124,1,0,0:0:0:0:
256,192,12440,1,0,0:0:0:0:
256,192,12913,1,8,0:0:0:0:
256,192,13545,1,0,0:0:0:0:
256,192,13861,1,8,0:0:0:0:
256,192,14176,1,0,0:0:0:0:
256,192,14650,1,0,0:0:0:0:
256,192,14966,1,8,0:0:0:0:
256,192,15440,1,8,0:0:0:0:
256,192,16229,1,0,0:0:0:0:
512,0,16703,1,12,0:0:0:0:
256,192,17176,1,0,0:0:0:0:
256,192,17492,1,8,0:0:0:0:
256,192,17966,1,8,0:0:0:0:
256,192,18281,1,8,0:0:0:0:
256,192,18597,1,0,0:0:0:0:
256,192,19071,1,0,0:0:0:0:
512,0,19387,1,12,0:0:0:0:
512,0,19861,1,4,0:0:0:0:
512,0,20334,1,4,0:0:0:0:
512,0,20808,1,12,0:0:0:0:
512,0,21913,1,4,0:0:0:0:
256,192,22545,1,8,0:0:0:0:
256,192,23176,1,0,0:0:0:0:
256,192,23808,1,0,0:0:0:0:
256,192,24282,1,8,0:0:0:0:
256,192,24755,1,0,0:0:0:0:
256,192,25387,1,8,0:0:0:0:
256,192,25703,1,8,0:0:0:0:
256,192,26176,1,0,0:0:0:0:
256,192,26808,1,8,0:0:0:0:
256,192,27913,1,8,0:0:0:0:
256,192,28229,1,8,0:0:0:0:
256,192,28703,1,0,0:0:0:0:
256,192,29334,1,8,0:0:0:0:
256,192,29966,1,0,0:0:0:0:
256,192,30282,1,0,0:0:0:0:
512,0,30755,1,12,0:0:0:0:
512,0,32018,1,4,0:0:0:0:
256,192,32650,1,8,0:0:0:0:
256,192,32966,1,0,0:0:0:0:
256,192,33282,1,8,0:0:0:0:
256,192,33913,1,0,0:0:0:0:
256,192,34545,1,0,0:0:0:0:
256,192,35176,1,8,0:0:0:0:
256,192,35492,1,0,0:0:0:0:
256,192,35808,1,8,0:0:0:0:
256,192,36440,1,0,0:0:0:0:
512,0,37071,1,12,0:0:0:0:
256,192,37703,1,0,0:0:0:0:
256,192,38018,1,0,0:0:0:0:
256,192,38334,1,8,0:0:0:0:
256,192,38966,1,8,0:0:0:0:
256,192,39281,1,8,0:0:0:0:
512,0,39597,1,4,0:0:0:0:
256,192,40229,1,0,0:0:0:0:
256,192,40545,1,8,0:0:0:0:
512,0,40861,1,4,0:0:0:0:
512,0,42124,1,12,0:0:0:0:
512,0,42597,1,12,0:0:0:0:
512,0,43071,1,4,0:0:0:0:
512,0,43544,1,12,0:0:0:0:
512,0,44334,1,12,0:0:0:0:
512,0,44807,1,4,0:0:0:0:
512,0,45281,1,12,0:0:0:0:
512,0,45754,1,12,0:0:0:0:
512,0,46545,1,12,0:0:0:0:
512,0,47018,1,12,0:0:0:0:
512,0,47492,1,4,0:0:0:0:
512,0,47965,1,12,0:0:0:0:
256,192,48439,1,0,0:0:0:0:
512,0,49071,1,12,0:0:0:0:
512,0,50334,1,12,0:0:0:0:
256,192,50965,1,8,0:0:0:0:
512,0,51597,1,4,0:0:0:0:
512,0,52071,1,12,0:0:0:0:
512,0,52544,1,4,0:0:0:0:
512,0,53176,1,12,0:0:0:0:
512,0,54123,1,12,0:0:0:0:
256,192,54597,1,0,0:0:0:0:
256,192,55071,1,0,0:0:0:0:
256,192,55702,1,8,0:0:0:0:
256,192,56018,1,8,0:0:0:0:
256,192,56334,1,0,0:0:0:0:
256,192,56649,1,8,0:0:0:0:
256,192,57755,1,8,0:0:0:0:
256,192,58228,1,8,0:0:0:0:
256,192,58544,1,0,0:0:0:0:
256,192,58860,1,0,0:0:0:0:
512,0,59176,1,12,0:0:0:0:
256,192,59807,1,0,0:0:0:0:
256,192,60123,1,8,0:0:0:0:
256,192,60439,1,8,0:0:0:0:
256,192,61071,1,0,0:0:0:0:
512,0,61702,1,12,0:0:0:0:
512,0,62018,1,12,0:0:0:0:
512,0,62334,1,4,0:0:0:0:
512,0,62649,1,4,0:0:0:0:
512,0,62965,1,12,0:0:0:0:
256,192,63281,1,0,0:0:0:0:
512,0,64228,1,12,0:0:0:0:
256,192,64702,1,0,0:0:0:0:
256,192,65176,1,8,0:0:0:0:
256,192,65807,1,0,0:0:0:0:
256,192,66123,1,8,0:0:0:0:
256,192,66439,1,8,0:0:0:0:
256,192,66754,1,0,0:0:0:0:
256,192,67228,1,8,0:0:0:0:
256,192,67544,1,0,0:0:0:0:
512,0,67860,1,12,0:0:0:0:
256,192,68334,1,0,0:0:0:0:
256,192,68965,1,8,0:0:0:0:
512,0,69281,1,4,0:0:0:0:
256,192,69755,1,8,0:0:0:0:
256,192,70228,1,0,0:0:0:0:
256,192,70544,1,8,0:0:0:0:
256,192,70860,1,8,0:0:0:0:
256,192,71176,1,0,0:0:0:0:
256,192,71492,1,0,0:0:0:0:
512,0,71807,1,12,0:0:0:0:
256,192,73071,1,0,0:0:0:0:
256,192,73386,1,8,0:0:0:0:
256,192,73702,1,0,0:0:0:0:
256,192,74018,1,0,0:0:0:0:
512,0,74334,1,12,0:0:0:0:
512,0,75597,5,12,0:0:0:0:
512,0,76228,1,12,0:0:0:0:
512,0,76860,1,4,0:0:0:0:
256,192,77334,1,0,0:0:0:0:
512,0,77807,1,12,0:0:0:0:
256,192,78439,1,0,0:0:0:0:
256,192,78755,1,8,0:0:0:0:
512,0,79386,1,4,0:0:0:0:
512,0,79860,1,12,0:0:0:0:
512,0,80334,1,12,0:0:0:0:
256,192,80965,1,0,0:0:0:0:
256,192,81281,1,8,0:0:0:0:
256,192,81597,1,0,0:0:0:0:
512,0,81913,1,12,0:0:0:0:
512,0,82386,1,12,0:0:0:0:
512,0,82860,1,4,0:0:0:0:
512,0,83333,1,12,0:0:0:0:
512,0,84439,1,12,0:0:0:0:
512,0,84912,1,4,0:0:0:0:
512,0,85386,1,12,0:0:0:0:
512,0,85859,1,4,0:0:0:0:
512,0,86333,1,12,0:0:0:0:
512,0,86807,1,12,0:0:0:0:
256,192,87281,12,0,88860,0:0:0:0:
