osu file format v14

[General]
AudioFilename: audio.ogg
AudioLeadIn: 0
PreviewTime:52560
Countdown: 0
SampleSet: None
StackLeniency: 1
Mode: 0
LetterboxInBreaks: 0
WidescreenStoryboard: 1

[Editor]
Bookmarks: 21692
DistanceSpacing: 1
BeatDivisor: 4
GridSize: 32
TimelineZoom: 1

[Metadata]
Title:Growing Up (TV Size)
TitleUnicode:Growing Up (TV Size)
Artist:Machico
ArtistUnicode:Machico
Creator:Usaha
Version:Normal
Source:この素晴らしい世界に祝福を!3
Tags:Kono Subarashii Sekai ni Shukufuku wo! 3 three third season short version ver japanese pop j-pop jpop anime Xexyz Mayu Sakuma Azunyan- Ayana takekii takeki hanasaka yui nana abe kreign opening op konosuba このすば god's blessing on this wonderful world! god gods megumin aqua darkness isekai another world adventure fantasy magic mahou 魔法 explosion 爆炎 爆発 kentarou sonoda 園田健太郎 齊藤 真知子 saitou machiko arch priest arch wizard crusader adventurer 冒険者 ニート neet
BeatmapID:4565948
BeatmapSetID:2164645

[Difficulty]
HPDrainRate:3
CircleSize:3.5
OverallDifficulty:4
ApproachRate:6
SliderMultiplier:1.17
SliderTickRate:1

[Events]
//Background and Video events
0,0,"megumin.jpg",0,0
Video,-575,"konosuba op.mp4"
//Break Periods
//Storyboard Layer 0 (Background)
//Storyboard Layer 1 (Fail)
//Storyboard Layer 2 (Pass)
//Storyboard Layer 3 (Foreground)
//Storyboard Layer 4 (Overlay)
//Storyboard Sound Samples

[TimingPoints]
140,315.789473684211,4,2,1,70,1,0
140,-125,4,2,1,70,0,0
5034,-100,4,2,1,70,0,0
8349,-100,4,2,1,75,0,0
8666,-100,4,2,1,80,0,0
8982,-100,4,2,1,85,0,0
10876,-100,4,2,1,70,0,0
21613,-125,4,2,1,70,0,0
32034,-100,4,2,1,70,0,0
41824,315.789473684211,7,2,1,65,1,0
48455,315.789473684211,7,2,1,65,1,8
48771,315.789473684211,4,2,1,65,1,0
48771,-133.333333333333,4,2,1,65,0,0
50823,-133.333333333333,4,2,1,75,0,0
51297,-100,4,2,1,75,0,0
53823,-100,4,2,1,80,0,1
71507,-125,4,2,1,80,0,1
75297,-125,4,2,1,80,0,0
76560,-100,4,2,1,80,0,0
81613,-100,4,2,1,85,0,1
86507,-100,4,2,1,85,0,0
88560,-100,4,2,1,5,0,0

[Colours]
Combo1 : 210,186,162
Combo2 : 248,135,152
Combo3 : 128,128,255
Combo4 : 255,184,113

[HitObjects]
315,132,140,6,0,P|394:84|484:100,2,187.2,2|0|0,2:0|2:0|2:0,2:0:0:0:
283,243,2034,1,0,2:0:0:0:
283,243,2508,2,0,B|198:219|209:255|132:236,1,140.4,2|0,2:0|2:0,2:0:0:0:
47,157,3613,2,0,L|40:90,2,46.8,2|0|2,2:0|2:0|2:0,2:0:0:0:
55,215,4087,1,0,2:0:0:0:
79,345,4403,2,0,P|124:352|164:330,1,93.6,10|8,2:0|1:3,2:0:0:0:
277,278,5034,6,0,B|326:259|326:259|462:299,1,175.5,4|0,2:0|1:0,2:0:0:0:
486,253,5666,2,0,P|463:216|333:203,1,175.5,2|0,2:0|1:0,2:0:0:0:
341,197,6297,1,12,2:0:0:0:
176,248,6771,1,0,1:0:0:0:
176,248,6929,2,0,P|91:253|31:192,1,175.5,2|0,2:0|1:0,2:0:0:0:
31,192,7561,1,12,2:0:0:0:
125,121,7876,5,0,1:0:0:0:
125,121,8034,2,0,L|115:56,2,58.5,8|8|8,2:0|2:0|2:0,2:0:0:0:
159,148,8508,1,8,2:0:0:0:
195,164,8666,2,0,L|258:148,1,58.5,8|8,2:0|2:0,2:0:0:0:
308,133,8982,1,10,2:0:0:0:
364,118,9140,1,10,2:0:0:0:
175,290,10876,6,0,L|180:351,2,58.5,8|8|8,2:0|2:0|2:0,2:0:0:0:
127,252,11350,2,0,P|109:169|165:106,1,175.5,4|8,2:0|2:0,2:0:0:0:
270,145,12140,1,2,1:2:0:0:
270,145,12297,1,2,1:2:0:0:
350,70,12613,2,0,L|472:53,2,117,2|2|2,2:1|1:2|1:2,2:0:0:0:
236,22,13561,1,2,1:2:0:0:
137,101,13876,6,0,P|102:101|116:-5,1,175.5,4|10,2:0|2:0,2:0:0:0:
218,103,14666,2,0,P|213:137|194:161,1,58.5,2|0,1:2|2:0,2:0:0:0:
157,174,14982,1,10,2:0:0:0:
129,185,15140,2,0,P|107:220|152:334,1,175.5,2|12,1:0|2:0,2:0:0:0:
267,291,15929,2,0,L|333:301,1,58.5,8|8,2:0|2:0,2:0:0:0:
366,312,16245,1,8,2:0:0:0:
403,336,16403,2,0,B|444:285|416:230|416:230|335:216,1,175.5,4|8,2:0|2:0,2:0:0:0:
209,209,17192,5,2,1:2:0:0:
209,209,17350,2,0,P|191:157|221:83,1,117,2|2,1:2|1:0,2:0:0:0:
345,60,17982,1,2,1:2:0:0:
345,60,18140,1,8,2:0:0:0:
345,60,18297,2,0,P|363:112|262:142,1,175.5,2|12,2:1|2:0,2:0:0:0:
180,79,19087,5,8,2:0:0:0:
141,55,19245,1,8,1:2:0:0:
39,125,19561,1,8,2:0:0:0:
37,171,19718,1,8,1:2:0:0:
137,230,20034,1,8,2:0:0:0:
178,208,20192,1,8,1:2:0:0:
285,171,20508,5,8,2:0:0:0:
314,207,20666,2,0,L|353:271,1,58.5,8|8,2:0|2:0,2:0:0:0:
384,295,20982,2,0,L|448:256,1,58.5,8|8,2:0|2:0,2:0:0:0:
486,242,21297,2,0,L|447:178,1,58.5,8|8,2:0|2:0,2:0:0:0:
493,164,21613,6,0,B|386:115|406:177|299:138,1,187.2,4|2,2:0|2:0,2:0:0:0:
310,142,22403,1,0,1:0:0:0:
205,59,22876,2,0,P|161:43|80:101,1,140.4,2|0,1:2|2:0,2:0:0:0:
67,131,23508,1,2,2:0:0:0:
66,283,23982,2,0,L|163:276,1,93.6,2|0,1:0|1:0,2:0:0:0:
189,320,24455,5,10,2:0:0:0:
274,254,24771,1,0,1:0:0:0:
358,293,25087,2,0,L|370:346,2,46.8,10|0|2,2:0|2:0|2:0,2:0:0:0:
382,253,25561,1,2,1:2:0:0:
345,165,25876,2,0,P|340:137|403:46,1,140.4,2|10,2:0|2:0,2:0:0:0:
444,49,26508,6,0,L|456:199,1,140.4,2|8,1:0|2:0,2:0:0:0:
382,253,27297,1,0,1:0:0:0:
285,223,27613,2,0,P|260:223|237:230,1,46.8,10|0,2:0|2:0,2:0:0:0:
205,278,27929,1,2,1:2:0:0:
205,278,28087,2,0,L|108:257,1,93.6,2|2,1:2|2:0,2:0:0:0:
43,183,28718,1,2,1:2:0:0:
95,96,29034,6,0,L|238:65,1,140.4,2|10,1:0|2:0,2:0:0:0:
232,66,29666,1,2,2:0:0:0:
336,148,29982,2,0,P|368:144|386:135,2,46.8,2|8|2,1:2|2:0|1:2,2:0:0:0:
292,165,30455,2,0,L|286:220,1,46.8,8|8,2:0|2:0,2:0:0:0:
236,247,30771,1,8,2:0:0:0:
242,293,30929,1,12,2:0:0:0:
350,358,31245,2,0,P|384:331|384:235,1,140.4,2|4,1:2|1:2,2:0:0:0:
274,183,32034,6,0,L|146:165,1,117,10|0,2:0|1:0,2:0:0:0:
108,297,32666,1,8,2:0:0:0:
108,297,32824,1,2,2:0:0:0:
108,297,32982,2,0,P|165:302|218:278,1,117,2|8,1:0|2:0,2:0:0:0:
333,301,33613,1,0,1:0:0:0:
417,219,33929,2,0,L|412:152,1,58.5,8|0,2:0|1:0,2:0:0:0:
409,117,34245,6,0,P|439:96|464:93,2,58.5,2|0|10,1:0|2:0|2:0,2:0:0:0:
308,175,34876,2,0,L|242:166,1,58.5,0|2,1:0|2:0,2:0:0:0:
194,160,35192,1,8,2:0:0:0:
81,191,35508,2,0,P|73:148|162:58,1,175.5,2|0,1:0|2:0,2:0:0:0:
203,68,36140,2,0,L|262:76,1,58.5,2|0,1:2|2:0,2:0:0:0:
290,94,36455,2,0,L|349:102,1,58.5,10|0,2:0|1:0,2:0:0:0:
390,112,36771,1,4,2:0:0:0:
339,217,37087,6,0,B|305:235|305:235|216:218,2,117,8|2|8,2:0|1:2|2:0,2:0:0:0:
253,136,38034,2,0,L|123:110,1,117,2|8,1:0|2:0,2:0:0:0:
22,94,38666,2,0,P|9:131|42:204,1,117,2|8,1:2|2:0,2:0:0:0:
126,275,39297,2,0,L|106:345,2,58.5,4|2|8,1:2|2:0|2:0,2:0:0:0:
237,237,39929,1,0,1:0:0:0:
322,316,40245,2,0,L|386:325,1,58.5,10|0,2:0|2:0,2:0:0:0:
437,313,40561,2,0,P|452:278|398:208,1,117,8|8,2:0|2:0,2:0:0:0:
416,213,41034,1,8,2:0:0:0:
301,236,41350,2,0,P|272:203|318:89,1,175.8705,8|4,2:0|1:2,2:0:0:0:
365,92,41981,6,0,L|434:108,2,58.5,2|8|2,2:0|2:0|2:0,2:0:0:0:
238,25,42771,1,8,2:0:0:0:
238,25,42929,2,0,L|169:9,2,58.5,2|0|2,2:0|1:0|2:0,2:0:0:0:
248,67,43402,1,10,2:0:0:0:
162,162,43718,1,10,2:0:0:0:
248,257,44034,6,0,L|317:273,2,58.5,4|2|8,1:2|2:0|2:0,2:0:0:0:
196,286,44508,1,2,2:0:0:0:
60,347,44981,2,0,L|-9:331,2,58.5,8|2|0,2:0|2:0|1:0,2:0:0:0:
63,294,45455,1,2,2:0:0:0:
63,294,45613,2,0,P|42:258|62:182,1,117,8|0,2:0|1:0,2:0:0:0:
172,165,46245,6,0,L|237:177,1,58.5,4|2,1:2|2:0,2:0:0:0:
284,186,46560,1,8,2:0:0:0:
284,186,46718,1,2,2:0:0:0:
338,308,47192,6,0,L|273:320,1,58.5,8|2,2:0|2:0,2:0:0:0:
226,329,47508,1,0,1:0:0:0:
226,329,47666,1,2,2:0:0:0:
56,294,48139,2,0,P|24:263|7:223,2,87.75,2|4|8,1:0|1:3|1:3,2:0:0:0:
98,272,48771,2,0,B|169:262|200:192|200:192|210:224|210:224|282:255|261:199|344:227,1,307.125000000001,4|0,1:2|1:0,2:0:0:0:
392,241,50034,2,0,P|420:216|385:96,1,175.5,4|8,1:2|2:0,2:0:0:0:
389,98,50823,1,8,2:0:0:0:
243,77,51297,6,0,L|174:81,2,58.5,12|0|0,2:0|1:0|1:0,2:0:0:0:
241,141,51771,2,0,L|172:145,2,58.5,12|0|0,2:0|1:0|1:0,2:0:0:0:
233,182,52244,1,8,2:0:0:0:
222,228,52402,1,8,2:0:0:0:
56,287,52876,6,0,L|52:218,1,58.5,12|0,1:2|1:0,2:0:0:0:
51,190,53192,2,0,P|82:212|217:113,1,234,8|4,2:0|1:2,2:0:0:0:
118,19,54297,2,0,P|103:51|131:138,1,117,2|0,2:0|2:0,2:0:0:0:
173,142,54771,2,0,L|302:122,1,117,10|0,2:0|1:0,2:0:0:0:
385,189,55402,1,8,2:0:0:0:
316,284,55718,2,0,L|326:344,2,58.5,0|2|8,1:0|2:0|2:0,2:0:0:0:
209,236,56349,6,0,P|152:246|114:289,2,117,2|8|0,1:0|2:0|1:0,2:0:0:0:
289,150,57297,1,8,2:0:0:0:
288,150,57455,2,0,P|318:73|252:25,1,175.5,2|8,2:0|2:0,2:0:0:0:
156,92,58244,2,0,L|59:82,2,87.75,2|2|2,1:0|1:2|1:2,2:0:0:0:
184,143,58876,5,4,1:2:0:0:
103,228,59192,2,0,P|99:261|109:299,1,58.5,8|0,2:0|2:0,2:0:0:0:
156,311,59507,2,0,L|253:301,2,87.75,2|2|2,1:0|1:2|2:0,2:0:0:0:
139,366,60139,2,0,P|55:360|15:285,1,175.5,2|2,1:0|2:0,2:0:0:0:
15,285,60771,1,2,1:0:0:0:
86,192,61086,1,8,2:0:0:0:
189,247,61402,6,0,L|250:256,1,58.5,12|0,2:0|1:0,2:0:0:0:
305,264,61718,1,10,2:0:0:0:
288,148,62034,2,0,L|349:157,1,58.5,10|0,2:0|1:0,2:0:0:0:
404,165,62349,1,10,2:0:0:0:
369,53,62665,2,0,P|364:23|373:-9,2,58.5,2|2|12,1:0|1:2|2:0,2:0:0:0:
486,125,63297,2,0,P|491:155|482:187,2,58.5,2|2|8,1:0|1:2|2:0,2:0:0:0:
372,152,63928,6,0,B|287:122|307:167|190:141,1,175.5,4|2,1:2|2:0,2:0:0:0:
45,57,64876,2,0,L|65:186,1,117,10|0,2:0|1:0,2:0:0:0:
138,262,65507,1,8,2:0:0:0:
254,253,65823,2,0,L|324:267,2,58.5,0|2|8,1:0|2:0|2:0,2:0:0:0:
176,164,66455,6,0,L|196:35,1,117,2|8,1:0|2:0,2:0:0:0:
244,19,66928,2,0,P|293:16|350:83,1,117,2|8,2:1|1:3,2:0:0:0:
357,97,67402,1,10,2:0:0:0:
351,123,67560,1,4,1:2:0:0:
268,206,67876,1,2,2:0:0:0:
268,206,68034,2,0,P|239:260|364:303,1,234,10|8,2:0|2:0,2:0:0:0:
440,222,68981,6,0,B|419:166|419:166|358:186,1,117,4|10,1:2|2:0,2:0:0:0:
318,201,69455,2,0,P|274:203|225:94,1,175.5,2|8,2:0|2:0,2:0:0:0:
165,11,70244,1,2,1:0:0:0:
58,59,70560,1,8,2:0:0:0:
11,166,70876,1,2,1:0:0:0:
59,273,71192,1,8,2:0:0:0:
161,305,71507,6,0,P|237:257|325:282,1,187.2,4|8,1:2|2:0,2:0:0:0:
449,249,72613,1,10,2:0:0:0:
449,249,72771,2,0,P|445:179|416:150,1,93.6,2|10,1:0|2:0,2:0:0:0:
333,139,73402,1,2,1:0:0:0:
348,43,73718,2,0,L|401:52,1,46.8,10|0,2:0|2:0,2:0:0:0:
440,57,74034,2,0,B|460:118|398:170|333:146|333:146|223:100|247:175|130:135,1,374.4,10|8,2:0|2:0,2:0:0:0:
139,137,75455,1,8,2:0:0:0:
255,46,75928,1,8,2:0:0:0:
255,46,76086,1,8,2:0:0:0:
321,206,76560,6,0,L|305:335,1,117,4|8,1:2|2:0,2:0:0:0:
277,353,77034,2,0,P|262:326|129:317,2,175.5,2|10|0,1:0|2:0|1:0,2:0:0:0:
277,353,78139,1,10,2:0:0:0:
392,331,78455,1,2,1:2:0:0:
391,331,78613,2,0,P|456:275|450:191,1,175.5,2|4,1:2|1:2,2:0:0:0:
345,139,79402,5,10,2:0:0:0:
265,209,79718,1,2,2:0:0:0:
164,174,80034,2,0,P|108:168|62:202,1,117,12|0,2:0|1:0,2:0:0:0:
59,251,80507,1,8,2:0:0:0:
70,278,80665,2,0,L|132:292,1,58.5,10|8,2:0|2:0,2:0:0:0:
172,276,80981,2,0,L|234:290,1,58.5,10|8,2:0|2:0,2:0:0:0:
282,292,81297,1,12,2:0:0:0:
399,231,81613,6,0,L|413:165,2,58.5,12|2|8,2:0|1:2|2:0,2:0:0:0:
406,275,82086,2,0,P|372:228|316:217,1,117,2|0,1:2|1:2,2:0:0:0:
257,222,82560,2,0,L|195:196,2,58.5,8|2|8,2:0|1:2|2:0,2:0:0:0:
252,270,83034,2,0,P|240:326|194:359,1,117,2|2,1:2|1:2,2:0:0:0:
194,359,83507,1,8,2:0:0:0:
74,297,83823,1,8,2:0:0:0:
128,166,84139,6,0,L|186:145,1,58.5,8|2,2:0|1:2,2:0:0:0:
238,127,84455,1,8,2:0:0:0:
275,116,84613,1,2,1:2:0:0:
261,265,85086,2,0,L|319:244,1,58.5,8|2,2:0|1:2,2:0:0:0:
371,226,85402,1,12,2:0:0:0:
408,215,85560,1,2,1:2:0:0:
456,327,85876,5,2,1:2:0:0:
456,327,86034,2,0,L|392:315,1,58.5,8|8,2:0|2:0,2:0:0:0:
349,350,86349,1,8,2:0:0:0:
310,341,86507,1,8,2:0:0:0:
256,192,86981,12,0,88560,2:0:0:0:
