osu file format v14

[General]
AudioFilename: audio.ogg
AudioLeadIn: 0
PreviewTime:52560
Countdown: 0
SampleSet: None
StackLeniency: 1
Mode: 0
LetterboxInBreaks: 0
WidescreenStoryboard: 1

[Editor]
Bookmarks: 21692
DistanceSpacing: 1.3
BeatDivisor: 4
GridSize: 32
TimelineZoom: 1

[Metadata]
Title:Growing Up (TV Size)
TitleUnicode:Growing Up (TV Size)
Artist:Machico
ArtistUnicode:Machico
Creator:Usaha
Version:Hard
Source:この素晴らしい世界に祝福を!3
Tags:Kono Subarashii Sekai ni Shukufuku wo! 3 three third season short version ver japanese pop j-pop jpop anime Xexyz Mayu Sakuma Azunyan- Ayana takekii takeki hanasaka yui nana abe kreign opening op konosuba このすば god's blessing on this wonderful world! god gods megumin aqua darkness isekai another world adventure fantasy magic mahou 魔法 explosion 爆炎 爆発 kentarou sonoda 園田健太郎 齊藤 真知子 saitou machiko arch priest arch wizard crusader adventurer 冒険者 ニート neet
BeatmapID:4565945
BeatmapSetID:2164645

[Difficulty]
HPDrainRate:4
CircleSize:3.8
OverallDifficulty:6
ApproachRate:8
SliderMultiplier:1.34
SliderTickRate:1

[Events]
//Background and Video events
0,0,"megumin.jpg",0,0
Video,-575,"konosuba op.mp4"
//Break Periods
//Storyboard Layer 0 (Background)
//Storyboard Layer 1 (Fail)
//Storyboard Layer 2 (Pass)
//Storyboard Layer 3 (Foreground)
//Storyboard Layer 4 (Overlay)
//Storyboard Sound Samples

[TimingPoints]
140,315.789473684211,4,2,1,70,1,0
297,-125,4,2,1,70,0,0
5034,-100,4,2,1,70,0,0
8349,-100,4,2,1,75,0,0
8666,-100,4,2,1,80,0,0
8982,-100,4,2,1,85,0,0
10876,-100,4,2,1,70,0,0
21613,-125,4,2,1,70,0,0
31718,-100,4,2,1,70,0,0
41824,315.789473684211,7,2,1,65,1,0
48455,315.789473684211,7,2,1,65,1,8
48771,315.789473684211,4,2,1,65,1,0
50034,-133.333333333333,4,2,1,65,0,0
50823,-133.333333333333,4,2,1,75,0,0
51297,-100,4,2,1,75,0,0
53823,-100,4,2,1,80,0,1
71507,-125,4,2,1,80,0,1
75297,-125,4,2,1,80,0,0
76560,-100,4,2,1,80,0,0
79323,-100,4,2,1,5,0,0
79401,-100,4,2,1,80,0,0
81613,-100,4,2,1,85,0,1
86507,-100,4,2,1,85,0,0
88560,-100,4,2,1,5,0,0

[Colours]
Combo1 : 210,186,162
Combo2 : 248,135,152
Combo3 : 128,128,255
Combo4 : 255,184,113

[HitObjects]
376,219,140,5,2,2:0:0:0:
376,219,297,2,0,P|386:182|379:160,1,53.6,0|0,2:0|2:0,2:0:0:0:
365,129,613,2,0,B|307:121|285:132|285:132|259:114|221:108|221:108|188:172|236:228,1,268,2|0,2:0|2:0,2:0:0:0:
280,312,2034,1,0,2:0:0:0:
193,365,2508,2,0,P|170:342|45:337,1,160.8,2|0,2:0|2:0,2:0:0:0:
49,334,3140,1,2,2:0:0:0:
207,226,3613,6,0,L|267:232,1,53.6,2|0,2:0|2:0,2:0:0:0:
339,270,3929,1,2,2:0:0:0:
339,270,4087,2,0,P|354:236|351:213,1,53.6,0|0,2:0|2:0,2:0:0:0:
286,143,4403,2,0,L|248:129,2,26.8,10|8|8,2:0|2:0|2:0,2:0:0:0:
379,146,4718,1,8,1:3:0:0:
438,83,4876,1,4,1:3:0:0:
396,15,5034,6,0,L|243:37,1,134,4|0,2:0|2:0,2:0:0:0:
165,122,5508,1,0,1:0:0:0:
165,122,5666,2,0,P|229:108|285:142,1,134,2|0,2:0|2:0,2:0:0:0:
325,233,6140,1,0,1:0:0:0:
259,308,6297,2,0,P|215:259|216:193,1,134,12|0,2:0|2:0,2:0:0:0:
325,233,6771,1,0,1:0:0:0:
259,308,6929,2,0,P|223:305|194:288,2,67,2|0|8,2:0|1:0|1:3,2:0:0:0:
341,353,7403,1,0,1:0:0:0:
405,280,7561,6,0,B|428:204|389:218|412:134,1,134,12|0,2:0|1:0,2:0:0:0:
468,81,8034,1,8,2:0:0:0:
468,81,8192,2,0,L|395:65,1,67,8|8,2:0|2:0,2:0:0:0:
317,47,8508,1,8,2:0:0:0:
295,143,8666,1,8,2:0:0:0:
189,122,8824,1,8,2:0:0:0:
168,228,8982,5,10,2:0:0:0:
274,249,9140,1,10,2:0:0:0:
73,340,10876,5,8,2:0:0:0:
73,340,11034,1,8,2:0:0:0:
73,340,11192,1,8,2:0:0:0:
73,340,11350,2,0,P|58:275|84:215,1,134,4|0,2:0|2:0,2:0:0:0:
185,254,11824,1,8,2:0:0:0:
260,186,11982,1,0,1:0:0:0:
260,186,12061,1,8,1:2:0:0:
260,186,12140,2,0,L|326:193,1,67,2|2,1:2|1:2,2:0:0:0:
380,109,12455,1,8,2:0:0:0:
293,45,12613,6,0,B|255:26|255:26|147:56,1,134,2|2,2:1|1:2,2:0:0:0:
98,113,13087,1,8,2:0:0:0:
165,186,13245,1,2,1:2:0:0:
165,186,13324,1,8,1:2:0:0:
165,186,13403,2,0,P|171:218|163:250,1,67,0|2,1:0|1:2,2:0:0:0:
112,327,13718,1,8,2:0:0:0:
195,371,13876,6,0,L|327:345,1,134,4|0,2:0|1:0,2:0:0:0:
414,280,14350,2,0,L|282:254,1,134,10|2,2:0|1:2,2:0:0:0:
181,231,14824,1,0,2:0:0:0:
202,134,14982,1,10,2:0:0:0:
298,154,15140,2,0,P|363:164|417:127,1,134,2|0,1:0|2:0,2:0:0:0:
339,80,15613,2,0,L|268:69,1,67,12|0,2:0|1:0,2:0:0:0:
194,109,15929,1,8,2:0:0:0:
108,95,16087,1,8,2:0:0:0:
42,155,16245,1,8,2:0:0:0:
108,95,16403,6,0,L|258:119,1,134,4|0,2:0|1:0,2:0:0:0:
339,80,16876,1,8,2:0:0:0:
396,293,17192,1,2,1:2:0:0:
396,293,17350,2,0,P|434:294|459:279,1,67,2|8,1:2|2:0,2:0:0:0:
354,215,17666,2,0,P|316:268|319:334,1,134,2|2,1:0|1:2,2:0:0:0:
319,334,18140,1,8,2:0:0:0:
268,256,18297,2,0,P|203:261|150:301,1,134,2|0,2:1|1:0,2:0:0:0:
68,350,18771,2,0,L|60:279,1,67,12|0,2:0|2:0,2:0:0:0:
145,219,19087,5,8,2:0:0:0:
238,253,19245,1,8,1:2:0:0:
386,141,19561,5,8,2:0:0:0:
293,175,19718,1,8,1:2:0:0:
143,75,20034,5,8,2:0:0:0:
236,109,20192,1,8,1:2:0:0:
405,29,20508,5,8,2:0:0:0:
312,63,20666,2,0,L|239:46,1,67,8|8,2:0|2:0,2:0:0:0:
389,122,20982,2,0,L|406:195,1,67,8|8,2:0|2:0,2:0:0:0:
341,281,21297,5,8,2:0:0:0:
248,247,21455,1,8,2:0:0:0:
175,307,21613,2,0,P|122:314|74:291,1,107.2,4|8,2:0|2:0,2:0:0:0:
116,139,22245,2,0,L|41:121,2,53.6,2|0|8,2:0|1:0|2:0,2:0:0:0:
209,129,22718,1,0,2:0:0:0:
286,162,22876,2,0,P|363:173|426:126,1,160.8,2|0,1:2|2:0,2:0:0:0:
400,16,23508,2,0,P|355:40|341:91,1,107.2,2|8,2:0|2:0,2:0:0:0:
410,186,23982,6,0,L|428:298,1,107.2,2|0,1:0|1:0,2:0:0:0:
357,356,24455,1,10,2:0:0:0:
223,281,24771,1,0,1:0:0:0:
223,281,24929,2,0,P|197:301|115:288,1,107.2,0|0,1:0|2:0,2:0:0:0:
72,219,25403,1,2,2:0:0:0:
151,172,25561,2,0,P|166:201|164:235,1,53.6,2|8,1:2|2:0,2:0:0:0:
91,123,25876,2,0,L|217:139,1,107.2,2|0,2:0|1:0,2:0:0:0:
276,200,26350,1,10,2:0:0:0:
373,174,26508,6,0,P|393:126|379:75,1,107.2,2|0,1:0|1:0,2:0:0:0:
297,44,26982,1,8,2:0:0:0:
345,256,27297,2,0,L|410:274,1,53.6,0|0,1:0|1:0,2:0:0:0:
489,264,27613,2,0,L|424:246,1,53.6,10|0,2:0|2:0,2:0:0:0:
348,343,27929,1,2,1:2:0:0:
278,303,28087,2,0,P|263:266|283:200,1,107.2,2|2,1:2|2:0,2:0:0:0:
365,165,28561,2,0,P|394:172|418:191,2,53.6,0|2|8,2:0|1:2|2:0,2:0:0:0:
227,198,29034,6,0,B|186:204|186:204|107:186,1,107.2,2|0,1:0|1:0,2:0:0:0:
51,121,29508,1,10,2:0:0:0:
51,121,29666,2,0,L|173:103,1,107.2,2|2,2:0|1:2,2:0:0:0:
254,97,30140,2,0,P|285:105|304:123,1,53.6,8|2,2:0|1:2,2:0:0:0:
305,207,30455,5,8,2:0:0:0:
282,292,30613,1,8,2:0:0:0:
367,315,30771,1,8,2:0:0:0:
390,230,30929,1,12,2:0:0:0:
198,354,31245,1,2,1:2:0:0:
198,354,31403,2,0,L|156:360,3,26.8,8|8|8|8,2:0|2:0|2:0|2:0,2:0:0:0:
125,362,31718,6,0,P|95:305|114:242,1,134,4|10,1:2|2:0,2:0:0:0:
203,186,32192,1,0,2:0:0:0:
133,120,32350,2,0,L|62:112,1,67,0|2,1:0|2:0,2:0:0:0:
168,36,32666,2,0,L|239:28,1,67,8|2,2:0|2:0,2:0:0:0:
263,123,32982,6,0,P|316:85|382:89,1,134,2|8,1:0|2:0,2:0:0:0:
339,168,33455,1,2,2:0:0:0:
370,245,33613,2,0,P|337:252|305:244,1,67,0|2,1:0|2:0,2:0:0:0:
275,339,33929,2,0,P|306:348|331:371,1,67,8|0,2:0|1:0,2:0:0:0:
331,371,34166,5,8,1:2:0:0:
331,371,34245,2,0,L|478:353,1,134,2|10,1:0|2:0,2:0:0:0:
488,267,34718,1,0,2:0:0:0:
431,196,34876,2,0,P|397:184|360:188,1,67,0|2,1:0|2:0,2:0:0:0:
288,264,35192,2,0,L|275:192,1,67,8|2,2:0|2:0,2:0:0:0:
290,124,35508,6,0,P|248:174|183:175,1,134,2|8,1:0|2:0,2:0:0:0:
90,146,35982,1,0,2:0:0:0:
23,213,36140,2,0,L|36:285,1,67,2|0,1:2|2:0,2:0:0:0:
135,319,36455,1,10,2:0:0:0:
222,255,36613,5,0,1:0:0:0:
222,255,36692,1,8,1:2:0:0:
222,255,36771,2,0,P|253:244|298:245,1,67,4|0,2:0|2:0,2:0:0:0:
360,320,37087,2,0,P|417:352|482:344,2,134,8|2|8,2:0|1:2|2:0,2:0:0:0:
387,228,37876,1,0,2:0:0:0:
331,152,38034,2,0,L|198:164,1,134,2|8,1:0|2:0,2:0:0:0:
95,191,38508,1,0,2:0:0:0:
95,191,38666,2,0,P|86:158|91:125,1,67,2|0,1:2|2:0,2:0:0:0:
163,67,38982,1,8,2:0:0:0:
176,283,39297,6,0,L|180:354,1,67,4|2,1:2|2:0,2:0:0:0:
283,275,39613,1,8,2:0:0:0:
283,275,39771,2,0,L|287:204,1,67,2|0,2:0|1:0,2:0:0:0:
371,300,40087,1,2,2:0:0:0:
457,245,40245,2,0,P|468:209|463:169,1,67,10|0,2:0|2:0,2:0:0:0:
360,123,40561,6,0,B|306:117|306:117|272:129|272:129|212:119,1,134,8|8,2:0|2:0,2:0:0:0:
119,189,41034,1,8,2:0:0:0:
119,189,41350,1,8,2:0:0:0:
33,135,41508,2,0,L|-4:129,3,33.5,8|8|8|8,2:0|2:0|2:0|2:0,2:0:0:0:
82,110,41824,6,0,L|158:93,1,67,4|2,1:2|2:0,2:0:0:0:
248,81,42139,1,8,2:0:0:0:
248,81,42297,2,0,P|270:142|242:200,1,134,2|0,2:0|2:0,2:0:0:0:
145,287,42771,2,0,L|221:270,1,67,8|2,2:0|2:0,2:0:0:0:
311,258,43087,1,0,1:0:0:0:
311,258,43245,1,2,2:0:0:0:
311,258,43402,2,0,P|333:319|305:377,1,134,10|10,2:0|2:0,2:0:0:0:
75,256,44034,6,0,P|67:224|74:192,2,67,4|2|8,1:2|2:0|2:0,2:0:0:0:
66,334,44508,2,0,P|79:300|171:273,1,134,2|0,2:0|2:0,2:0:0:0:
279,258,44981,2,0,P|310:267|335:289,2,67,8|2|0,2:0|2:0|1:0,2:0:0:0:
217,211,45455,1,2,2:0:0:0:
217,211,45613,2,0,P|239:239|217:332,1,134,8|0,2:0|1:0,2:0:0:0:
105,202,46245,5,4,1:2:0:0:
160,133,46402,1,2,2:0:0:0:
242,100,46560,1,8,2:0:0:0:
329,112,46718,2,0,B|357:146|357:146|342:244,1,134,2|0,2:0|2:0,2:0:0:0:
259,278,47192,5,8,2:0:0:0:
204,209,47350,1,2,2:0:0:0:
122,176,47508,1,0,1:0:0:0:
35,188,47666,2,0,B|7:222|7:222|22:320,1,134,2|0,2:0|2:0,2:0:0:0:
122,342,48139,2,0,P|170:325|220:326,2,100.5,2|4|8,1:0|1:3|1:3,2:0:0:0:
122,342,48771,6,0,B|100:275|150:227|150:227|182:270|233:258|233:258|308:293|363:232|363:232|334:177|280:179,1,469,4|0,1:2|1:0,2:0:0:0:
205,157,50034,2,0,B|187:81|187:81|122:136,1,150.75,4|0,1:2|1:0,2:0:0:0:
39,168,50665,1,8,2:0:0:0:
18,79,50823,1,8,2:0:0:0:
129,260,51297,6,0,L|287:240,1,134,12|0,2:0|1:0,2:0:0:0:
126,332,51771,2,0,P|67:305|55:242,1,134,12|0,2:0|1:0,2:0:0:0:
160,185,52244,1,8,2:0:0:0:
261,243,52402,1,8,2:0:0:0:
322,87,52718,5,0,1:0:0:0:
322,87,52797,1,0,1:0:0:0:
322,86,52876,2,0,P|387:85|433:131,1,134,12|8,1:2|2:0,2:0:0:0:
387,222,53349,1,8,2:0:0:0:
296,183,53507,2,0,P|264:172|231:174,1,67,8|8,2:0|2:0,2:0:0:0:
191,207,53744,5,8,2:0:0:0:
174,222,53823,2,0,P|137:223|137:139,1,134,4|8,1:2|2:0,2:0:0:0:
206,104,54297,2,0,P|218:73|206:34,1,67,2|0,2:0|1:0,2:0:0:0:
102,25,54613,5,0,2:0:0:0:
102,25,54771,2,0,L|123:168,1,134,10|0,2:0|1:0,2:0:0:0:
208,201,55244,1,0,2:0:0:0:
208,201,55402,2,0,L|193:269,1,67,8|2,2:0|2:0,2:0:0:0:
113,326,55718,1,0,1:0:0:0:
59,260,55876,1,2,2:0:0:0:
58,260,56034,2,0,P|88:245|122:243,1,67,8|0,2:0|2:0,2:0:0:0:
219,326,56349,6,0,P|284:331|335:289,1,134,2|8,1:0|2:0,2:0:0:0:
416,222,56823,1,0,2:0:0:0:
416,222,56981,2,0,B|343:190|346:232|278:198,1,134,0|8,1:0|2:0,2:0:0:0:
195,206,57455,6,0,L|56:224,1,134,2|0,2:0|2:0,2:0:0:0:
18,144,57928,1,8,2:0:0:0:
103,105,58086,1,0,2:0:0:0:
103,105,58244,2,0,P|149:84|199:83,2,100.5,2|2|2,1:0|1:2|1:2,2:0:0:0:
94,216,58876,6,0,L|122:358,1,134,4|8,1:2|2:0,2:0:0:0:
233,341,59349,1,0,2:0:0:0:
233,340,59507,2,0,P|247:293|237:244,2,100.5,2|2|2,1:0|1:2|2:0,2:0:0:0:
95,320,60139,6,0,P|111:263|173:287,1,134,2|8,1:0|2:0,2:0:0:0:
256,226,60613,1,2,2:0:0:0:
256,226,60771,2,0,P|273:261|274:290,1,67,2|0,1:0|2:0,2:0:0:0:
340,352,61086,1,8,2:0:0:0:
460,239,61402,6,0,L|452:159,1,67,12|0,2:0|1:0,2:0:0:0:
359,130,61718,2,0,L|351:210,1,67,10|0,2:0|1:0,2:0:0:0:
256,226,62034,2,0,P|191:234|142:191,1,134,10|10,2:0|2:0,2:0:0:0:
39,243,62507,2,0,L|24:283,2,33.5,0|0|2,1:0|2:0|1:0,2:0:0:0:
16,146,62823,1,2,1:2:0:0:
105,174,62981,6,0,L|173:161,1,67,12|8,2:0|2:0,2:0:0:0:
256,141,63297,1,2,1:0:0:0:
333,202,63455,1,2,1:2:0:0:
432,173,63613,5,8,2:0:0:0:
432,173,63692,1,8,2:0:0:0:
432,173,63771,1,8,2:0:0:0:
432,173,63849,1,8,2:0:0:0:
432,173,63928,2,0,P|444:138|398:42,1,134,4|8,1:2|2:0,2:0:0:0:
318,90,64402,2,0,P|279:90|249:75,1,67,2|0,2:0|1:0,2:0:0:0:
145,54,64718,5,0,2:0:0:0:
145,54,64876,2,0,L|166:197,1,134,10|0,2:0|1:0,2:0:0:0:
108,269,65349,1,0,2:0:0:0:
108,269,65507,2,0,P|142:270|176:284,1,67,8|2,2:0|2:0,2:0:0:0:
257,348,65823,1,0,1:0:0:0:
338,295,65981,1,2,2:0:0:0:
338,295,66139,2,0,P|353:265|355:231,1,67,8|0,2:0|2:0,2:0:0:0:
275,186,66455,6,0,P|340:191|391:149,1,134,2|8,1:0|2:0,2:0:0:0:
323,47,66928,2,0,L|311:129,1,67,2|0,2:1|1:0,2:0:0:0:
219,129,67244,1,8,1:3:0:0:
201,234,67402,1,10,2:0:0:0:
275,296,67560,6,0,L|411:271,1,134,4|2,1:2|2:0,2:0:0:0:
287,205,68034,2,0,P|236:162|171:156,1,134,10|0,2:0|1:0,2:0:0:0:
103,235,68507,1,0,1:0:0:0:
151,329,68665,5,8,2:0:0:0:
167,345,68744,1,8,2:0:0:0:
167,345,68823,1,8,2:0:0:0:
167,345,68902,1,8,2:0:0:0:
167,345,68981,2,0,P|198:321|301:322,1,134,4|10,1:2|2:0,2:0:0:0:
372,356,69455,2,0,P|437:361|494:327,1,134,2|2,2:0|2:0,2:0:0:0:
410,271,69928,1,8,2:0:0:0:
462,193,70086,1,2,2:0:0:0:
379,134,70244,6,0,L|309:146,1,67,2|2,1:0|2:0,2:0:0:0:
269,233,70560,2,0,P|218:191|152:193,1,134,8|2,2:0|1:0,2:0:0:0:
103,271,71034,1,2,2:0:0:0:
172,326,71192,2,0,P|192:291|194:261,1,67,8|2,2:0|2:0,2:0:0:0:
152,193,71507,6,0,P|161:93|260:78,1,214.4,4|8,1:2|2:0,2:0:0:0:
281,282,72613,1,10,2:0:0:0:
281,282,72771,2,0,L|350:273,1,53.6,2|0,1:0|1:0,2:0:0:0:
419,321,73086,2,0,P|427:268|404:220,1,107.2,10|2,2:0|1:0,2:0:0:0:
314,183,73560,1,0,1:0:0:0:
223,210,73718,2,0,L|169:221,1,53.6,10|0,2:0|2:0,2:0:0:0:
56,233,74034,6,0,L|6:225,2,35.7333333333333,10|8|10,2:0|2:0|2:0,2:0:0:0:
63,197,74349,2,0,L|13:189,2,35.7333333333333,8|8|8,2:0|2:0|2:0,2:0:0:0:
70,161,74665,2,0,L|20:153,2,35.7333333333333,8|8|8,1:3|1:3|1:3,2:0:0:0:
77,125,74981,2,0,L|27:117,2,35.7333333333333,4|4|4,1:3|1:3|1:3,2:0:0:0:
124,131,75297,5,8,2:0:0:0:
229,101,75455,1,8,2:0:0:0:
228,245,75928,1,8,2:0:0:0:
333,215,76086,1,8,2:0:0:0:
390,360,76560,6,0,L|234:339,1,134,4|8,1:2|2:0,2:0:0:0:
162,303,77034,2,0,P|97:316|54:365,1,134,2|0,1:0|1:0,2:0:0:0:
74,284,77507,2,0,L|99:141,1,134,10|0,2:0|2:0,2:0:0:0:
146,69,77981,1,0,1:0:0:0:
241,97,78139,1,10,2:0:0:0:
320,48,78297,1,0,1:0:0:0:
320,48,78376,1,8,1:2:0:0:
320,48,78455,2,0,P|334:86|330:118,1,67,2|2,1:2|1:2,2:0:0:0:
266,182,78771,2,0,L|274:251,1,67,8|0,2:0|2:0,2:0:0:0:
222,328,79086,6,0,B|278:292|278:292|361:309,1,134,4|10,1:2|2:0,2:0:0:0:
431,277,79560,2,0,P|456:244|426:157,1,134,4|0,1:2|1:0,2:0:0:0:
277,157,80034,6,0,P|293:195|383:212,1,134,12|0,2:0|1:0,2:0:0:0:
425,116,80507,1,8,2:0:0:0:
375,38,80665,2,0,L|305:25,1,67,10|8,2:0|2:0,2:0:0:0:
230,88,80981,1,10,2:0:0:0:
145,67,81139,1,8,2:0:0:0:
66,130,81297,2,0,L|0:117,1,67,12|0,2:0|2:0,2:0:0:0:
99,216,81613,6,0,P|132:206|159:178,1,67,12|2,2:0|1:2,2:0:0:0:
245,186,81928,1,8,2:0:0:0:
245,186,82086,2,0,B|225:229|225:229|240:318,1,134,2|0,1:2|1:2,2:0:0:0:
344,340,82560,6,0,L|413:330,1,67,8|2,2:0|1:2,2:0:0:0:
464,252,82876,1,8,2:0:0:0:
464,251,83034,2,0,P|398:256|342:220,1,134,2|2,1:2|1:2,2:0:0:0:
422,159,83507,2,0,L|435:92,1,67,8|0,2:0|1:2,2:0:0:0:
332,29,83823,2,0,L|319:96,1,67,8|0,2:0|1:2,2:0:0:0:
242,166,84139,5,8,2:0:0:0:
167,181,84297,1,2,1:2:0:0:
100,145,84455,1,8,2:0:0:0:
70,74,84613,2,0,P|130:68|176:121,1,134,2|0,1:2|1:2,2:0:0:0:
220,250,85086,5,8,2:0:0:0:
295,265,85244,1,2,1:2:0:0:
362,229,85402,1,12,2:0:0:0:
392,158,85560,2,0,P|332:151|286:204,1,134,2|2,1:2|1:2,2:0:0:0:
307,324,86034,5,8,2:0:0:0:
216,346,86192,1,8,2:0:0:0:
142,295,86349,1,8,2:0:0:0:
61,316,86507,1,8,2:0:0:0:
256,192,86981,12,0,88560,2:0:0:0:
