osu file format v14

[General]
AudioFilename: audio.ogg
AudioLeadIn: 0
PreviewTime: 52960
Countdown: 0
SampleSet: Soft
StackLeniency: 0.7
Mode: 0
LetterboxInBreaks: 0
WidescreenStoryboard: 0

[Editor]
DistanceSpacing: 1
BeatDivisor: 4
GridSize: 4
TimelineZoom: 1

[Metadata]
Title:Growing Up (TV Size)
TitleUnicode:Growing Up (TV Size)
Artist:Machico
ArtistUnicode:Machico
Creator:Kanui
Version:Blessing
Source:この素晴らしい世界に祝福を!3
Tags:Kono Subarashii Sekai ni Shukufuku Syukufuku wo! KonoSuba: God's Blessing on This Wonderful World! 3 season three 3rd third anime opening japanese pop jpop j-pop 園田健太郎 Kentaro Sonoda
BeatmapID:4559264
BeatmapSetID:2161944

[Difficulty]
HPDrainRate:6
CircleSize:4
OverallDifficulty:9
ApproachRate:9.3
SliderMultiplier:1.8
SliderTickRate:1

[Events]
//Background and Video events
0,0,"bg.jpg",0,0
Video,-460,"video.mp4"
//Break Periods
//Storyboard Layer 0 (Background)
//Storyboard Layer 1 (Fail)
//Storyboard Layer 2 (Pass)
//Storyboard Layer 3 (Foreground)
//Storyboard Layer 4 (Overlay)
//Storyboard Sound Samples

[TimingPoints]
462,315.789473684211,4,2,1,40,1,0
462,-166.666666666667,4,2,1,40,0,0
3935,-166.666666666667,4,2,1,50,0,0
4409,-133.333333333333,4,2,1,50,0,0
4725,-111.111111111111,4,2,1,60,0,0
5356,-111.111111111111,4,2,1,60,0,0
7883,-99.9999999999999,4,2,1,70,0,0
8198,-99.9999999999999,4,2,1,40,0,0
8356,-99.9999999999999,4,2,1,50,0,0
8672,-99.9999999999999,4,2,1,60,0,0
8988,-99.9999999999999,4,2,1,70,0,0
9304,-99.9999999999999,4,2,1,80,0,0
10883,-166.666666666667,4,2,1,60,0,0
11198,-166.666666666667,4,2,1,70,0,0
11672,-100,4,2,1,80,0,0
20830,-100,4,2,1,60,0,0
21304,-100,4,2,1,70,0,0
21619,-100,4,2,1,80,0,0
21935,-111.111111111111,4,2,1,70,0,0
42146,315.789473684211,7,2,1,70,1,0
42146,-111.111111111111,7,2,1,70,0,0
49092,315.789473684211,4,2,1,70,1,0
49092,-166.666666666667,4,2,1,60,0,0
51618,-111.111111111111,4,2,1,70,0,0
53197,-100,4,2,1,70,0,0
54144,-100,4,2,1,80,0,1
71828,-111.111111111111,4,2,1,80,0,1
74355,-100,4,2,1,80,0,1
76881,-100,4,2,1,80,0,0
87144,-100,4,2,1,50,0,0
87934,-100,4,2,1,40,0,0
88249,-100,4,2,1,30,0,0
88565,-100,4,2,1,20,0,0
88881,-100,4,2,1,10,0,0
89197,-100,4,2,1,5,0,0

[Colours]
Combo1 : 177,207,88
Combo2 : 232,94,94
Combo3 : 148,202,245
Combo4 : 249,177,98

[HitObjects]
101,168,462,6,0,P|80:122|89:59,1,107.999996704102,2|0,0:0|0:0,0:0:0:0:
157,104,935,1,0,0:0:0:0:
229,15,1093,2,0,P|250:63|244:116,1,107.999996704102,2|0,0:0|0:0,0:0:0:0:
148,283,1725,6,0,P|94:277|41:266,1,107.999996704102,2|0,0:0|0:0,0:0:0:0:
324,309,2356,1,2,0:0:0:0:
324,309,2830,6,0,P|315:260|315:245,1,53.9999983520508,2|0,0:0|0:0,0:0:0:0:
340,159,3146,1,2,0:0:0:0:
412,229,3304,1,2,0:0:0:0:
314,255,3462,2,0,B|247:243|231:281|155:267,1,161.999995056153,0|2,0:0|0:0,0:0:0:0:
154,266,4093,1,0,0:0:0:0:
86,177,4251,5,2,0:0:0:0:
86,177,4409,2,0,P|121:168|159:163,1,67.5000025749208,2|0,0:0|0:0,0:0:0:0:
262,22,4725,1,8,0:0:0:0:
262,22,4804,1,8,0:0:0:0:
262,22,4883,2,0,L|255:67,1,40.4999987640381,8|4,0:3|0:3,0:0:0:0:
323,138,5040,1,4,0:3:0:0:
124,79,5198,5,8,0:0:0:0:
76,88,5277,1,8,0:0:0:0:
29,103,5356,2,0,P|34:174|53:284,1,161.999995056153,14|0,0:0|0:0,0:0:0:0:
171,362,5830,2,0,P|181:322|188:282,1,80.9999975280763,0|0,1:2|0:0,0:0:0:0:
229,138,6146,1,0,1:0:0:0:
229,138,6304,1,0,0:0:0:0:
122,226,6462,1,2,1:2:0:0:
291,355,6619,6,0,P|361:306|433:328,1,161.999995056153,12|0,0:0|3:0,0:0:0:0:
447,338,7014,1,0,3:0:0:0:
447,338,7093,2,0,P|456:298|457:258,1,80.9999975280763,0|0,1:0|0:0,0:0:0:0:
344,80,7409,1,8,0:0:0:0:
469,156,7567,1,8,0:3:0:0:
261,260,7725,1,4,0:3:0:0:
192,0,7883,6,0,P|210:83|218:182,1,180,12|8,0:0|0:0,0:0:0:0:
157,276,8356,5,8,0:0:0:0:
40,241,8514,1,8,0:0:0:0:
203,189,8672,1,8,0:0:0:0:
19,147,8830,1,8,0:0:0:0:
253,109,8988,1,10,0:0:0:0:
2,54,9146,1,10,0:0:0:0:
69,338,9304,5,14,0:0:0:0:
154,8,9462,1,14,0:0:0:0:
472,199,10883,6,0,L|392:180,1,80.9999975280763,2|0,0:0|0:0,0:0:0:0:
368,172,11198,1,10,0:0:0:0:
388,300,11356,1,10,0:0:0:0:
512,122,11514,1,10,0:0:0:0:
301,30,11672,6,0,P|250:108|274:194,1,180,6|0,1:2|1:0,0:0:0:0:
159,364,12146,2,0,P|153:317|149:264,1,90,10|0,0:0|3:0,0:0:0:0:
151,256,12383,1,0,3:0:0:0:
151,256,12462,1,2,1:2:0:0:
289,164,12619,1,2,1:2:0:0:
250,305,12777,1,10,0:2:0:0:
90,180,12935,6,0,P|132:168|178:166,1,90,2|0,1:2|0:0,0:0:0:0:
363,333,13251,2,0,P|318:336|273:331,1,90,2|8,1:2|0:0,0:0:0:0:
448,229,13567,1,2,3:2:0:0:
448,229,13646,1,0,3:0:0:0:
448,229,13725,1,0,1:0:0:0:
309,108,13883,1,2,1:2:0:0:
413,58,14040,1,8,0:0:0:0:
249,194,14198,6,0,P|162:218|73:232,1,180,6|0,1:2|1:0,0:0:0:0:
0,71,14672,2,0,P|41:79|86:94,1,90,10|0,0:0|0:0,0:0:0:0:
248,287,14988,1,2,1:2:0:0:
164,130,15146,1,2,1:2:0:0:
84,311,15304,1,10,0:2:0:0:
307,358,15462,6,0,P|336:275|275:204,1,180,2|0,1:2|1:0,0:0:0:0:
464,132,15935,1,8,0:0:0:0:
419,309,16093,1,0,1:0:0:0:
212,138,16251,1,10,0:2:0:0:
414,49,16409,1,2,1:2:0:0:
414,49,16488,1,0,1:0:0:0:
414,49,16567,1,10,0:2:0:0:
200,227,16725,6,0,B|78:203|78:203|103:258,1,180,4|0,1:2|1:0,0:0:0:0:
285,188,17198,2,0,P|292:232|278:275,1,90,8|0,0:0|0:0,0:0:0:0:
173,139,17514,1,2,1:2:0:0:
213,351,17672,1,2,1:2:0:0:
375,233,17830,1,8,0:0:0:0:
201,368,17988,6,0,P|191:325|187:277,1,90,2|0,1:2|0:3,0:0:0:0:
258,104,18304,1,2,1:2:0:0:
348,314,18462,1,10,0:2:0:0:
76,275,18619,2,0,P|82:187|99:96,1,180,2|0,0:0|1:0,0:0:0:0:
337,13,19093,2,0,P|345:57|346:102,1,90,8|0,0:0|0:0,0:0:0:0:
162,265,19409,5,10,0:0:0:0:
495,169,19567,1,8,0:0:0:0:
202,192,19883,5,10,0:0:0:0:
466,248,20041,1,8,0:0:0:0:
273,148,20356,5,10,0:0:0:0:
399,293,20514,1,8,0:0:0:0:
399,293,20830,5,10,0:0:0:0:
273,148,20988,1,10,0:0:0:0:
216,329,21146,1,10,0:0:0:0:
388,135,21304,1,10,0:0:0:0:
340,383,21462,1,10,0:0:0:0:
93,333,21619,1,10,0:0:0:0:
143,86,21777,1,10,0:0:0:0:
332,207,21935,6,0,P|412:224|470:173,2,161.999995056153,6|8|2,1:2|0:0|1:2,0:0:0:0:
388,135,22725,1,0,1:0:0:0:
258,43,22883,2,0,P|255:83|263:123,1,80.9999975280763,8|0,0:0|0:0,0:0:0:0:
223,229,23198,6,0,P|247:268|275:290,1,80.9999975280763,2|0,1:2|0:0,0:0:0:0:
179,152,23514,1,8,0:0:0:0:
179,152,23672,1,0,1:0:0:0:
80,262,23830,2,0,L|-25:247,2,80.9999975280763,2|0|8,1:2|1:0|0:0,0:0:0:0:
50,130,24304,6,0,P|119:93|207:108,1,161.999995056153,6|0,1:2|1:0,0:0:0:0:
398,226,24777,2,0,P|318:223|231:211,1,161.999995056153,10|0,0:0|1:0,0:0:0:0:
236,212,25251,1,0,1:0:0:0:
310,128,25409,2,0,P|313:87|312:44,1,80.9999975280763,10|0,0:0|0:0,0:0:0:0:
160,180,25725,5,2,1:2:0:0:
160,180,25883,2,0,P|157:247|161:280,1,80.9999975280763,2|8,1:2|0:0,0:0:0:0:
306,327,26198,2,0,P|382:348|453:315,1,161.999995056153,2|0,0:0|1:0,0:0:0:0:
370,246,26672,1,10,0:0:0:0:
511,102,26830,6,0,B|457:93|457:93|412:104|412:104|326:91,1,161.999995056153,6|0,1:2|1:0,0:0:0:0:
251,24,27304,2,0,L|237:116,1,80.9999975280763,8|0,0:0|0:0,0:0:0:0:
139,120,27619,2,0,L|151:200,1,80.9999975280763,0|0,1:0|1:0,0:0:0:0:
290,361,27935,1,10,0:0:0:0:
193,296,28093,1,2,0:0:0:0:
314,180,28251,5,2,1:2:0:0:
174,313,28409,2,0,P|133:316|93:307,1,80.9999975280763,2|8,0:2|0:0,0:0:0:0:
31,236,28725,2,0,P|-5:305|23:377,1,161.999995056153,2|0,1:2|1:0,0:0:0:0:
135,186,29198,1,8,0:0:0:0:
330,237,29356,6,0,B|374:225|409:241|409:241|446:273|508:248,1,161.999995056153,6|0,1:2|1:0,0:0:0:0:
346,131,29830,1,10,0:0:0:0:
458,174,29988,1,2,0:0:0:0:
367,314,30146,1,0,1:0:0:0:
244,186,30304,1,2,1:2:0:0:
420,101,30462,2,0,P|459:92|499:89,1,80.9999975280763,10|0,0:0|0:0,0:0:0:0:
198,49,30777,5,14,0:0:0:0:
385,212,30935,1,10,0:0:0:0:
302,15,31093,1,10,0:0:0:0:
124,116,31251,2,0,L|29:102,1,80.9999975280763,14|0,0:0|0:0,0:0:0:0:
266,280,31567,1,2,1:2:0:0:
185,208,31725,1,8,0:0:0:0:
145,197,31803,1,8,0:0:0:0:
106,200,31882,1,8,0:0:0:0:
68,216,31961,1,8,0:0:0:0:
40,244,32040,6,0,P|40:284|47:324,1,80.9999975280763,6|0,1:2|0:0,0:0:0:0:
217,178,32356,2,0,P|216:137|209:97,1,80.9999975280763,10|0,0:2|0:0,0:0:0:0:
261,341,32672,1,2,1:2:0:0:
131,290,32830,1,2,1:2:0:0:
306,221,32988,1,10,0:0:0:0:
174,376,33146,1,2,0:0:0:0:
432,301,33304,6,0,P|468:230|425:153,1,161.999995056153,2|8,1:2|0:0,0:0:0:0:
331,83,33777,1,2,0:0:0:0:
331,83,33856,1,2,0:0:0:0:
331,83,33935,2,0,P|373:72|428:63,1,80.9999975280763,2|0,1:2|1:0,0:0:0:0:
367,208,34251,1,10,0:0:0:0:
497,104,34409,5,8,0:0:0:0:
497,104,34488,1,8,0:0:0:0:
497,104,34567,1,6,1:2:0:0:
352,221,34725,1,2,0:0:0:0:
192,123,34883,2,0,P|232:133|273:136,1,80.9999975280763,8|0,0:0|0:0,0:0:0:0:
217,214,35198,1,2,1:2:0:0:
362,127,35356,1,2,1:2:0:0:
313,294,35514,1,10,0:0:0:0:
181,103,35672,1,2,0:0:0:0:
391,202,35830,6,0,P|311:217|231:228,1,161.999995056153,2|8,1:2|0:0,0:0:0:0:
53,182,36304,1,2,0:0:0:0:
79,341,36462,1,2,1:2:0:0:
255,258,36619,1,2,1:2:0:0:
131,129,36777,1,10,0:0:0:0:
22,272,36935,2,0,L|80:256,1,40.4999987640381,8|8,0:0|0:0,0:0:0:0:
214,114,37093,6,0,P|166:51|87:56,1,161.999995056153,6|8,1:2|0:0,0:0:0:0:
255,258,37567,1,2,0:0:0:0:
137,209,37725,2,0,P|130:169|130:128,1,80.9999975280763,2|0,1:2|1:0,0:0:0:0:
71,296,38040,2,0,P|94:328|123:357,1,80.9999975280763,10|0,0:0|0:0,0:0:0:0:
308,184,38356,6,0,P|327:108|339:19,1,161.999995056153,2|8,1:2|0:0,0:0:0:0:
400,162,38830,1,2,0:0:0:0:
233,20,38988,2,0,P|242:59|246:100,1,80.9999975280763,2|0,1:2|1:0,0:0:0:0:
185,242,39304,1,8,0:0:0:0:
429,148,39462,5,8,0:0:0:0:
429,148,39540,1,8,0:0:0:0:
429,148,39619,1,6,1:2:0:0:
256,200,39777,1,2,0:0:0:0:
363,281,39935,1,10,0:0:0:0:
228,176,40093,1,2,0:0:0:0:
151,348,40251,1,2,1:2:0:0:
206,152,40409,1,2,1:2:0:0:
16,129,40567,2,0,L|28:215,1,80.9999975280763,10|0,0:0|0:0,0:0:0:0:
295,84,40883,6,0,L|305:3,1,80.9999975280763,12|0,0:0|0:0,0:0:0:0:
123,176,41198,1,8,0:0:0:0:
370,333,41356,1,8,0:0:0:0:
370,333,41672,2,0,L|365:292,1,40.4999987640381,8|8,0:0|0:0,0:0:0:0:
400,177,41830,2,0,L|452:172,1,40.4999987640381,8|8,0:0|0:0,0:0:0:0:
505,295,41988,2,0,L|446:281,1,40.4999987640381,8|8,0:0|0:0,0:0:0:0:
232,232,42146,5,14,0:0:0:0:
409,156,42303,1,2,1:2:0:0:
218,47,42461,1,10,0:0:0:0:
124,258,42619,1,2,1:2:0:0:
124,258,43093,5,10,0:2:0:0:
298,218,43251,1,2,1:2:0:0:
336,384,43409,1,10,0:2:0:0:
200,301,43567,1,2,1:2:0:0:
307,120,43724,2,0,P|312:78|313:31,1,80.9999975280763,8|0,0:0|0:0,0:0:0:0:
210,85,44040,2,0,P|210:127|215:165,1,80.9999975280763,8|0,0:0|0:0,0:0:0:0:
365,241,44356,5,14,0:0:0:0:
193,346,44514,1,2,1:2:0:0:
40,216,44672,1,10,0:0:0:0:
114,29,44830,1,2,1:2:0:0:
114,29,45303,5,10,0:0:0:0:
107,154,45461,1,2,1:2:0:0:
225,212,45619,1,10,0:0:0:0:
329,126,45777,1,2,1:2:0:0:
454,163,45935,2,0,P|462:207|462:255,1,80.9999975280763,8|0,0:0|3:0,0:0:0:0:
462,243,46172,1,0,3:0:0:0:
462,243,46251,1,8,0:0:0:0:
315,114,46409,1,8,0:3:0:0:
351,303,46567,5,14,0:0:0:0:
236,21,46724,1,2,1:2:0:0:
158,240,46882,1,10,0:0:0:0:
415,71,47040,1,2,1:2:0:0:
415,71,47514,5,10,0:0:0:0:
235,193,47672,1,2,1:2:0:0:
280,32,47830,1,10,0:0:0:0:
387,228,47988,1,2,1:2:0:0:
192,95,48146,2,0,P|150:103|100:108,1,80.9999975280763,8|0,0:0|0:0,0:0:0:0:
6,288,48461,6,0,P|49:301|75:307,1,53.9999983520508,8|0,0:0|0:0,0:0:0:0:
233,276,48672,2,0,P|223:232|215:206,1,53.9999983520508,8|0,0:3|0:0,0:0:0:0:
97,73,48882,2,0,P|63:103|45:123,1,53.9999983520508,4|0,0:3|0:0,0:0:0:0:
114,205,49092,6,0,B|172:184|231:195|231:195|248:242|288:268|288:268|345:247|415:262,1,323.999990112305,6|0,1:2|0:0,0:0:0:0:
351,338,50197,1,2,0:0:0:0:
506,185,50355,6,0,L|389:164,1,107.999996704102,6|0,1:2|0:0,0:0:0:0:
320,176,50828,2,0,L|313:137,1,26.9999991760254,2|0,0:0|0:0,0:0:0:0:
353,20,50986,5,8,0:0:0:0:
281,301,51144,1,8,0:0:0:0:
274,329,51618,6,0,P|194:341|113:352,1,161.999995056153,12|0,0:0|0:0,0:0:0:0:
227,119,52092,1,8,0:0:0:0:
312,224,52249,1,0,1:0:0:0:
360,51,52407,1,0,1:0:0:0:
171,296,52565,5,12,0:0:0:0:
43,26,52723,1,12,0:0:0:0:
43,26,53039,6,0,L|49:66,1,40.4999987640381,0|0,1:2|1:0,0:0:0:0:
155,275,53197,2,0,P|174:211|163:145,1,135,12|0,0:0|0:0,0:0:0:0:
182,71,53513,2,0,L|237:80,1,45,8|0,0:0|0:0,0:0:0:0:
367,101,53670,2,0,L|361:145,1,45,8|8,0:0|0:0,0:0:0:0:
333,304,53828,2,0,L|268:290,1,45,8|8,0:0|0:0,0:0:0:0:
72,197,53986,5,8,0:0:0:0:
72,197,54065,1,8,0:0:0:0:
72,197,54144,2,0,B|119:179|165:206|165:206|206:231|252:210,1,180,6|8,1:2|0:0,0:0:0:0:
382,165,54618,1,2,1:2:0:0:
209,109,54776,1,0,0:0:0:0:
247,329,54934,1,0,1:0:0:0:
465,204,55092,6,0,P|481:110|485:23,2,180,14|0|8,0:0|1:0|0:0,0:0:0:0:
397,62,55881,1,2,0:0:0:0:
249,184,56039,2,0,P|293:178|336:165,1,90,2|0,1:2|0:0,0:0:0:0:
113,55,56355,2,0,P|154:72|204:84,1,90,8|0,0:0|3:0,0:0:0:0:
197,83,56592,1,0,3:0:0:0:
197,83,56670,5,6,1:2:0:0:
141,214,56828,1,0,0:0:0:0:
295,89,56986,1,8,0:0:0:0:
299,267,57144,1,0,0:0:0:0:
367,47,57302,1,0,1:2:0:0:
491,233,57460,1,0,1:2:0:0:
246,341,57618,1,10,0:0:0:0:
385,146,57776,6,0,B|404:209|404:209|377:325,1,180,6|0,0:0|0:0,0:0:0:0:
378,320,58249,1,8,0:0:0:0:
269,144,58407,1,2,0:0:0:0:
119,255,58565,2,0,P|168:259|211:252,1,90,2|0,1:2|3:0,0:0:0:0:
208,252,58802,1,0,3:0:0:0:
208,252,58881,1,8,0:0:0:0:
162,363,59039,1,2,0:0:0:0:
58,183,59197,6,0,P|22:262|62:339,1,180,6|8,1:2|0:0,0:0:0:0:
215,260,59670,1,2,0:0:0:0:
246,105,59828,1,2,1:2:0:0:
148,185,59986,1,0,3:0:0:0:
148,185,60065,1,0,3:0:0:0:
148,185,60144,1,8,0:0:0:0:
40,16,60302,1,2,0:0:0:0:
272,117,60460,6,0,P|360:101|454:72,1,180,6|8,1:2|0:0,0:0:0:0:
322,282,60934,1,2,1:2:0:0:
473,211,61092,2,0,L|382:194,2,90,2|0|8,1:2|0:0|0:0,0:0:0:0:
179,330,61565,5,0,3:0:0:0:
179,330,61644,1,0,3:0:0:0:
179,330,61723,1,12,0:0:0:0:
64,355,61881,1,0,1:0:0:0:
251,206,62039,1,8,0:0:0:0:
49,147,62197,1,0,1:0:0:0:
311,110,62355,5,8,0:0:0:0:
257,288,62513,1,0,1:0:0:0:
27,124,62670,1,8,0:0:0:0:
270,11,62828,1,0,1:0:0:0:
171,229,62986,5,6,1:2:0:0:
464,291,63144,1,2,1:2:0:0:
404,46,63302,2,0,L|389:139,1,90,10|8,0:0|0:0,0:0:0:0:
387,170,63539,1,8,0:0:0:0:
387,170,63618,1,6,1:2:0:0:
229,77,63776,1,0,1:2:0:0:
328,298,63934,2,0,L|263:281,1,45,10|8,0:0|0:0,0:0:0:0:
34,229,64092,2,0,L|77:217,1,45,8|8,0:0|0:0,0:0:0:0:
191,380,64249,6,0,P|177:313|179:245,1,135,6|0,1:2|0:0,0:0:0:0:
228,183,64565,2,0,P|201:108|96:147,1,180,12|0,0:0|1:0,0:0:0:0:
0,153,65039,1,0,1:0:0:0:
266,259,65197,6,0,B|310:242|351:254|351:254|390:300|463:281,2,180,14|0|8,0:0|1:0|0:0,0:0:0:0:
314,329,65986,1,2,0:0:0:0:
422,197,66144,1,2,1:2:0:0:
228,139,66302,1,2,0:0:0:0:
422,196,66460,2,0,P|432:153|430:108,1,90,10|0,0:0|0:0,0:0:0:0:
171,51,66776,6,0,P|126:127|153:214,1,180,6|8,1:2|0:0,0:0:0:0:
337,269,67249,1,2,0:0:0:0:
218,125,67407,1,0,1:0:0:0:
294,372,67565,1,2,1:2:0:0:
422,196,67723,1,8,0:0:0:0:
174,296,67881,6,0,P|92:282|-4:253,1,180,6|0,1:2|1:0,0:0:0:0:
162,138,68355,1,10,0:0:0:0:
357,262,68513,1,0,1:0:0:0:
286,21,68670,1,8,0:0:0:0:
263,49,68748,1,8,0:0:0:0:
251,85,68827,1,8,0:0:0:0:
254,124,68906,1,8,0:0:0:0:
269,158,68986,2,0,L|325:146,1,45,8|8,0:3|0:3,0:0:0:0:
424,102,69144,2,0,L|371:93,1,45,4|4,0:3|0:3,0:0:0:0:
176,38,69302,6,0,L|88:24,1,90,6|0,1:2|0:0,0:0:0:0:
207,248,69618,1,8,0:0:0:0:
0,140,69776,1,2,3:2:0:0:
0,140,69855,1,0,3:0:0:0:
0,140,69934,2,0,L|88:122,1,90,0|0,1:2|0:0,0:0:0:0:
273,91,70249,1,10,0:0:0:0:
273,91,70407,1,2,0:0:0:0:
180,270,70565,6,0,P|163:225|169:174,1,90,6|0,1:2|0:0,0:0:0:0:
414,285,70881,1,10,0:0:0:0:
254,214,71039,1,0,0:0:0:0:
417,63,71197,1,2,1:2:0:0:
180,137,71355,1,0,3:0:0:0:
180,137,71434,1,0,3:0:0:0:
180,137,71513,1,10,0:0:0:0:
254,377,71670,1,0,1:0:0:0:
479,258,71828,6,0,B|421:248|421:248|379:257|379:257|309:245,1,161.999995056153,6|0,1:2|0:0,0:0:0:0:
319,246,72302,1,2,0:0:0:0:
166,138,72460,2,0,P|138:222|167:300,1,161.999995056153,8|0,0:0|1:0,0:0:0:0:
235,373,72934,2,0,L|243:279,2,80.9999975280763,8|2|0,0:0|1:2|1:0,0:0:0:0:
48,213,73407,1,10,0:0:0:0:
48,213,73723,5,2,1:2:0:0:
270,133,73881,1,0,1:0:0:0:
116,12,74039,2,0,P|119:52|128:91,1,80.9999975280763,10|8,0:0|0:0,0:0:0:0:
142,120,74276,1,8,0:0:0:0:
142,120,74355,6,0,P|201:136|263:97,1,120,12|8,0:0|0:0,0:0:0:0:
294,50,74670,1,8,0:0:0:0:
369,61,74776,2,0,P|378:104|376:142,1,60,8|8,0:0|0:0,0:0:0:0:
315,248,74986,1,8,0:0:0:0:
384,275,75092,1,8,0:3:0:0:
439,263,75197,1,8,0:3:0:0:
469,232,75302,2,0,P|471:168|489:104,1,120,4|0,0:3|0:0,0:0:0:0:
502,322,75618,5,12,0:0:0:0:
126,243,75776,1,12,0:0:0:0:
10,322,76249,5,12,0:0:0:0:
386,243,76407,1,12,0:0:0:0:
256,14,76881,6,0,P|240:102|235:192,1,180,6|8,1:2|0:0,0:0:0:0:
266,286,77355,1,0,1:2:0:0:
387,164,77513,1,0,0:0:0:0:
193,97,77670,1,0,1:0:0:0:
335,231,77828,6,0,P|418:249|472:182,1,180,12|0,0:0|1:0,0:0:0:0:
371,341,78302,1,0,1:0:0:0:
230,267,78460,2,0,P|229:223|239:177,1,90,10|0,0:0|3:0,0:0:0:0:
248,160,78697,1,0,3:0:0:0:
248,160,78776,1,2,1:2:0:0:
48,273,78934,2,0,L|-17:262,2,45,2|0|8,3:2|3:0|0:0,0:0:0:0:
145,317,79249,1,0,1:0:0:0:
31,171,79407,6,0,P|75:169|119:157,1,90,6|0,1:2|0:0,0:0:0:0:
243,240,79723,1,10,0:0:0:0:
104,128,79881,1,0,1:0:0:0:
292,22,80039,2,0,P|304:64|298:109,1,90,2|0,1:2|0:0,0:0:0:0:
149,282,80355,6,0,P|234:269|293:332,1,180,12|0,0:0|1:0,0:0:0:0:
488,213,80828,1,0,3:0:0:0:
488,213,80907,1,0,3:0:0:0:
488,213,80986,1,10,0:0:0:0:
403,304,81144,1,0,1:0:0:0:
307,127,81302,1,10,0:0:0:0:
427,92,81460,1,0,1:0:0:0:
280,265,81618,2,0,L|271:220,1,45,10|8,0:0|0:0,0:0:0:0:
140,47,81776,2,0,L|128:90,1,45,10|8,0:2|0:0,0:0:0:0:
21,226,81934,5,14,0:0:0:0:
178,187,82092,1,2,1:2:0:0:
335,146,82249,1,10,0:0:0:0:
235,70,82407,1,2,1:2:0:0:
168,206,82565,2,0,L|109:195,3,45,10|0|2|0,0:2|3:0|1:2|3:0,0:0:0:0:
241,252,82881,6,0,L|343:235,1,90,10|2,0:0|1:2,0:0:0:0:
449,148,83197,1,10,0:0:0:0:
344,337,83355,1,2,1:2:0:0:
491,248,83513,1,8,0:0:0:0:
250,119,83670,5,0,1:0:0:0:
250,119,83749,1,0,1:0:0:0:
250,119,83828,2,0,L|196:112,1,45,10|0,0:0|3:0,0:0:0:0:
328,157,83986,2,0,L|348:207,1,45,2|0,1:2|3:0,0:0:0:0:
322,71,84144,2,0,L|355:27,3,45,10|0|2|0,0:0|3:0|1:2|3:0,0:0:0:0:
406,103,84460,6,0,P|457:95|506:80,1,90,14|2,0:0|1:2,0:0:0:0:
236,208,84776,2,0,P|185:216|136:231,1,90,10|2,0:0|1:2,0:0:0:0:
392,264,85092,1,8,0:0:0:0:
250,119,85249,5,0,1:0:0:0:
250,119,85328,1,0,1:0:0:0:
250,119,85407,1,10,0:0:0:0:
222,308,85565,1,2,1:2:0:0:
0,201,85723,1,10,0:0:0:0:
100,71,85881,2,0,P|113:117|112:159,1,90,2|8,1:2|0:0,0:0:0:0:
285,377,86197,5,2,1:2:0:0:
341,24,86354,1,14,0:0:0:0:
88,277,86513,1,14,0:0:0:0:
441,221,86670,1,14,0:0:0:0:
126,62,86828,1,14,0:0:0:0:
126,62,87144,6,0,L|133:109,3,30,0|0|0|2,0:0|0:0|0:0|0:0,0:0:0:0:
256,192,87381,12,0,89197,0:0:0:0:
