osu file format v14

[General]
AudioFilename: audio.mp3
AudioLeadIn: 0
PreviewTime: 56364
Countdown: 0
SampleSet: Soft
StackLeniency: 0.7
Mode: 3
LetterboxInBreaks: 0
SpecialStyle: 0
WidescreenStoryboard: 0

[Editor]
DistanceSpacing: 1.9
BeatDivisor: 4
GridSize: 4
TimelineZoom: 1.9

[Metadata]
Title:1 Milli Symphony
TitleUnicode:1ミリ Symphony
Artist:Machico
ArtistUnicode:Machico
Creator:_Asha
Version:Easy
Source:この素晴らしい世界に祝福を!紅伝説
Tags:Konosuba!: God's Blessing on This Wonderful World! - Legend of Crimson Kono Subarashii Sekai ni Shukufuku wo! Kurenai Densetsu Konosuba テーマソング theme song movie anime Japanese pop jpop j-pop Rhezie
BeatmapID:2473406
BeatmapSetID:1186788

[Difficulty]
HPDrainRate:7
CircleSize:4
OverallDifficulty:7
ApproachRate:5
SliderMultiplier:1.4
SliderTickRate:1

[Events]
//Background and Video events
0,0,"millibg.jpg",0,0
//Break Periods
//Storyboard Layer 0 (Background)
//Storyboard Layer 1 (Fail)
//Storyboard Layer 2 (Pass)
//Storyboard Layer 3 (Foreground)
//Storyboard Layer 4 (Overlay)
//Storyboard Sound Samples

[TimingPoints]
3864,375,4,2,1,60,1,0
56364,-100,4,2,1,60,0,1
66864,-100,4,2,1,60,0,0
68364,-100,4,2,1,60,0,1
80364,-100,4,2,1,60,0,0

[HitObjects]
448,192,3864,5,8,0:0:0:0:
64,192,4239,1,2,0:0:0:0:
320,192,4426,1,8,0:0:0:0:
192,192,4801,1,2,0:0:0:0:
448,192,4989,1,8,0:0:0:0:
320,192,5364,1,2,0:0:0:0:
64,192,5551,1,8,0:0:0:0:
448,192,5926,1,2,0:0:0:0:
192,192,6114,1,8,0:0:0:0:
192,192,6489,128,8,6864:0:0:0:0:
64,192,6864,1,2,0:0:0:0:
448,192,6864,1,4,0:0:0:0:
320,192,7239,1,8,0:0:0:0:
192,192,7614,1,2,0:0:0:0:
448,192,7801,1,2,0:0:0:0:
64,192,7989,1,8,0:0:0:0:
320,192,8364,1,2,0:0:0:0:
192,192,8551,1,2,0:0:0:0:
448,192,8739,1,8,0:0:0:0:
192,192,9114,1,2,0:0:0:0:
320,192,9301,1,2,0:0:0:0:
64,192,9489,1,8,0:0:0:0:
448,192,9864,1,2,0:0:0:0:
192,192,10239,1,8,0:0:0:0:
320,192,10614,1,2,0:0:0:0:
64,192,10801,1,2,0:0:0:0:
448,192,10989,1,8,0:0:0:0:
320,192,11364,1,2,0:0:0:0:
192,192,11551,1,2,0:0:0:0:
64,192,11739,1,8,0:0:0:0:
192,192,12114,1,2,0:0:0:0:
320,192,12301,1,2,0:0:0:0:
448,192,12489,1,8,0:0:0:0:
64,192,12864,1,2,0:0:0:0:
320,192,13239,1,8,0:0:0:0:
192,192,13614,1,2,0:0:0:0:
320,192,13801,1,2,0:0:0:0:
64,192,13989,1,8,0:0:0:0:
448,192,14364,1,2,0:0:0:0:
320,192,14551,1,2,0:0:0:0:
192,192,14739,1,8,0:0:0:0:
64,192,15114,1,2,0:0:0:0:
192,192,15301,1,2,0:0:0:0:
320,192,15489,1,8,0:0:0:0:
192,192,15864,1,2,0:0:0:0:
448,192,16239,1,8,0:0:0:0:
64,192,16614,1,2,0:0:0:0:
320,192,16801,1,2,0:0:0:0:
192,192,16989,1,8,0:0:0:0:
448,192,17364,1,2,0:0:0:0:
64,192,17551,1,2,0:0:0:0:
320,192,17739,1,8,0:0:0:0:
64,192,18114,1,2,0:0:0:0:
448,192,18301,1,2,0:0:0:0:
192,192,18489,1,8,0:0:0:0:
320,192,18864,1,2,0:0:0:0:
64,192,19239,1,8,0:0:0:0:
448,192,19614,1,2,0:0:0:0:
192,192,19801,1,2,0:0:0:0:
320,192,19989,1,8,0:0:0:0:
64,192,20364,1,2,0:0:0:0:
192,192,20551,1,2,0:0:0:0:
448,192,20739,1,8,0:0:0:0:
64,192,21114,1,2,0:0:0:0:
320,192,21301,1,2,0:0:0:0:
448,192,21489,1,8,0:0:0:0:
192,192,21864,1,2,0:0:0:0:
448,192,22239,1,8,0:0:0:0:
64,192,22614,1,2,0:0:0:0:
320,192,22801,1,2,0:0:0:0:
192,192,22989,1,8,0:0:0:0:
448,192,23364,1,2,0:0:0:0:
320,192,23551,1,2,0:0:0:0:
64,192,23739,1,8,0:0:0:0:
448,192,24114,1,2,0:0:0:0:
192,192,24301,1,2,0:0:0:0:
64,192,24489,1,8,0:0:0:0:
320,192,24864,1,2,0:0:0:0:
192,192,25239,1,8,0:0:0:0:
448,192,25614,1,2,0:0:0:0:
64,192,25801,1,2,0:0:0:0:
320,192,25989,1,8,0:0:0:0:
192,192,26364,1,2,0:0:0:0:
448,192,26551,1,2,0:0:0:0:
64,192,26739,1,8,0:0:0:0:
320,192,27114,1,2,0:0:0:0:
64,192,27301,1,2,0:0:0:0:
448,192,27489,1,8,0:0:0:0:
192,192,27864,128,2,28239:0:0:0:0:
448,192,28239,1,8,0:0:0:0:
320,192,28426,128,0,28801:0:0:0:0:
64,192,28801,1,2,0:0:0:0:
448,192,28989,128,8,29364:0:0:0:0:
192,192,29364,1,2,0:0:0:0:
320,192,29551,1,2,0:0:0:0:
448,192,29739,1,8,0:0:0:0:
64,192,29739,1,0,0:0:0:0:
192,192,30114,1,2,0:0:0:0:
320,192,30301,1,2,0:0:0:0:
64,192,30489,128,8,30864:0:0:0:0:
448,192,30864,1,2,0:0:0:0:
320,192,30864,1,4,0:0:0:0:
192,192,31239,1,8,0:0:0:0:
320,192,31614,1,2,0:0:0:0:
192,192,31801,1,2,0:0:0:0:
64,192,31989,1,8,0:0:0:0:
448,192,32364,1,2,0:0:0:0:
320,192,32551,1,2,0:0:0:0:
192,192,32739,1,8,0:0:0:0:
448,192,33114,1,2,0:0:0:0:
192,192,33301,1,2,0:0:0:0:
320,192,33489,1,8,0:0:0:0:
448,192,33676,1,0,0:0:0:0:
64,192,33864,1,2,0:0:0:0:
320,192,34239,1,8,0:0:0:0:
192,192,34614,1,2,0:0:0:0:
320,192,34801,1,2,0:0:0:0:
448,192,34989,1,8,0:0:0:0:
64,192,35364,1,2,0:0:0:0:
192,192,35551,1,2,0:0:0:0:
320,192,35739,1,8,0:0:0:0:
192,192,36114,1,2,0:0:0:0:
448,192,36301,1,2,0:0:0:0:
64,192,36489,1,8,0:0:0:0:
320,192,36864,1,2,0:0:0:0:
192,192,37239,1,8,0:0:0:0:
448,192,37614,1,2,0:0:0:0:
320,192,37801,1,2,0:0:0:0:
64,192,37989,1,8,0:0:0:0:
448,192,38364,1,2,0:0:0:0:
192,192,38551,1,2,0:0:0:0:
64,192,38739,1,8,0:0:0:0:
320,192,39114,1,2,0:0:0:0:
448,192,39301,1,2,0:0:0:0:
64,192,39489,1,8,0:0:0:0:
192,192,39676,1,0,0:0:0:0:
320,192,39864,1,2,0:0:0:0:
64,192,40239,1,8,0:0:0:0:
448,192,40614,1,2,0:0:0:0:
192,192,40801,1,2,0:0:0:0:
320,192,40989,1,8,0:0:0:0:
64,192,41364,1,2,0:0:0:0:
192,192,41551,1,2,0:0:0:0:
448,192,41739,1,8,0:0:0:0:
320,192,42114,1,0,0:0:0:70:tom01.wav
192,192,42301,1,0,0:0:0:70:tom03.wav
64,192,42489,1,0,0:0:0:40:LR_Clap Loud Long.wav
448,192,42489,1,0,0:0:0:0:
320,192,42864,1,2,0:0:0:0:
448,192,42864,1,4,0:0:0:0:
192,192,43239,1,8,0:0:0:0:
320,192,43614,1,2,0:0:0:0:
192,192,43801,1,2,0:0:0:0:
64,192,43989,1,8,0:0:0:0:
448,192,44364,1,2,0:0:0:0:
320,192,44551,1,2,0:0:0:0:
192,192,44739,1,8,0:0:0:0:
448,192,45114,1,2,0:0:0:0:
64,192,45301,1,2,0:0:0:0:
192,192,45489,1,8,0:0:0:0:
320,192,45676,1,0,0:0:0:0:
448,192,45864,1,2,0:0:0:0:
192,192,46239,1,8,0:0:0:0:
320,192,46614,1,2,0:0:0:0:
192,192,46801,1,2,0:0:0:0:
64,192,46989,1,8,0:0:0:0:
448,192,47364,1,2,0:0:0:0:
320,192,47551,1,2,0:0:0:0:
192,192,47739,1,8,0:0:0:0:
448,192,48114,1,2,0:0:0:0:
64,192,48301,1,2,0:0:0:0:
320,192,48489,1,8,0:0:0:0:
192,192,48676,1,2,0:0:0:0:
448,192,48864,1,2,0:0:0:0:
64,192,48864,1,4,0:0:0:0:
320,192,49239,1,8,0:0:0:0:
192,192,49614,1,2,0:0:0:0:
320,192,49801,1,2,0:0:0:0:
64,192,49989,1,8,0:0:0:0:
448,192,50364,1,2,0:0:0:0:
192,192,50551,1,2,0:0:0:0:
320,192,50739,1,8,0:0:0:0:
64,192,51114,1,2,0:0:0:0:
320,192,51301,1,2,0:0:0:0:
192,192,51489,1,8,0:0:0:0:
448,192,51864,1,2,0:0:0:0:
320,192,51864,1,4,0:0:0:0:
64,192,52239,1,8,0:0:0:0:
320,192,52614,1,2,0:0:0:0:
192,192,52801,1,2,0:0:0:0:
448,192,52989,1,8,0:0:0:0:
320,192,53176,1,0,0:0:0:0:
192,192,53364,1,2,0:0:0:0:
64,192,53364,128,4,53739:0:0:0:0:
320,192,53739,1,8,0:0:0:0:
64,192,53926,1,2,0:0:0:0:
448,192,53926,128,4,55614:0:0:0:0:
64,192,56364,1,2,0:0:0:0:
192,192,56364,1,4,0:0:0:0:
320,192,56739,1,8,0:0:0:0:
192,192,57114,1,2,0:0:0:0:
448,192,57301,1,2,0:0:0:0:
64,192,57489,1,8,0:0:0:0:
320,192,57864,1,2,0:0:0:0:
64,192,58051,1,2,0:0:0:0:
448,192,58239,1,8,0:0:0:0:
192,192,58614,1,2,0:0:0:0:
320,192,58801,1,2,0:0:0:0:
192,192,58989,1,8,0:0:0:0:
320,192,59176,1,0,0:0:0:0:
448,192,59364,1,2,0:0:0:0:
64,192,59739,1,8,0:0:0:0:
320,192,60114,1,2,0:0:0:0:
64,192,60301,1,2,0:0:0:0:
448,192,60489,1,8,0:0:0:0:
192,192,60864,1,2,0:0:0:0:
448,192,61051,1,2,0:0:0:0:
64,192,61239,1,8,0:0:0:0:
320,192,61614,1,2,0:0:0:0:
192,192,61801,1,2,0:0:0:0:
320,192,61989,1,8,0:0:0:0:
192,192,62176,1,0,0:0:0:0:
448,192,62364,1,2,0:0:0:0:
64,192,62364,1,4,0:0:0:0:
320,192,62739,1,8,0:0:0:0:
192,192,63114,1,2,0:0:0:0:
320,192,63301,1,2,0:0:0:0:
448,192,63489,1,8,0:0:0:0:
192,192,63864,1,2,0:0:0:0:
320,192,64051,1,2,0:0:0:0:
64,192,64239,1,8,0:0:0:0:
448,192,64614,1,2,0:0:0:0:
320,192,64801,1,2,0:0:0:0:
192,192,64989,1,8,0:0:0:0:
320,192,65364,1,2,0:0:0:0:
64,192,65739,1,8,0:0:0:0:
448,192,66114,1,2,0:0:0:0:
192,192,66301,1,2,0:0:0:0:
320,192,66489,1,8,0:0:0:0:
64,192,66864,1,4,0:0:0:0:
448,192,66864,1,2,0:0:0:0:
192,192,67239,1,8,0:0:0:0:
448,192,67426,1,4,0:0:0:0:
64,192,67426,128,2,67801:0:0:0:0:
320,192,67801,1,2,0:0:0:0:
192,192,67989,128,8,68364:0:0:0:0:
448,192,68364,1,4,0:0:0:0:
320,192,68364,1,2,0:0:0:0:
64,192,68739,1,8,0:0:0:0:
320,192,69114,1,2,0:0:0:0:
192,192,69301,1,2,0:0:0:0:
448,192,69489,1,8,0:0:0:0:
320,192,69864,1,2,0:0:0:0:
192,192,70051,1,2,0:0:0:0:
448,192,70239,1,8,0:0:0:0:
320,192,70426,1,2,0:0:0:0:
64,192,70426,128,4,70801:0:0:0:0:
448,192,70801,1,2,0:0:0:0:
320,192,70989,1,8,0:0:0:0:
192,192,71176,1,0,0:0:0:0:
448,192,71364,1,2,0:0:0:0:
64,192,71739,1,8,0:0:0:0:
320,192,72114,1,2,0:0:0:0:
192,192,72301,1,2,0:0:0:0:
448,192,72489,1,8,0:0:0:0:
192,192,72864,1,2,0:0:0:0:
320,192,73051,1,2,0:0:0:0:
64,192,73239,1,8,0:0:0:0:
192,192,73426,1,2,0:0:0:0:
448,192,73426,128,4,73801:0:0:0:0:
64,192,73801,1,2,0:0:0:0:
320,192,73989,1,8,0:0:0:0:
192,192,74176,1,2,0:0:0:0:
448,192,74364,1,2,0:0:0:0:
320,192,74364,1,4,0:0:0:0:
192,192,74739,1,8,0:0:0:0:
448,192,74926,1,2,0:0:0:0:
320,192,74926,1,4,0:0:0:0:
192,192,75301,1,2,0:0:0:0:
448,192,75489,128,8,75864:0:0:0:0:
64,192,75864,1,4,0:0:0:0:
192,192,75864,1,2,0:0:0:0:
320,192,76239,1,8,0:0:0:0:
64,192,76426,1,2,0:0:0:0:
192,192,76426,1,4,0:0:0:0:
320,192,76801,1,2,0:0:0:0:
64,192,76989,128,8,77364:0:0:0:0:
448,192,77364,1,2,0:0:0:0:
192,192,77364,1,4,0:0:0:0:
320,192,77739,1,8,0:0:0:0:
64,192,78114,1,8,0:0:0:0:
448,192,78489,1,8,0:0:0:0:
192,192,78864,1,8,0:0:0:0:
320,192,78864,128,4,79239:0:0:0:0:
64,192,79239,1,8,0:0:0:0:
448,192,79614,1,8,0:0:0:0:
320,192,79864,1,8,0:0:0:0:
192,192,80114,1,8,0:0:0:0:
448,192,80364,1,4,0:0:0:0:
64,192,80364,128,2,82614:0:0:0:0:
448,192,82614,1,8,0:0:0:0:
320,192,82614,1,4,0:0:0:0:
192,192,82864,1,6,0:0:0:0:
64,192,83114,1,6,0:0:0:0:
320,192,83364,1,4,0:0:0:0:
448,192,83364,1,2,0:0:0:0:
