osu file format v14

[General]
AudioFilename: audio.MP3
AudioLeadIn: 0
PreviewTime: 126921
Countdown: 0
SampleSet: Soft
StackLeniency: 0.2
Mode: 0
LetterboxInBreaks: 1
WidescreenStoryboard: 1

[Editor]
Bookmarks: 4118,23318,38678,54038,69398,77078,84758,92128,106041,126910,133867,140823,147295,158931,170568,182204,193841,199659,205477
DistanceSpacing: 0.7
BeatDivisor: 8
GridSize: 16
TimelineZoom: 3.000005

[Metadata]
Title:Pi Li Pa La
TitleUnicode:劈哩啪啦
Artist:Machi DiDi
ArtistUnicode:麻吉弟弟
Creator:Aranel
Version:elevenzerothree's Another
Source:
Tags:Fsjallink Len Fast YokesPai pw384 384059043 1103 Down chinese hiphop hip hop hip-hop rap OH My Andrew Chow Chou zhou li ming ma chi di di 麻吉 弟弟 周立铭 周立銘
BeatmapID:3506259
BeatmapSetID:1713947

[Difficulty]
HPDrainRate:5
CircleSize:4
OverallDifficulty:9
ApproachRate:8.5
SliderMultiplier:2.4
SliderTickRate:1

[Events]
//Background and Video events
0,0,"machi.jpg",0,0
//Break Periods
2,85446,91461
2,141031,146628
//Storyboard Layer 0 (Background)
//Storyboard Layer 1 (Fail)
//Storyboard Layer 2 (Pass)
//Storyboard Layer 3 (Foreground)
//Storyboard Layer 4 (Overlay)
//Storyboard Sound Samples

[TimingPoints]
286,480,4,2,1,60,1,0
4126,-125,4,2,1,60,0,0
7966,-66.6666666666667,4,2,1,60,0,0
8446,-100,4,2,1,60,0,0
11806,-66.6666666666667,4,2,1,60,0,0
12286,-100,4,2,1,60,0,0
15166,-66.6666666666667,4,2,1,60,0,0
15646,-66.6666666666667,4,2,1,60,0,0
16126,-100,4,2,1,60,0,0
23086,-100,4,2,2,60,0,0
23326,-66.6666666666667,4,2,1,65,0,0
23806,-100,4,2,1,65,0,0
26446,-66.6666666666667,4,2,1,65,0,0
27886,-100,4,2,1,65,0,0
30766,-100,4,2,2,65,0,0
31006,-66.6666666666667,4,2,1,65,0,0
31486,-100,4,2,1,65,0,0
34126,-66.6666666666667,4,2,1,65,0,0
46366,-66.6666666666667,4,2,1,65,0,0
46846,-100,4,2,1,65,0,0
49486,-66.6666666666667,4,2,1,65,0,0
50326,-100,4,2,1,65,0,0
54046,-66.6666666666667,4,2,1,65,0,0
54526,-100,4,2,1,65,0,0
57166,-66.6666666666667,4,2,1,65,0,0
58366,-100,4,2,1,65,0,0
61486,-100,4,2,2,65,0,0
61726,-66.6666666666667,4,2,1,65,0,0
63646,-100,4,2,1,65,0,0
64846,-66.6666666666667,4,2,1,65,0,0
66046,-100,4,2,1,65,0,0
69406,-66.6666666666667,4,2,1,65,0,0
76846,-66.6666666666667,4,2,2,75,0,0
77086,-66.6666666666667,4,2,1,75,0,0
83806,-100,4,2,1,60,0,0
83836,-66.6666666666667,4,2,1,75,0,0
84286,-66.6666666666667,4,2,2,75,0,0
84406,-66.6666666666667,4,2,1,75,0,0
88606,447.761194029851,4,2,1,70,1,0
90397,434.782608695652,4,2,1,60,1,0
91511,-100,4,2,1,40,0,0
92136,-100,4,2,1,65,0,1
98875,-100,4,2,2,65,0,1
99092,-100,4,2,1,65,0,1
105424,-100,4,2,1,40,0,1
106049,-100,4,2,1,65,0,1
112788,-100,4,2,2,65,0,1
113005,-100,4,2,1,65,0,1
126918,-66.6666666666667,4,2,1,75,0,0
133657,-66.6666666666667,4,2,2,75,0,0
133874,-66.6666666666667,4,2,1,75,0,0
144310,394.736842105263,4,2,1,70,1,0
145099,375,4,2,1,70,1,0
145849,363.636363636364,4,2,1,70,1,0
147303,-100,4,2,1,70,0,1
152939,-100,4,2,2,70,0,1
153121,-100,4,2,1,70,0,1
157485,-100,4,2,1,60,0,1
158758,-100,4,2,2,60,0,1
158939,-100,4,2,1,70,0,1
164576,-100,4,2,2,70,0,1
164758,-100,4,2,1,70,0,1
169121,-100,4,2,1,60,0,1
170394,-100,4,2,2,60,0,1
170576,-100,4,2,1,70,0,1
176212,-100,4,2,2,70,0,1
176394,-100,4,2,1,70,0,1
180758,-100,4,2,1,60,0,1
182030,-100,4,2,2,60,0,1
182212,-100,4,2,1,70,0,1
193849,-66.6666666666667,4,2,1,70,0,0
199485,-66.6666666666667,4,2,2,75,0,0
199667,-66.6666666666667,4,2,1,75,0,0
206939,-66.6666666666667,4,2,2,75,0,0

[Colours]
Combo1 : 129,129,192
Combo2 : 151,47,255
Combo3 : 128,128,255
Combo4 : 150,143,182

[HitObjects]
0,64,4126,6,0,P|133:69|283:39,1,288,4|0,1:2|0:0,0:0:0:0:
512,320,5086,2,0,P|378:314|228:344,1,288,4|0,1:2|0:0,0:0:0:0:
284,38,6046,6,0,P|316:74|339:117,1,96,6|2,1:2|0:0,0:0:0:0:
227,344,6526,2,0,P|194:308|172:266,1,96,2|2,1:2|0:0,0:0:0:0:
240,190,7006,5,0,1:2:0:0:
271,193,7126,1,2,0:0:0:0:
160,183,7246,2,0,B|113:179|113:183|110:179|107:182|104:178|107:179|103:174|108:176|99:175,1,48,10|2,0:0|0:0,0:0:0:0:
351,200,7486,2,0,B|398:204|397:208|401:204|403:208|407:205|404:205|408:201|403:202|412:202,1,48,8|0,0:0|0:0,0:0:0:0:
247,96,7726,1,8,0:0:0:0:
255,188,7846,1,10,0:0:0:0:
267,283,7966,6,0,B|326:271|337:326|321:327|380:377|423:356,1,180.000006866455,6|2,1:2|0:2,0:0:0:0:
327,337,8326,1,2,0:2:0:0:
430,356,8446,2,0,P|461:337|477:291,1,60,8|0,0:2|0:0,0:0:0:0:
402,281,8686,5,2,1:2:0:0:
471,227,9166,1,2,1:3:0:0:
400,201,9406,2,0,P|387:174|388:145,1,60,8|2,0:0|0:2,0:0:0:0:
448,96,9886,1,2,1:2:0:0:
393,43,10366,1,8,0:2:0:0:
458,0,10606,1,2,1:2:0:0:
243,0,10846,5,2,3:2:0:0:
275,32,10966,1,2,3:2:0:0:
243,64,11086,1,2,3:3:0:0:
275,96,11206,1,0,3:0:0:0:
243,128,11326,1,8,3:2:0:0:
275,160,11446,1,0,3:0:0:0:
243,192,11566,1,0,3:2:0:0:
275,224,11686,1,0,3:0:0:0:
226,284,11806,6,0,B|166:272|156:327|171:328|113:378|70:357,1,180.000006866455,6|2,1:2|0:2,0:0:0:0:
166,338,12166,1,2,0:2:0:0:
63,357,12286,2,0,P|32:338|16:292,1,60,8|0,0:2|0:0,0:0:0:0:
91,282,12526,5,2,1:2:0:0:
22,228,13006,1,2,1:3:0:0:
92,202,13246,2,0,P|104:175|104:145,1,60,8|0,0:0|0:0,0:0:0:0:
34,80,13726,5,0,3:2:0:0:
89,102,13846,5,0,3:0:0:0:
144,125,13966,5,0,3:0:0:0:
200,148,14086,5,0,3:0:0:0:
255,171,14206,5,0,3:0:0:0:
311,194,14326,5,0,3:0:0:0:
366,217,14446,5,0,3:0:0:0:
422,240,14566,5,0,1:0:0:0:
477,263,14686,6,0,L|484:240,1,15,2|0,3:2|0:0,0:0:0:0:
304,384,14926,1,0,3:0:0:0:
233,324,15166,6,2,L|278:59,1,270.000010299683,2|8,1:3|0:0,0:1:0:0:
224,0,15646,6,0,B|192:48|224:144|336:80|368:192|304:256,1,270.000010299683,6|2,1:2|0:2,0:0:0:0:
259,250,16126,5,8,0:2:0:0:
262,255,16246,1,2,1:2:0:0:
265,260,16366,1,2,1:2:0:0:
160,325,16606,1,2,0:2:0:0:
157,331,16726,1,2,3:2:0:0:
154,338,16846,1,2,1:3:0:0:
32,288,17086,1,8,0:0:0:0:
32,288,17326,1,2,0:2:0:0:
144,208,17566,1,2,1:2:0:0:
48,128,17806,1,2,0:2:0:0:
54,115,17926,1,2,0:2:0:0:
60,102,18046,1,8,0:2:0:0:
224,96,18286,1,2,1:2:0:0:
215,75,18406,1,2,3:2:0:0:
206,56,18526,1,2,1:2:0:0:
197,37,18646,1,2,3:2:0:0:
188,17,18766,6,0,P|234:55|312:91,1,120,4|8,1:2|0:2,0:0:0:0:
512,0,19486,6,0,P|445:47|369:137,1,180,6|2,1:2|0:2,0:0:0:0:
340,183,19966,5,8,0:2:0:0:
343,188,20086,1,2,1:2:0:0:
346,193,20206,1,2,1:2:0:0:
428,278,20446,1,2,0:2:0:0:
426,280,20566,1,0,3:2:0:0:
428,286,20686,1,2,1:3:0:0:
337,356,20926,1,8,0:0:0:0:
337,356,21166,1,2,0:2:0:0:
197,280,21406,6,0,L|118:302,3,60,2|2|2|2,1:2|0:2|0:2|0:2,0:0:0:0:
299,175,21886,2,0,L|380:182,3,60,2|2|2|2,1:3|0:2|0:2|0:2,0:0:0:0:
243,0,22366,5,2,1:2:0:0:
275,32,22486,1,2,3:2:0:0:
243,64,22606,1,2,3:2:0:0:
275,96,22726,1,2,3:2:0:0:
243,128,22846,1,2,1:2:0:0:
275,186,22966,1,0,3:2:0:0:
250,243,23086,1,10,3:3:0:0:
270,318,23206,1,8,3:3:0:0:
256,384,23326,6,0,B|224:336|256:240|368:304|400:192|336:128,1,270.000010299683,6|2,1:2|0:2,0:0:0:0:
351,160,23806,6,0,P|375:111|429:101,1,60,8|2,0:2|0:2,0:0:0:0:
448,80,24046,2,0,L|507:89,1,60,2|2,1:3|0:2,0:0:0:0:
384,32,24286,2,0,P|352:16|336:-16,1,60,2|2,0:2|0:2,0:0:0:0:
480,0,24526,1,0,1:0:0:0:
288,64,25006,6,0,L|192:96,1,60,2|2,0:2|0:2,0:0:0:0:
176,32,25246,1,2,1:2:0:0:
336,192,25486,1,2,0:2:0:0:
256,272,25726,1,10,0:2:0:0:
352,112,25966,2,0,L|430:134,1,60,2|2,1:2|3:2,0:0:0:0:
160,256,26206,1,2,1:2:0:0:
336,288,26446,6,0,B|379:273|425:298|406:320|437:354|496:331,1,180.000006866455,6|8,1:2|0:2,0:0:0:0:
177,334,27166,6,0,B|133:348|101:325|106:301|68:272|8:297,1,180.000006866455,6|2,1:2|0:2,0:0:0:0:
45,365,27646,1,8,0:2:0:0:
110,199,27886,6,0,L|147:104,1,60,2|2,1:2|3:2,0:0:0:0:
102,72,28126,2,0,P|85:46|45:37,1,60,2|2,0:2|3:2,0:0:0:0:
210,121,28366,2,0,P|237:106|276:119,1,60,2|0,1:3|0:0,0:0:0:0:
197,0,28606,2,0,L|160:95,1,60,8|0,0:0|0:0,0:0:0:0:
336,272,29086,2,0,L|436:256,1,60,0|0,1:2|0:0,0:0:0:0:
448,192,29326,2,0,L|384:112,1,60,2|2,0:2|0:2,0:0:0:0:
496,112,29566,1,8,0:2:0:0:
304,192,29806,1,2,1:2:0:0:
269,0,30046,5,0,3:2:0:0:
237,32,30166,1,2,3:2:0:0:
269,64,30286,1,2,1:2:0:0:
237,96,30406,1,2,3:2:0:0:
269,128,30526,1,8,3:2:0:0:
235,171,30646,1,0,3:2:0:0:
265,229,30766,1,10,3:3:0:0:
244,292,30886,1,8,3:3:0:0:
259,374,31006,6,0,B|291:326|259:230|147:294|115:182|179:118,1,270.000010299683,6|2,1:2|0:2,0:0:0:0:
155,155,31486,6,0,P|160:137|120:82,1,60,8|0,0:2|0:0,0:0:0:0:
28,124,31726,2,0,P|41:137|108:130,1,60,2|2,1:3|0:2,0:0:0:0:
126,29,31966,2,0,P|107:33|80:95,1,60,2|2,0:2|0:0,0:0:0:0:
214,46,32206,2,0,L|307:24,1,60,0|0,1:0|0:0,0:0:0:0:
290,108,32446,2,0,L|231:121,1,60,8|0,0:0|0:0,0:0:0:0:
251,200,32686,2,0,L|309:186,1,60,2|2,0:2|0:2,0:0:0:0:
463,144,32926,5,0,1:2:0:0:
460,155,33046,1,2,0:2:0:0:
457,166,33166,1,2,0:3:0:0:
381,69,33406,1,8,0:2:0:0:
499,238,33646,1,2,1:2:0:0:
302,268,33886,1,2,1:2:0:0:
156,297,34126,6,0,B|111:285|68:314|89:334|61:371|0:353,1,180.000006866455,6|8,1:2|0:2,0:0:0:0:
317,384,34846,6,0,B|361:395|404:366|383:346|411:309|472:327,1,180.000006866455,6|2,1:2|0:2,0:0:0:0:
352,208,35326,1,8,0:2:0:0:
480,96,35566,1,2,1:2:0:0:
475,110,35686,1,0,3:2:0:0:
471,121,35806,1,2,0:2:0:0:
336,48,36046,1,2,1:3:0:0:
328,27,36166,1,2,0:0:0:0:
319,1,36286,1,10,0:0:0:0:
496,16,36526,1,2,0:2:0:0:
344,210,36766,6,0,L|152:242,1,180.000006866455,6|2,1:2|0:2,0:0:0:0:
146,157,37246,2,0,L|381:294,1,270.000010299683,6|2,1:2|0:2,0:0:0:0:
269,384,37726,5,6,3:2:0:0:
237,352,37846,1,0,3:2:0:0:
269,320,37966,1,2,3:2:0:0:
237,288,38086,1,0,3:2:0:0:
269,256,38206,1,6,1:2:0:0:
235,213,38326,1,0,3:2:0:0:
268,138,38446,1,10,0:2:0:0:
241,68,38566,1,8,0:2:0:0:
256,0,38686,6,0,B|288:48|256:144|144:80|112:192|176:256,1,270.000010299683,6|2,1:2|0:2,0:0:0:0:
152,218,39166,1,10,0:2:0:0:
16,128,39406,1,2,1:3:0:0:
11,297,39646,1,2,0:2:0:0:
224,176,39886,1,2,1:2:0:0:
304,352,40126,1,10,0:2:0:0:
304,352,40366,1,2,0:2:0:0:
152,140,40606,1,2,1:2:0:0:
480,16,41086,1,10,0:2:0:0:
472,36,41206,1,2,0:2:0:0:
464,56,41326,1,2,1:2:0:0:
320,112,41566,1,2,1:2:0:0:
160,0,41806,6,0,B|115:-12|72:17|93:37|65:74|4:56,1,180.000006866455,6|10,1:2|0:2,0:0:0:0:
304,192,42526,6,0,B|349:204|392:175|371:155|399:118|460:136,1,180.000006866455,6|2,1:2|0:2,0:0:0:0:
336,16,43006,1,10,0:2:0:0:
240,144,43246,1,2,1:2:0:0:
448,240,43486,1,2,0:2:0:0:
445,227,43606,1,2,3:2:0:0:
442,214,43726,1,2,1:3:0:0:
240,53,43966,1,10,0:0:0:0:
160,96,44206,1,2,0:2:0:0:
157,109,44326,1,2,0:2:0:0:
154,122,44446,1,0,1:2:0:0:
96,32,44686,1,2,0:2:0:0:
136,206,44926,1,10,0:2:0:0:
136,206,45166,1,0,1:2:0:0:
243,0,45406,5,0,3:2:0:0:
275,32,45526,1,2,3:2:0:0:
243,64,45646,1,2,1:2:0:0:
275,96,45766,1,2,3:2:0:0:
243,128,45886,1,10,3:2:0:0:
275,160,46006,1,2,3:2:0:0:
243,192,46126,1,2,3:2:0:0:
275,224,46246,1,2,3:2:0:0:
256,304,46366,6,0,B|224:256|256:160|368:224|400:112|336:48,1,270.000010299683,6|2,1:2|0:2,0:0:0:0:
444,91,46846,2,0,P|451:35|474:2,1,60,8|2,0:2|0:2,0:0:0:0:
335,0,47086,2,0,P|356:38|360:83,1,60,2|2,1:3|0:2,0:0:0:0:
151,83,47326,2,0,P|155:38|177:0,1,60,2|2,0:2|0:2,0:0:0:0:
42,7,47566,2,0,P|64:46|68:91,1,60,0|0,1:0|0:0,0:0:0:0:
112,160,47806,1,8,0:0:0:0:
256,32,48046,1,2,0:2:0:0:
340,204,48286,2,0,P|374:175|416:160,1,60,0|2,1:2|0:2,0:0:0:0:
171,204,48526,2,0,P|137:175|96:160,1,60,2|2,0:3|0:2,0:0:0:0:
256,272,48766,2,0,L|256:116,1,120,8|0,0:2|1:2,0:0:0:0:
256,352,49246,1,2,1:2:0:0:
14,330,49486,6,0,B|75:354|106:320|87:298|133:273|176:288,1,180.000006866455,4|8,1:2|0:2,0:0:0:0:
497,53,50206,6,0,B|437:30|406:64|425:86|379:111|336:96,1,180.000006866455,6|2,1:2|0:2,0:0:0:0:
327,86,50566,5,2,0:2:0:0:
317,75,50686,2,0,L|189:59,1,120,8|2,0:2|1:2,0:0:0:0:
16,0,51166,2,0,L|48:144,1,120,2|2,0:2|1:3,0:0:0:0:
304,176,51646,2,0,L|330:293,1,120,8|2,0:0|0:2,0:0:0:0:
16,320,52126,2,0,L|96:336,1,60,4|0,1:2|0:0,0:0:0:0:
18,298,52366,2,0,P|63:343|69:354,1,60,10|2,0:2|0:2,0:0:0:0:
171,285,52606,2,0,L|178:370,1,60,12|0,0:2|0:0,0:0:0:0:
301,311,52846,2,0,L|285:394,1,60,10|10,3:2|3:2,0:0:0:0:
269,384,53086,5,4,3:2:0:0:
237,352,53206,1,8,3:2:0:0:
269,320,53326,1,8,3:2:0:0:
237,288,53446,1,0,3:2:0:0:
269,256,53566,1,14,1:2:0:0:
235,213,53686,1,0,3:2:0:0:
267,134,53806,1,8,3:2:0:0:
235,67,53926,1,8,3:2:0:0:
256,0,54046,6,0,B|275:29|256:87|220:52|177:114|207:155,1,180.000006866455,6|2,1:2|0:2,0:0:0:0:
128,176,54406,1,2,0:2:0:0:
64,112,54526,2,0,L|-32:96,1,60,8|0,0:2|0:0,0:0:0:0:
19,22,54766,2,0,L|78:31,1,60,2|2,1:3|0:2,0:0:0:0:
160,0,55006,1,2,0:2:0:0:
48,192,55246,1,2,1:2:0:0:
192,288,55486,2,0,L|384:320,1,180,10|2,0:0|0:2,0:0:0:0:
369,317,55966,2,0,L|379:258,1,60,2|2,1:2|0:2,0:0:0:0:
289,244,56206,2,0,L|279:303,1,60,2|2,0:2|0:2,0:0:0:0:
387,185,56446,1,8,0:2:0:0:
256,0,56686,1,0,1:2:0:0:
272,80,56926,2,0,L|340:100,1,60,2|2,1:2|3:2,0:0:0:0:
480,0,57166,6,0,B|447:-10|395:22|439:48|390:105|342:87,1,180.000006866455,4|10,1:2|0:2,0:0:0:0:
168,296,57886,6,0,B|121:278|72:335|116:361|64:394|32:384,1,180.000006866455,6|2,1:2|0:2,0:0:0:0:
27,379,58246,1,2,0:2:0:0:
21,369,58366,2,0,L|39:288,1,60,8|0,0:2|0:0,0:0:0:0:
241,299,58606,2,0,L|183:313,1,60,2|2,1:2|3:2,0:0:0:0:
127,227,58846,1,2,0:2:0:0:
113,219,58966,1,2,3:2:0:0:
133,208,59086,2,0,L|142:135,1,60,2|0,1:3|0:0,0:0:0:0:
64,112,59326,1,8,0:0:0:0:
192,0,59566,1,2,0:2:0:0:
256,48,59806,2,0,L|326:36,1,60,0|0,1:2|0:0,0:0:0:0:
486,11,60046,1,2,0:2:0:0:
477,23,60166,1,2,0:2:0:0:
489,28,60286,2,0,L|505:105,1,60,10|0,0:2|0:0,0:0:0:0:
464,176,60526,1,2,1:2:0:0:
269,0,60766,5,2,3:2:0:0:
237,32,60886,1,2,3:2:0:0:
269,64,61006,1,2,1:2:0:0:
237,96,61126,1,2,3:2:0:0:
269,128,61246,1,10,3:2:0:0:
235,171,61366,1,0,3:2:0:0:
266,252,61486,1,10,3:3:0:0:
242,322,61606,1,8,3:3:0:0:
256,384,61726,6,0,B|275:355|256:297|220:332|177:270|207:229,1,180.000006866455,6|2,1:2|0:2,0:0:0:0:
214,225,62086,1,2,0:2:0:0:
305,154,62206,2,0,B|335:114|292:52|256:87|237:29|256:0,1,180.000006866455,8|2,0:2|1:3,0:0:0:0:
84,355,62926,6,2,P|261:379|459:352,1,360.000013732911,2|2,1:2|0:2,0:1:0:0:
489,226,63646,6,0,P|484:196|476:167,1,60,0|2,1:2|0:2,0:0:0:0:
400,208,63886,1,2,0:3:0:0:
279,225,64126,2,0,P|290:267|294:303,1,60,8|0,0:2|0:0,0:0:0:0:
208,268,64366,1,0,1:2:0:0:
32,288,64606,1,2,1:2:0:0:
40,300,64726,1,2,3:2:0:0:
27,303,64846,6,0,B|63:291|121:322|86:344|148:378|197:351,1,180.000006866455,4|8,1:2|0:2,0:0:0:0:
485,81,65566,6,0,B|449:93|391:62|426:40|364:6|315:33,1,180.000006866455,6|2,1:2|0:2,0:0:0:0:
317,37,65926,1,2,0:2:0:0:
255,86,66046,2,0,P|209:76|177:62,1,60,8|2,0:2|0:2,0:0:0:0:
288,160,66286,1,2,1:2:0:0:
128,272,66526,2,0,P|176:240|240:224,1,120,2|2,0:2|1:3,0:0:0:0:
386,337,67006,2,0,P|338:369|274:385,1,120,8|2,0:0|0:2,0:0:0:0:
34,80,67486,5,4,1:2:0:0:
89,102,67606,5,0,1:0:0:0:
144,125,67726,5,0,1:0:0:0:
200,148,67846,5,0,1:0:0:0:
255,171,67966,5,0,1:0:0:0:
311,194,68086,5,0,1:0:0:0:
366,217,68206,5,0,1:0:0:0:
422,240,68326,5,2,1:2:0:0:
477,263,68446,6,0,L|484:240,1,15,2|0,1:2|0:0,0:0:0:0:
240,368,68686,1,2,1:2:0:0:
75,72,68926,2,2,L|59:-24,1,60,10|0,1:2|0:0,0:1:0:0:
81,78,69166,1,10,1:2:0:0:
70,79,69286,1,10,1:2:0:0:
80,80,69406,6,0,P|250:74|448:48,1,360.000013732911,6|8,1:2|0:2,0:0:0:0:
438,49,70126,2,0,P|259:73|80:80,1,360.000013732911,2|0,1:3|1:0,0:0:0:0:
32,16,70846,1,8,0:0:0:0:
361,22,71086,1,2,0:2:0:0:
358,17,71206,1,2,0:2:0:0:
355,25,71326,6,0,L|404:240,1,180.000006866455,0|2,1:2|0:2,0:0:0:0:
32,144,71806,2,0,L|81:359,1,180.000006866455,8|0,0:2|1:2,0:0:0:0:
272,384,72286,1,2,1:2:0:0:
272,384,72526,1,4,1:2:0:0:
189,15,72766,2,0,L|238:230,1,180.000006866455,10|2,0:2|0:2,0:0:0:0:
509,14,73246,2,0,P|431:55|336:71,2,180.000006866455,6|2|8,1:2|0:2|0:2,0:0:0:0:
509,14,73966,2,0,P|404:63|155:8,1,360.000013732911,2|2,1:2|1:3,0:0:0:0:
496,112,74686,1,8,0:0:0:0:
171,20,74926,2,0,P|341:71|509:14,1,360.000013732911,2|2,0:2|0:2,0:0:0:0:
336,224,75646,1,8,0:2:0:0:
336,224,75886,1,0,1:2:0:0:
243,384,76126,5,0,3:2:0:0:
275,352,76246,1,2,3:2:0:0:
243,320,76366,1,2,1:2:0:0:
275,288,76486,1,2,3:2:0:0:
243,256,76606,1,8,3:2:0:0:
256,208,76726,1,0,3:2:0:0:
256,144,76846,1,10,3:3:0:0:
224,80,76966,1,8,3:3:0:0:
153,34,77086,6,0,P|332:57|512:65,1,360.000013732911,6|8,1:2|0:2,0:0:0:0:
512,65,77806,2,0,P|332:58|153:34,1,360.000013732911,2|0,1:3|1:0,0:0:0:0:
32,16,78526,1,8,0:0:0:0:
361,22,78766,1,2,0:2:0:0:
358,17,78886,1,2,0:2:0:0:
355,25,79006,6,0,L|404:240,1,180.000006866455,0|2,1:2|0:3,0:0:0:0:
32,144,79486,2,0,L|81:359,1,180.000006866455,8|0,0:2|1:2,0:0:0:0:
272,384,79966,1,2,1:2:0:0:
272,384,80206,1,4,1:2:0:0:
189,15,80446,2,0,L|238:230,1,180.000006866455,8|2,0:2|0:2,0:0:0:0:
509,14,80926,2,0,P|431:55|336:71,2,180.000006866455,6|2|8,1:2|0:2|0:2,0:0:0:0:
509,14,81646,2,0,P|404:63|155:8,1,360.000013732911,2|2,1:2|1:3,0:0:0:0:
496,112,82366,1,8,0:0:0:0:
171,20,82606,2,0,P|238:55|274:64,1,90.0000034332277,2|2,0:2|0:2,0:0:0:0:
512,18,82846,5,0,3:2:0:0:
464,53,82966,5,0,3:2:0:0:
417,89,83086,5,2,3:3:0:0:
369,126,83206,5,0,3:2:0:0:
322,163,83326,5,0,3:2:0:0:
273,199,83446,5,0,3:2:0:0:
226,236,83566,5,0,3:2:0:0:
178,272,83686,5,2,1:2:0:0:
131,309,83806,6,0,L|118:288,1,15,2|0,1:2|0:0,0:0:0:0:
256,48,84046,1,2,3:2:0:0:
368,336,84286,6,0,L|112:176,1,270.000010299683,10|2,1:3|0:2,0:0:0:0:
304,144,84766,6,0,B|329:229|290:286|234:243|191:312|204:377,1,270.000010299683,6|0,1:2|0:0,0:0:0:0:
208,384,85246,1,8,0:0:0:0:
32,32,92136,5,6,1:2:0:0:
32,32,92244,1,2,0:2:0:0:
32,32,92353,1,2,0:2:0:0:
128,192,92570,1,8,0:2:0:0:
192,144,92788,1,2,1:3:0:0:
48,208,93005,1,2,0:2:0:0:
48,208,93114,1,2,3:2:0:0:
48,208,93223,1,2,1:2:0:0:
192,320,93440,1,8,0:0:0:0:
112,288,93657,1,2,0:2:0:0:
272,224,93875,1,0,1:2:0:0:
368,224,94092,1,2,0:3:0:0:
512,128,94310,1,8,0:2:0:0:
448,176,94527,1,2,0:2:0:0:
448,176,94636,1,2,3:2:0:0:
448,176,94744,1,2,1:2:0:0:
432,256,94962,1,0,1:2:0:0:
320,160,95179,1,8,0:2:0:0:
160,128,95397,1,2,1:2:0:0:
160,128,95505,1,2,0:2:0:0:
170,105,95614,5,6,1:2:0:0:
64,0,95831,1,2,0:2:0:0:
256,64,96049,1,8,0:2:0:0:
256,64,96157,1,2,0:2:0:0:
256,64,96266,1,2,1:2:0:0:
96,208,96483,1,2,0:2:0:0:
96,208,96592,1,2,3:2:0:0:
96,208,96701,1,2,1:3:0:0:
192,320,96918,1,8,0:0:0:0:
192,320,97027,1,2,0:2:0:0:
192,320,97136,1,2,0:2:0:0:
240,256,97353,1,0,1:2:0:0:
112,320,97570,1,2,1:2:0:0:
256,176,97788,1,8,0:2:0:0:
256,176,97897,1,2,3:2:0:0:
256,176,98005,1,2,0:2:0:0:
231,0,98223,1,0,3:2:0:0:
267,31,98331,1,2,3:2:0:0:
236,65,98440,1,2,3:2:0:0:
265,100,98548,1,2,3:2:0:0:
244,132,98657,1,8,3:2:0:0:
272,160,98765,1,0,3:2:0:0:
243,198,98875,1,2,3:3:0:0:
269,223,98983,1,2,3:3:0:0:
252,257,99092,5,6,1:2:0:0:
358,287,99310,1,2,0:2:0:0:
384,176,99527,1,8,0:2:0:0:
176,336,99962,1,2,0:2:0:0:
176,336,100070,1,2,3:2:0:0:
176,336,100179,1,0,1:0:0:0:
112,288,100397,1,8,0:0:0:0:
240,384,100614,1,2,0:2:0:0:
320,304,100831,1,0,1:2:0:0:
208,208,101049,1,2,0:3:0:0:
208,208,101157,1,2,0:2:0:0:
208,208,101266,1,8,0:2:0:0:
288,80,101483,1,2,0:2:0:0:
400,144,101701,1,2,1:2:0:0:
400,144,101810,1,2,3:2:0:0:
400,144,101918,1,0,1:2:0:0:
448,80,102136,1,8,0:2:0:0:
304,192,102353,1,2,1:2:0:0:
336,272,102570,5,6,1:2:0:0:
160,336,103005,1,8,0:2:0:0:
160,336,103114,1,2,0:2:0:0:
160,336,103223,1,2,1:2:0:0:
160,336,103331,1,2,3:2:0:0:
160,336,103440,1,2,0:2:0:0:
160,336,103549,1,2,3:2:0:0:
160,336,103657,1,2,1:3:0:0:
128,240,103875,1,8,0:0:0:0:
224,224,104092,1,2,0:2:0:0:
224,224,104201,1,2,0:2:0:0:
240,208,104310,1,6,1:2:0:0:
304,176,104527,1,0,3:0:0:0:
432,224,104744,1,8,0:1:0:0:
224,80,104962,1,8,0:1:0:0:
240,64,105070,1,8,0:1:0:0:
231,0,105179,1,0,3:0:0:0:
268,29,105287,1,0,0:0:0:0:
231,64,105396,1,2,3:3:0:0:
264,96,105504,1,0,1:3:0:0:
236,130,105613,1,0,1:3:0:0:
259,157,105723,1,0,1:3:0:0:
244,197,105831,1,0,1:3:0:0:
258,233,105939,1,0,1:3:0:0:
255,255,106048,5,6,1:2:0:0:
64,272,106266,1,2,0:2:0:0:
176,368,106483,1,8,0:2:0:0:
384,272,106701,1,2,1:3:0:0:
336,192,106918,1,2,0:2:0:0:
416,96,107136,1,0,1:0:0:0:
288,16,107353,1,8,0:0:0:0:
144,128,107570,1,2,0:2:0:0:
80,80,107788,1,0,1:2:0:0:
480,16,108223,1,8,0:2:0:0:
480,16,108332,1,0,1:2:0:0:
480,16,108441,1,2,0:2:0:0:
480,16,108549,1,2,3:2:0:0:
480,16,108658,1,2,1:2:0:0:
480,16,108766,1,2,3:2:0:0:
472,32,108875,5,4,1:2:0:0:
472,32,108983,1,2,0:2:0:0:
472,32,109092,1,8,0:2:0:0:
496,112,109310,1,2,1:2:0:0:
320,48,109527,5,6,1:2:0:0:
384,208,109962,1,8,0:2:0:0:
384,208,110070,1,2,0:2:0:0:
384,208,110179,1,2,1:2:0:0:
224,304,110397,1,2,0:2:0:0:
320,288,110614,1,2,1:3:0:0:
416,352,110831,1,8,0:0:0:0:
416,352,110940,1,2,0:2:0:0:
416,352,111049,1,2,0:2:0:0:
384,208,111266,1,0,1:2:0:0:
464,144,111483,1,2,1:2:0:0:
304,112,111701,1,8,0:2:0:0:
384,16,111918,1,2,0:2:0:0:
231,0,112136,1,0,3:2:0:0:
259,32,112244,1,2,3:2:0:0:
244,69,112353,1,2,1:2:0:0:
268,96,112461,1,2,3:2:0:0:
252,130,112570,1,8,3:2:0:0:
262,160,112678,1,0,3:2:0:0:
247,196,112788,1,10,3:3:0:0:
269,225,112896,1,8,3:3:0:0:
231,256,113005,5,6,1:2:0:0:
231,256,113114,1,2,0:2:0:0:
231,256,113223,1,2,0:2:0:0:
368,352,113440,1,8,0:2:0:0:
496,192,113657,1,2,1:3:0:0:
448,128,113875,1,2,0:2:0:0:
448,128,113983,1,2,3:2:0:0:
448,128,114092,1,0,1:0:0:0:
448,128,114201,1,2,0:2:0:0:
448,128,114310,1,8,0:0:0:0:
112,304,114744,1,0,1:2:0:0:
192,336,114962,1,2,0:3:0:0:
64,240,115179,1,8,0:2:0:0:
64,240,115288,1,0,1:2:0:0:
64,240,115397,1,2,0:2:0:0:
32,368,115614,1,2,1:2:0:0:
272,288,115831,5,6,1:2:0:0:
288,208,116049,1,8,0:2:0:0:
192,176,116266,1,2,1:2:0:0:
336,352,116483,5,6,1:2:0:0:
496,288,116701,1,2,0:2:0:0:
256,352,116918,1,8,0:2:0:0:
256,352,117027,1,2,0:2:0:0:
256,352,117136,1,2,1:2:0:0:
400,304,117353,1,2,0:2:0:0:
432,144,117570,1,2,1:3:0:0:
320,272,117788,1,8,0:0:0:0:
288,128,118005,1,2,0:2:0:0:
160,96,118223,1,4,1:2:0:0:
208,176,118440,1,2,0:2:0:0:
208,176,118549,1,2,0:2:0:0:
208,176,118657,1,4,1:2:0:0:
352,64,118875,1,2,0:2:0:0:
261,0,119092,1,4,3:2:0:0:
252,46,119200,1,0,3:2:0:0:
260,69,119309,1,0,3:2:0:0:
240,98,119417,1,0,3:2:0:0:
268,126,119526,1,2,1:3:0:0:
241,162,119636,1,0,3:2:0:0:
256,204,119744,1,8,0:2:0:0:
249,240,119853,1,8,0:2:0:0:
261,280,119961,5,6,1:2:0:0:
64,336,120396,1,8,0:2:0:0:
16,192,120614,1,2,1:3:0:0:
48,352,120831,1,2,0:2:0:0:
208,320,121049,1,0,1:0:0:0:
256,144,121266,1,8,0:0:0:0:
32,16,121701,1,0,1:2:0:0:
144,64,121918,1,2,0:3:0:0:
16,48,122136,1,8,0:2:0:0:
192,0,122353,1,2,0:2:0:0:
128,176,122570,1,2,1:2:0:0:
272,272,122788,5,6,1:2:0:0:
112,352,123005,1,8,0:2:0:0:
112,352,123114,1,2,0:2:0:0:
112,352,123223,1,2,1:2:0:0:
288,272,123440,5,6,1:2:0:0:
224,80,123875,1,8,0:2:0:0:
400,0,124310,1,2,0:2:0:0:
448,64,124527,1,2,1:3:0:0:
512,16,124744,1,8,0:0:0:0:
256,192,125179,12,0,126701,1:3:0:0:
69,61,126918,6,0,P|268:46|430:24,1,360.000013732911,6|8,1:2|0:2,0:0:0:0:
426,24,127570,2,0,P|248:48|69:61,1,360.000013732911,2|0,1:3|1:0,0:0:0:0:
256,320,128223,1,8,0:0:0:0:
432,112,128440,1,2,0:2:0:0:
444,124,128549,1,2,0:2:0:0:
427,123,128657,6,0,L|412:232,1,90.0000034332277,0|2,1:2|0:2,0:0:0:0:
323,240,128875,2,0,L|335:150,1,90.0000034332277,2|2,0:2|0:2,0:0:0:0:
252,98,129092,2,0,L|237:207,1,90.0000034332277,8|0,0:2|0:0,0:0:0:0:
148,215,129310,2,0,L|160:125,1,90.0000034332277,0|2,1:2|3:2,0:0:0:0:
335,143,129527,1,2,1:2:0:0:
239,197,129744,1,4,1:2:0:0:
96,80,129962,1,10,0:2:0:0:
224,208,130179,1,2,0:2:0:0:
208,352,130396,6,0,P|96:320|16:320,2,180.000006866455,6|2|8,1:2|0:2|0:2,0:0:0:0:
418,334,131049,2,0,P|440:205|503:0,1,270.000010299683,2|2,1:2|3:2,0:0:0:0:
478,65,131483,2,0,P|389:59|304:32,1,180.000006866455,2|8,1:3|0:0,0:0:0:0:
418,334,131918,2,0,P|440:205|503:0,1,270.000010299683,2|0,0:2|0:0,0:0:0:0:
485,63,132353,1,2,0:2:0:0:
320,192,132570,1,8,0:2:0:0:
352,272,132788,1,0,1:2:0:0:
243,384,133005,5,0,3:2:0:0:
275,352,133114,1,2,3:2:0:0:
243,320,133223,1,2,1:2:0:0:
275,288,133331,1,2,3:2:0:0:
243,256,133440,1,8,3:2:0:0:
277,213,133549,1,0,3:2:0:0:
240,176,133657,1,10,3:3:0:0:
224,96,133766,1,8,3:3:0:0:
155,42,133875,6,0,P|333:65|512:78,1,360.000013732911,6|8,1:2|0:2,0:0:0:0:
512,78,134527,2,0,P|333:65|155:42,1,360.000013732911,2|0,1:3|1:0,0:0:0:0:
256,320,135179,1,8,0:0:0:0:
80,112,135396,1,2,0:2:0:0:
68,124,135505,1,2,0:2:0:0:
85,123,135613,6,0,L|100:232,1,90.0000034332277,0|2,1:2|0:2,0:0:0:0:
193,247,135831,2,0,L|180:157,1,90.0000034332277,2|2,0:2|0:2,0:0:0:0:
259,103,136049,2,0,L|274:212,1,90.0000034332277,8|0,0:2|0:0,0:0:0:0:
367,227,136267,2,0,L|354:137,1,90.0000034332277,0|2,1:2|3:2,0:0:0:0:
177,143,136484,1,2,1:2:0:0:
273,197,136701,1,4,1:2:0:0:
416,96,136919,1,10,0:2:0:0:
256,208,137136,1,2,0:2:0:0:
208,352,137353,6,0,P|96:320|16:320,2,180.000006866455,6|2|8,1:2|0:2|0:2,0:0:0:0:
418,334,138006,2,0,P|440:205|503:0,1,270.000010299683,2|2,1:2|3:2,0:0:0:0:
478,65,138440,2,0,P|389:59|304:32,1,180.000006866455,2|8,1:3|0:0,0:0:0:0:
418,334,138875,2,0,P|440:205|503:0,1,270.000010299683,2|0,0:2|0:0,0:0:0:0:
485,63,139310,1,2,0:2:0:0:
320,192,139527,1,4,1:2:0:0:
352,272,139745,1,2,0:2:0:0:
243,384,139962,5,4,3:2:0:0:
275,352,140071,1,0,3:2:0:0:
243,320,140180,1,8,0:2:0:0:
275,288,140288,1,0,3:2:0:0:
243,256,140397,1,14,0:2:0:0:
277,213,140506,1,0,3:2:0:0:
256,160,140614,1,8,0:2:0:0:
272,112,140723,1,8,0:2:0:0:
256,64,140831,5,6,1:2:0:0:
48,64,147303,5,6,1:2:0:0:
112,16,147485,1,2,0:2:0:0:
208,80,147667,1,8,0:2:0:0:
336,64,147849,1,2,1:3:0:0:
336,64,147939,1,2,3:2:0:0:
336,64,148030,1,2,0:2:0:0:
448,176,148212,1,2,1:2:0:0:
448,176,148302,1,2,0:2:0:0:
448,176,148393,1,8,0:0:0:0:
400,240,148576,1,2,0:2:0:0:
496,320,148758,1,0,1:2:0:0:
448,384,148939,1,2,0:3:0:0:
448,384,149030,1,2,0:2:0:0:
256,336,149303,1,0,1:2:0:0:
208,256,149485,1,2,1:2:0:0:
112,240,149667,1,4,1:2:0:0:
208,272,149849,1,8,0:2:0:0:
272,192,150030,1,2,0:2:0:0:
320,96,150212,5,6,1:2:0:0:
95,156,150394,1,2,0:2:0:0:
95,156,150485,1,2,0:2:0:0:
95,156,150576,1,8,0:2:0:0:
191,90,150758,1,2,1:2:0:0:
320,112,150939,1,2,0:2:0:0:
128,16,151121,1,2,1:3:0:0:
128,16,151212,1,2,0:2:0:0:
128,16,151303,1,8,0:0:0:0:
48,48,151485,1,2,0:2:0:0:
144,32,151667,1,0,1:2:0:0:
208,96,151849,1,2,0:2:0:0:
192,208,152030,1,8,0:2:0:0:
304,272,152212,1,0,1:2:0:0:
416,256,152394,5,0,3:2:0:0:
384,288,152485,1,2,3:2:0:0:
352,272,152576,1,2,1:2:0:0:
320,304,152667,1,2,3:2:0:0:
272,288,152758,1,8,3:2:0:0:
247,325,152849,1,0,3:2:0:0:
192,311,152939,1,2,3:3:0:0:
151,347,153030,1,0,3:3:0:0:
119,345,153121,5,6,1:2:0:0:
119,345,153212,1,2,0:2:0:0:
119,345,153303,1,2,0:2:0:0:
32,240,153485,1,8,0:2:0:0:
176,208,153667,1,2,1:3:0:0:
240,160,153849,1,2,0:2:0:0:
192,96,154030,1,0,1:0:0:0:
32,64,154212,1,8,0:0:0:0:
0,0,154394,1,2,0:2:0:0:
112,48,154576,1,0,1:2:0:0:
80,160,154758,1,2,0:3:0:0:
176,240,154939,1,8,0:2:0:0:
288,240,155121,1,0,1:2:0:0:
128,304,155303,1,2,1:2:0:0:
288,320,155485,1,4,1:2:0:0:
304,160,155667,1,8,0:2:0:0:
16,256,156030,5,6,1:2:0:0:
192,368,156212,1,2,0:2:0:0:
192,80,156576,1,2,1:2:0:0:
176,160,156758,1,2,0:2:0:0:
160,240,156939,1,2,1:3:0:0:
352,16,157303,1,2,0:2:0:0:
352,16,157394,1,2,0:2:0:0:
256,192,157485,12,2,158758,3:3:0:0:
320,0,158939,5,6,1:2:0:0:
176,112,159121,1,2,0:2:0:0:
80,64,159485,1,2,1:3:0:0:
32,144,159667,1,2,0:2:0:0:
32,144,159758,1,2,3:2:0:0:
32,144,159849,1,2,1:2:0:0:
32,144,159939,1,2,0:2:0:0:
32,144,160030,1,10,0:0:0:0:
112,192,160212,1,2,0:2:0:0:
256,208,160394,1,0,1:2:0:0:
208,288,160576,1,2,0:3:0:0:
96,192,160758,1,8,0:2:0:0:
112,272,160939,1,0,1:2:0:0:
240,80,161303,5,4,1:2:0:0:
240,80,161394,1,2,0:0:0:0:
496,16,161849,1,6,1:2:0:0:
416,64,162030,1,2,0:2:0:0:
320,128,162212,1,10,0:2:0:0:
192,208,162394,1,2,1:2:0:0:
272,256,162576,1,2,0:2:0:0:
208,128,162758,1,2,1:2:0:0:
112,240,162939,1,10,0:2:0:0:
288,272,163121,1,2,0:2:0:0:
160,352,163303,1,2,1:2:0:0:
48,176,163485,1,2,0:2:0:0:
96,112,163667,1,10,0:2:0:0:
48,48,163849,1,2,1:2:0:0:
128,16,164030,1,2,3:2:0:0:
160,48,164121,1,2,3:2:0:0:
192,32,164212,1,2,1:2:0:0:
224,64,164303,1,2,3:2:0:0:
272,48,164394,1,10,3:2:0:0:
297,85,164485,1,2,3:2:0:0:
352,71,164575,1,2,3:3:0:0:
378,96,164666,1,0,3:3:0:0:
402,96,164757,5,6,1:2:0:0:
480,176,164939,1,2,0:2:0:0:
336,272,165121,1,8,0:2:0:0:
400,208,165303,1,2,1:3:0:0:
416,352,165485,1,2,0:2:0:0:
272,368,165667,1,0,1:0:0:0:
256,224,165849,1,8,0:0:0:0:
192,288,166030,1,2,0:2:0:0:
320,160,166212,1,0,1:2:0:0:
192,48,166394,1,2,0:3:0:0:
320,0,166576,1,8,0:2:0:0:
192,144,166758,1,0,1:2:0:0:
448,272,167121,1,4,1:2:0:0:
496,208,167303,1,8,0:2:0:0:
496,208,167394,1,2,0:2:0:0:
496,208,167485,1,2,0:2:0:0:
400,128,167667,5,6,1:2:0:0:
448,64,167849,1,2,0:2:0:0:
336,16,168030,1,8,0:2:0:0:
256,144,168212,1,2,1:2:0:0:
256,144,168303,1,0,3:2:0:0:
256,144,168394,1,2,0:2:0:0:
176,112,168576,1,2,1:3:0:0:
256,256,168758,1,8,0:0:0:0:
256,192,169121,12,2,170394,3:3:0:0:
320,112,170576,5,6,1:2:0:0:
192,64,170758,1,2,0:2:0:0:
32,288,171121,1,2,1:3:0:0:
96,336,171303,1,2,0:2:0:0:
32,208,171485,1,2,1:2:0:0:
128,160,171667,1,8,0:0:0:0:
416,368,172212,1,2,0:3:0:0:
480,320,172394,1,8,0:2:0:0:
400,272,172576,1,0,1:2:0:0:
320,368,172758,1,2,1:2:0:0:
480,240,172939,1,4,1:2:0:0:
320,48,173485,5,6,1:2:0:0:
304,96,173576,1,2,0:0:0:0:
159,159,173758,1,2,0:2:0:0:
155,147,173849,1,8,0:2:0:0:
319,185,174030,1,2,1:2:0:0:
319,185,174121,1,2,3:2:0:0:
298,221,174212,1,2,0:2:0:0:
160,176,174394,1,2,1:3:0:0:
80,288,174576,1,8,0:0:0:0:
0,96,174849,1,2,0:2:0:0:
0,96,174939,1,0,1:2:0:0:
64,208,175121,1,2,0:2:0:0:
160,336,175303,1,8,0:2:0:0:
208,272,175485,1,0,1:2:0:0:
343,256,175667,1,0,3:2:0:0:
311,288,175758,1,2,3:2:0:0:
279,272,175849,1,2,1:2:0:0:
247,304,175940,1,2,3:2:0:0:
199,288,176031,1,8,3:2:0:0:
174,325,176122,1,0,3:2:0:0:
119,311,176212,1,2,3:3:0:0:
93,336,176303,1,0,3:3:0:0:
69,336,176394,5,6,1:2:0:0:
128,224,176576,1,2,0:2:0:0:
240,384,176758,1,8,0:2:0:0:
224,208,176939,1,2,1:3:0:0:
160,352,177121,1,2,0:2:0:0:
320,192,177303,1,2,1:2:0:0:
80,0,177849,1,0,1:2:0:0:
144,64,178030,1,2,0:3:0:0:
224,32,178212,1,8,0:2:0:0:
288,128,178394,1,0,1:2:0:0:
288,128,178485,1,2,3:2:0:0:
288,128,178576,1,2,1:2:0:0:
464,32,178758,1,6,1:2:0:0:
400,208,179121,1,2,0:2:0:0:
400,208,179212,1,2,0:2:0:0:
416,224,179303,5,6,1:2:0:0:
480,112,179485,1,2,0:2:0:0:
448,112,179576,1,2,0:2:0:0:
400,336,179849,1,2,1:2:0:0:
400,336,179939,1,0,3:2:0:0:
400,336,180030,1,2,0:2:0:0:
480,352,180212,1,2,1:3:0:0:
320,368,180394,1,8,0:0:0:0:
304,240,180576,1,2,0:2:0:0:
304,240,180667,1,2,0:2:0:0:
256,192,180758,12,2,182030,3:3:0:0:
192,80,182212,5,6,1:2:0:0:
304,144,182394,1,2,0:2:0:0:
304,144,182485,1,2,0:2:0:0:
336,224,182667,1,2,0:2:0:0:
336,224,182758,1,2,1:3:0:0:
208,304,182939,1,2,0:2:0:0:
144,256,183121,1,2,1:2:0:0:
144,256,183212,1,2,0:2:0:0:
144,256,183303,1,8,0:0:0:0:
48,336,183485,1,2,0:2:0:0:
48,336,183576,1,2,0:2:0:0:
48,336,183667,1,0,1:2:0:0:
16,240,183849,1,2,0:3:0:0:
80,160,184030,1,8,0:2:0:0:
208,176,184212,1,0,1:2:0:0:
208,176,184303,1,2,3:2:0:0:
208,176,184394,1,2,1:2:0:0:
304,144,184576,1,4,1:2:0:0:
352,16,184758,1,8,0:2:0:0:
304,128,184939,1,2,0:2:0:0:
144,32,185121,5,6,1:2:0:0:
384,96,185394,1,2,0:2:0:0:
384,96,185485,1,8,0:2:0:0:
448,48,185667,1,2,1:2:0:0:
448,48,185758,1,2,3:2:0:0:
448,48,185849,1,2,0:2:0:0:
496,112,186030,1,2,1:3:0:0:
384,208,186212,1,8,0:0:0:0:
448,256,186394,1,2,0:2:0:0:
320,352,186576,1,0,1:2:0:0:
208,320,186758,1,2,0:2:0:0:
320,336,186939,1,8,0:2:0:0:
128,368,187121,1,0,1:2:0:0:
315,369,187303,1,0,3:2:0:0:
283,337,187394,1,2,3:2:0:0:
251,353,187485,1,2,1:2:0:0:
219,321,187576,1,2,3:2:0:0:
171,337,187667,1,8,3:2:0:0:
146,300,187758,1,0,3:2:0:0:
91,314,187848,1,2,3:3:0:0:
65,289,187939,1,0,3:3:0:0:
41,289,188030,5,6,1:2:0:0:
208,192,188303,1,2,0:2:0:0:
208,192,188394,1,8,0:2:0:0:
144,128,188576,1,2,1:3:0:0:
304,192,188758,1,2,0:2:0:0:
464,208,188939,1,0,1:0:0:0:
464,208,189030,1,2,0:2:0:0:
464,208,189121,1,8,0:0:0:0:
416,128,189303,1,2,0:2:0:0:
285,271,189485,1,0,1:2:0:0:
448,336,189667,1,2,0:3:0:0:
288,288,189849,1,8,0:2:0:0:
464,320,190030,1,0,1:2:0:0:
288,304,190212,1,2,1:2:0:0:
176,368,190394,1,4,1:2:0:0:
176,368,190485,1,2,0:2:0:0:
164,347,190576,1,8,0:2:0:0:
336,112,190939,5,6,1:0:0:0:
373,373,191121,1,2,0:3:0:0:
281,7,191485,1,2,1:2:0:0:
281,7,191576,1,0,1:2:0:0:
281,7,191667,1,2,1:2:0:0:
240,112,191849,1,2,1:3:0:0:
64,160,192212,1,2,1:2:0:0:
64,160,192303,1,2,1:2:0:0:
64,160,192394,1,6,1:2:0:0:
16,80,192576,1,8,0:2:0:0:
144,176,192758,1,14,0:2:0:0:
96,256,192939,1,10,0:2:0:0:
96,256,193030,1,10,0:2:0:0:
192,96,193212,1,10,3:2:0:0:
192,96,193303,1,10,3:2:0:0:
192,256,193485,1,14,3:2:0:0:
70,75,193667,1,10,3:2:0:0:
87,71,193758,1,10,3:2:0:0:
80,80,193849,6,0,P|250:74|448:48,1,360.000013732911,6|8,1:2|0:2,0:0:0:0:
438,49,194394,2,0,P|268:55|70:81,1,360.000013732911,2|2,1:3|1:2,0:0:0:0:
32,288,194939,1,8,0:0:0:0:
64,192,195121,1,2,0:2:0:0:
64,192,195212,1,2,0:2:0:0:
64,192,195303,1,0,1:2:0:0:
160,288,195485,1,2,0:2:0:0:
256,192,195667,1,8,0:2:0:0:
352,288,195849,1,0,1:2:0:0:
448,192,196030,1,2,1:2:0:0:
352,304,196212,1,4,1:2:0:0:
256,176,196394,1,8,0:2:0:0:
160,304,196576,1,2,0:2:0:0:
64,192,196758,2,0,P|71:141|52:1,2,180.000006866455,6|2|8,1:2|0:2|0:2,0:0:0:0:
0,356,197303,2,0,B|32:376|32:376|320:352,1,270.000010299683,2|2,1:2|3:2,0:0:0:0:
274,354,197667,1,2,1:3:0:0:
112,256,197849,1,8,0:0:0:0:
151,186,198030,2,0,B|382:166|382:166|414:186,1,270.000010299683,2|0,0:2|0:0,0:0:0:0:
420,198,198394,1,2,0:2:0:0:
256,144,198576,1,8,0:2:0:0:
304,80,198758,1,0,1:2:0:0:
101,78,198939,5,0,3:2:0:0:
75,65,199030,1,2,3:2:0:0:
101,78,199121,1,2,1:2:0:0:
75,90,199212,1,2,3:2:0:0:
101,78,199303,1,8,3:2:0:0:
95,105,199394,1,0,3:2:0:0:
101,78,199485,1,10,3:3:0:0:
119,96,199576,1,8,3:3:0:0:
101,78,199667,6,0,P|271:72|469:46,1,360.000013732911,6|8,1:2|0:2,0:0:0:0:
459,47,200212,2,0,P|289:53|91:79,1,360.000013732911,2|0,1:3|1:0,0:0:0:0:
32,288,200758,1,8,0:0:0:0:
64,192,200940,1,2,0:2:0:0:
64,192,201031,1,2,0:2:0:0:
64,192,201122,1,0,1:2:0:0:
160,288,201304,1,2,0:2:0:0:
256,192,201486,1,8,0:2:0:0:
352,288,201668,1,0,1:2:0:0:
448,192,201849,1,2,1:2:0:0:
352,304,202031,1,4,1:2:0:0:
256,176,202213,1,8,0:2:0:0:
160,304,202395,1,2,0:2:0:0:
64,192,202577,2,0,P|71:141|52:1,2,180.000006866455,6|2|8,1:2|0:2|0:2,0:0:0:0:
0,356,203122,2,0,B|32:376|32:376|320:352,1,270.000010299683,2|2,1:2|3:2,0:0:0:0:
274,354,203486,1,2,1:3:0:0:
112,256,203668,1,8,0:0:0:0:
151,186,203849,6,0,B|353:168,1,180.000006866455,2|4,0:2|1:2,0:0:0:0:
442,19,204212,2,0,L|331:187,1,180.000006866455,2|4,0:2|1:2,0:0:0:0:
417,340,204576,2,0,L|327:159,1,180.000006866455,2|4,0:2|3:2,0:0:0:0:
256,0,204939,1,0,3:2:0:0:
319,59,205121,1,2,1:3:0:0:
240,80,205303,1,8,0:2:0:0:
48,0,205485,1,6,1:2:0:0:
256,192,206939,12,12,208394,1:0:0:0:
