osu file format v14

[General]
AudioFilename: audio.MP3
AudioLeadIn: 0
PreviewTime: 126921
Countdown: 0
SampleSet: Soft
StackLeniency: 0.2
Mode: 0
LetterboxInBreaks: 1
WidescreenStoryboard: 1

[Editor]
Bookmarks: 4118,23318,38678,54038,69398,77078,84758,92128,106041,126910,133867,140823,147295,158931,170568,182204,193841,199659,205477
DistanceSpacing: 0.7
BeatDivisor: 8
GridSize: 8
TimelineZoom: 3.100005

[Metadata]
Title:Pi Li Pa La
TitleUnicode:劈哩啪啦
Artist:Machi DiDi
ArtistUnicode:麻吉弟弟
Creator:Aranel
Version:Yokes' Expert
Source:
Tags:Fsjallink Len Fast YokesPai pw384 384059043 1103 Down chinese hiphop hip hop hip-hop rap OH My Andrew Chow Chou zhou li ming ma chi di di 麻吉 弟弟 周立铭 周立銘
BeatmapID:3680703
BeatmapSetID:1713947

[Difficulty]
HPDrainRate:5
CircleSize:4
OverallDifficulty:8.5
ApproachRate:9
SliderMultiplier:2.4
SliderTickRate:1

[Events]
//Background and Video events
0,0,"machi.jpg",0,0
//Break Periods
2,84965,89797
2,141031,145249
//Storyboard Layer 0 (Background)
//Storyboard Layer 1 (Fail)
//Storyboard Layer 2 (Pass)
//Storyboard Layer 3 (Foreground)
//Storyboard Layer 4 (Overlay)
//Storyboard Sound Samples

[TimingPoints]
286,480,4,2,1,60,1,0
7246,-71.4285714285714,4,2,1,60,0,0
7966,-83.3333333333333,4,2,1,60,0,0
8446,-100,4,2,1,60,0,0
11806,-83.3333333333333,4,2,1,60,0,0
12286,-100,4,2,1,60,0,0
14446,-100,4,2,1,60,0,0
15166,-45.4545454545455,4,2,1,60,0,0
15406,-100,4,2,1,60,0,0
23086,-100,4,2,2,60,0,0
23326,-111.111111111111,4,2,1,65,0,0
30766,-111.111111111111,4,2,2,65,0,0
31006,-111.111111111111,4,2,1,65,0,0
38686,-133.333333333333,4,2,1,65,0,0
40606,-66.6666666666667,4,2,1,65,0,0
40726,-66.6666666666667,4,2,1,65,0,0
40846,-111.111111111111,4,2,1,65,0,0
42526,-133.333333333333,4,2,1,65,0,0
44446,-100,4,2,1,65,0,0
44686,-111.111111111111,4,2,1,65,0,0
46366,-55.5555555555556,4,2,1,65,0,0
46606,-111.111111111111,4,2,1,65,0,0
47326,-74.0740740740741,4,2,1,65,0,0
47806,-111.111111111111,4,2,1,65,0,0
52126,-76.9230769230769,4,2,1,65,0,0
54046,-66.6666666666667,4,2,1,65,0,0
55006,-100,4,2,1,65,0,0
55486,-166.666666666667,4,2,1,65,0,0
55966,-66.6666666666667,4,2,1,65,0,0
60286,-100,4,2,1,65,0,0
60766,-83.3333333333333,4,2,1,65,0,0
61246,-66.6666666666667,4,2,1,65,0,0
61486,-66.6666666666667,4,2,2,65,0,0
61726,-58.8235294117647,4,2,1,65,0,0
62206,-50,4,2,1,65,0,0
62446,-200,4,2,1,65,0,0
62926,-58.8235294117647,4,2,1,65,0,0
63646,-66.6666666666667,4,2,1,65,0,0
67486,-100,4,2,1,65,0,0
68326,-166.666666666667,4,2,1,65,0,0
68926,-50,4,2,1,65,0,0
69166,-100,4,2,1,65,0,0
69406,-55.5555555555556,4,2,1,65,0,1
76846,-55.5555555555556,4,2,2,75,0,1
77086,-55.5555555555556,4,2,1,75,0,1
84286,-33.3333333333333,4,2,2,75,0,0
84406,-33.3333333333333,4,2,1,75,0,0
88606,447.761194029851,4,2,1,70,1,0
90397,434.782608695652,4,2,1,60,1,0
91511,-100,4,2,1,40,0,0
92136,-100,4,2,1,65,0,0
95614,-66.6666666666667,4,2,1,65,0,0
95831,-100,4,2,1,65,0,0
98875,-100,4,2,2,65,0,0
99092,-100,4,2,1,65,0,0
102570,-66.6666666666667,4,2,1,65,0,0
102787,-100,4,2,1,65,0,0
105424,-100,4,2,1,40,0,0
106049,-83.3333333333333,4,2,1,65,0,0
109527,-66.6666666666667,4,2,1,65,0,0
109962,-83.3333333333333,4,2,1,65,0,0
111266,-74.0740740740741,4,2,1,65,0,0
112788,-74.0740740740741,4,2,2,65,0,0
113005,-74.0740740740741,4,2,1,65,0,0
113440,-83.3333333333333,4,2,1,65,0,0
119962,-66.6666666666667,4,2,1,65,0,0
120396,-83.3333333333333,4,2,1,65,0,0
123440,-66.6666666666667,4,2,1,65,0,0
124310,-83.3333333333333,4,2,1,65,0,0
126375,-41.6666666666667,4,2,1,65,0,0
126918,-52.6315789473684,4,2,1,75,0,1
133657,-52.6315789473684,4,2,2,75,0,1
133874,-52.6315789473684,4,2,1,75,0,1
140831,-33.3333333333333,4,2,1,75,0,0
144310,394.736842105263,4,2,1,70,1,0
145099,375,4,2,1,70,1,0
145849,363.636363636364,4,2,1,70,1,0
147303,-76.9230769230769,4,2,1,70,0,0
152939,-76.9230769230769,4,2,2,70,0,0
153121,-76.9230769230769,4,2,1,70,0,0
157485,-76.9230769230769,4,2,1,60,0,0
158758,-76.9230769230769,4,2,2,60,0,0
158939,-76.9230769230769,4,2,1,70,0,0
164394,-71.4285714285714,4,2,1,70,0,0
164576,-71.4285714285714,4,2,2,70,0,0
164758,-71.4285714285714,4,2,1,70,0,0
165121,-76.9230769230769,4,2,1,70,0,0
169121,-76.9230769230769,4,2,1,60,0,0
170394,-76.9230769230769,4,2,2,60,0,0
170576,-76.9230769230769,4,2,1,70,0,0
171667,-102.564102564103,4,2,1,70,0,0
172030,-76.9230769230769,4,2,1,70,0,0
172939,-62.5,4,2,1,70,0,0
173485,-133.333333333333,4,2,1,70,0,0
173849,-76.9230769230769,4,2,1,70,0,0
174212,-55.5555555555556,4,2,1,70,0,0
174485,-41.6666666666667,4,2,1,70,0,0
174939,-76.9230769230769,4,2,1,70,0,0
176212,-76.9230769230769,4,2,2,70,0,0
176394,-76.9230769230769,4,2,1,70,0,0
178758,-66.6666666666667,4,2,1,70,0,0
179030,-76.9230769230769,4,2,1,70,0,0
180758,-76.9230769230769,4,2,1,60,0,0
182030,-76.9230769230769,4,2,2,60,0,0
182212,-76.9230769230769,4,2,1,70,0,0
183667,-76.9230769230769,4,2,1,70,0,0
188030,-66.6666666666667,4,2,1,70,0,0
188212,-76.9230769230769,4,2,1,70,0,0
190485,-100,4,2,1,70,0,0
190939,-50,4,2,1,70,0,0
191121,-37.037037037037,4,2,1,70,0,0
191939,-50,4,2,1,70,0,0
193849,-52.6315789473684,4,2,1,70,0,1
199485,-52.6315789473684,4,2,2,75,0,1
199667,-52.6315789473684,4,2,1,75,0,1
205485,-76.9230769230769,4,2,1,75,0,0
206939,-76.9230769230769,4,2,2,75,0,0

[Colours]
Combo1 : 129,129,192
Combo2 : 151,47,255
Combo3 : 128,128,255
Combo4 : 150,143,182

[HitObjects]
0,27,4126,6,0,B|37:24|76:-6|76:-6|61:62|25:146|25:146|5:144|-12:147|-12:147|30:154|97:180,1,360,4|0,1:2|0:0,0:0:0:0:
203,249,5086,2,0,B|261:195|348:279|201:377|201:377|260:356|325:369,1,360,4|0,1:2|0:0,0:0:0:0:
466,284,6046,6,0,B|480:203|500:160|500:160|485:177|458:187,1,180,6|2,1:2|0:0,0:0:0:0:
435,111,6526,2,0,B|417:110|395:133|395:133|435:72|385:26|347:60,1,180,2|2,1:2|0:0,0:0:0:0:
258,117,7006,6,0,P|288:115|309:135,1,60,0|2,1:2|0:0,0:0:0:0:
298,233,7246,2,0,P|324:203|305:168,1,83.9999974365235,10|2,0:0|0:0,0:0:0:0:
112,64,7486,2,0,B|74:115|74:115|144:132,1,83.9999974365235,8|0,0:0|0:0,0:0:0:0:
197,58,7726,1,8,0:0:0:0:
172,145,7846,1,10,0:0:0:0:
147,232,7966,6,0,B|109:336|108:370|108:370|130:240|115:175,1,287.999991210938,6|8,1:2|0:2,0:0:0:0:
17,50,8686,1,2,1:2:0:0:
23,43,8806,1,0,3:2:0:0:
76,110,9046,1,0,3:2:0:0:
83,116,9166,1,2,1:3:0:0:
140,6,9406,6,0,P|157:85|166:110,1,60,8|2,0:0|0:2,0:0:0:0:
219,115,9646,1,2,0:2:0:0:
510,94,9886,6,0,P|416:62|262:53,1,240,2|8,1:2|0:2,0:0:0:0:
443,171,10606,1,2,1:2:0:0:
447,159,10726,1,2,3:2:0:0:
360,136,10846,2,0,L|366:221,1,60,2|2,3:2|3:2,0:0:0:0:
501,297,11086,2,0,P|468:256|415:252,1,60,2|0,3:3|3:0,0:0:0:0:
287,271,11326,2,0,P|259:316|274:367,3,60,8|0|0|0,3:2|3:0|3:2|3:0,0:0:0:0:
508,310,11806,6,0,B|280:322|467:327|221:336,1,287.999991210938,6|8,1:2|0:2,0:0:0:0:
16,324,12526,1,2,1:2:0:0:
30,322,12646,1,0,3:2:0:0:
96,262,12886,1,0,3:2:0:0:
82,260,13006,1,2,1:3:0:0:
1,150,13246,6,0,P|36:190|72:196,1,60,8|0,0:0|0:0,0:0:0:0:
121,182,13486,1,2,0:2:0:0:
26,39,13726,5,0,3:2:0:0:
82,19,13846,1,0,3:0:0:0:
128,32,13966,1,0,3:0:0:0:
156,54,14086,1,0,3:0:0:0:
177,64,14206,1,0,3:0:0:0:
194,68,14326,1,0,3:0:0:0:
205,68,14446,1,0,3:0:0:0:
210,67,14566,2,0,L|211:27,2,30,0|0|2,1:0|1:0|3:2,0:0:0:0:
289,25,14806,1,2,1:2:0:0:
286,107,14926,1,0,3:0:0:0:
512,100,15166,6,2,B|452:161|390:93|431:92|341:15|280:101,1,264.000008056641,2|8,1:3|0:2,0:1:0:0:
239,259,15526,1,8,0:0:0:0:
136,168,15646,6,0,B|322:175|194:184|374:189,1,240,6|8,1:2|0:2,0:0:0:0:
456,194,16366,1,2,1:2:0:0:
483,341,16606,1,2,0:2:0:0:
450,270,16726,1,2,3:2:0:0:
406,335,16846,1,2,1:3:0:0:
462,118,17086,1,8,0:0:0:0:
483,341,17326,1,2,0:2:0:0:
91,145,17566,5,2,1:2:0:0:
64,292,17806,1,2,0:2:0:0:
97,221,17926,1,2,0:2:0:0:
141,286,18046,1,8,0:2:0:0:
97,221,18166,1,0,1:0:0:0:
64,292,18286,1,2,1:2:0:0:
124,74,18526,1,2,1:2:0:0:
91,145,18646,1,2,3:2:0:0:
64,33,18766,6,0,P|102:70|141:71,1,60,4|0,1:2|0:0,0:0:0:0:
259,2,19006,2,0,B|223:47|272:103|296:75|354:183|226:239,1,240,8|6,0:2|1:2,0:0:0:0:
192,188,19726,1,2,0:2:0:0:
188,201,19846,1,2,0:2:0:0:
115,253,19966,1,8,0:2:0:0:
184,214,20086,1,2,1:2:0:0:
229,279,20206,1,2,1:2:0:0:
490,99,20446,5,2,0:2:0:0:
421,60,20566,1,0,3:2:0:0:
376,125,20686,1,2,1:3:0:0:
15,42,20926,6,0,P|69:36|116:47,1,60,8|0,0:0|0:0,0:0:0:0:
152,58,21166,2,0,P|201:79|236:112,1,60,2|2,0:2|0:2,0:0:0:0:
373,362,21406,5,2,1:2:0:0:
369,349,21526,1,2,0:2:0:0:
377,336,21646,1,2,0:2:0:0:
399,341,21766,1,2,0:2:0:0:
407,368,21886,1,2,1:3:0:0:
375,381,22006,1,2,0:2:0:0:
341,359,22126,1,2,0:2:0:0:
355,310,22246,1,2,0:2:0:0:
406,301,22366,2,0,P|441:308|478:324,1,60,2|2,1:2|3:2,0:0:0:0:
318,239,22606,2,0,P|282:246|246:262,1,60,2|2,3:2|3:2,0:0:0:0:
512,157,22846,1,2,1:2:0:0:
512,157,23086,5,10,3:3:0:0:
470,30,23206,1,8,3:3:0:0:
477,231,23326,2,0,B|392:229|448:221|366:217,1,107.999996704102,6|2,1:2|0:2,0:0:0:0:
153,283,23806,2,0,B|238:281|182:273|264:269,1,107.999996704102,8|2,0:2|1:3,0:0:0:0:
489,362,24286,2,0,P|499:334|499:308,1,53.9999983520508,2|2,0:2|0:2,0:0:0:0:
468,236,24526,1,0,1:0:0:0:
489,362,24766,1,8,0:0:0:0:
489,362,25006,1,2,0:2:0:0:
419,320,25126,1,2,0:2:0:0:
345,353,25246,6,0,P|256:357|190:349,1,107.999996704102,2|2,1:2|0:2,0:0:0:0:
51,309,25726,2,0,P|102:328|155:340,1,107.999996704102,10|2,0:2|1:2,0:0:0:0:
237,355,26086,1,2,3:2:0:0:
155,340,26206,2,0,P|102:328|55:311,1,53.9999983520508,2|2,1:2|3:2,0:0:0:0:
320,356,26446,2,0,P|373:348|422:335,1,53.9999983520508,6|0,1:2|0:0,0:0:0:0:
100,190,26686,2,0,P|89:262|93:294,1,53.9999983520508,8|0,0:2|0:0,0:0:0:0:
408,216,26926,2,0,P|406:288|396:319,1,53.9999983520508,2|2,0:2|0:2,0:0:0:0:
29,381,27166,6,0,B|-4:315|47:252|73:288|107:242|88:194,1,215.999993408203,6|8,1:2|0:2,0:0:0:0:
34,19,27886,1,2,1:2:0:0:
11,97,28006,1,2,3:2:0:0:
19,108,28126,2,0,L|73:113,1,53.9999983520508,2|2,0:2|3:2,0:0:0:0:
170,6,28366,2,0,L|116:11,1,53.9999983520508,2|0,1:3|0:0,0:0:0:0:
204,150,28606,2,0,P|217:130|194:150,1,107.999996704102,8|2,0:0|0:2,0:0:0:0:
482,32,29086,6,0,L|493:137,1,53.9999983520508,0|0,1:2|0:0,0:0:0:0:
283,204,29326,1,2,0:2:0:0:
279,191,29446,1,2,0:2:0:0:
357,102,29566,2,0,L|346:207,1,53.9999983520508,8|0,0:2|0:0,0:0:0:0:
498,300,29806,1,2,1:2:0:0:
502,287,29926,1,2,3:2:0:0:
424,198,30046,2,0,L|435:303,3,53.9999983520508,0|2|2|2,3:2|3:2|1:2|3:2,0:0:0:0:
495,383,30526,6,0,L|403:377,1,53.9999983520508,8|0,3:2|3:2,0:0:0:0:
256,343,30766,1,10,3:3:0:0:
377,319,30886,1,8,3:3:0:0:
185,382,31006,2,0,B|122:384|96:339|121:339|71:266|-4:319,1,215.999993408203,6|8,1:2|0:2,0:0:0:0:
80,292,31726,1,2,1:3:0:0:
42,151,31966,6,0,L|31:238,1,53.9999983520508,2|2,0:2|0:0,0:0:0:0:
163,282,32206,2,0,L|156:228,1,53.9999983520508,0|0,1:0|0:0,0:0:0:0:
164,217,32446,2,0,L|170:270,1,53.9999983520508,8|0,0:0|0:0,0:0:0:0:
42,215,32686,2,0,L|48:161,1,53.9999983520508,2|2,0:2|0:2,0:0:0:0:
47,17,32926,5,0,1:2:0:0:
36,28,33046,1,2,0:2:0:0:
128,33,33166,2,0,L|185:35,1,53.9999983520508,2|2,0:3|0:2,0:0:0:0:
304,41,33406,2,0,L|361:43,1,53.9999983520508,8|0,0:2|0:0,0:0:0:0:
432,204,33646,6,0,P|451:169|451:142,1,53.9999983520508,2|2,1:2|3:2,0:0:0:0:
295,34,33886,2,0,P|276:69|276:96,1,53.9999983520508,2|2,1:2|3:2,0:0:0:0:
450,350,34126,2,0,P|476:261|442:128,1,215.999993408203,6|2,1:2|0:2,0:0:0:0:
450,142,34846,6,0,P|475:219|470:294,1,107.999996704102,6|2,1:2|0:2,0:0:0:0:
462,325,35326,1,8,0:2:0:0:
313,379,35566,1,2,1:2:0:0:
329,300,35686,1,0,3:2:0:0:
389,353,35806,1,2,0:2:0:0:
389,353,36046,1,2,1:3:0:0:
329,300,36166,1,2,0:0:0:0:
313,379,36286,1,10,0:0:0:0:
462,325,36526,1,2,0:2:0:0:
196,275,36766,5,6,1:2:0:0:
473,328,37006,1,2,0:2:0:0:
96,356,37246,5,6,1:2:0:0:
489,248,37486,1,2,0:2:0:0:
26,202,37726,6,0,L|78:216,1,53.9999983520508,6|0,3:2|3:2,0:0:0:0:
484,330,37966,2,0,L|431:315,1,53.9999983520508,2|0,3:2|3:2,0:0:0:0:
17,208,38206,6,0,L|69:222,1,53.9999983520508,6|0,1:2|3:2,0:0:0:0:
491,342,38446,1,10,0:2:0:0:
353,303,38566,1,8,0:2:0:0:
497,352,38686,2,0,P|485:288|464:265,1,90.0000034332277,6|2,1:2|0:2,0:0:0:0:
325,142,39166,2,0,P|337:206|358:229,1,90.0000034332277,10|2,0:2|1:3,0:0:0:0:
383,45,39646,1,2,0:2:0:0:
498,181,39886,2,0,P|485:125|471:108,1,45.0000017166138,2|0,1:2|0:0,0:0:0:0:
383,45,40126,1,10,0:2:0:0:
351,223,40366,1,2,0:2:0:0:
484,33,40606,6,0,L|361:40,1,90.0000034332277,2|2,1:2|0:2,0:0:0:0:
394,38,41086,5,10,0:2:0:0:
313,65,41206,1,2,0:2:0:0:
259,0,41326,1,2,1:2:0:0:
259,0,41566,1,2,1:2:0:0:
74,48,41806,2,0,P|127:36|181:31,1,107.999996704102,6|10,1:2|0:2,0:0:0:0:
313,65,42286,1,2,0:2:0:0:
181,31,42526,6,0,P|127:36|58:51,1,90.0000034332277,6|2,1:2|0:2,0:0:0:0:
113,215,43006,2,0,P|166:210|236:195,1,90.0000034332277,10|2,0:2|1:2,0:0:0:0:
65,133,43486,1,2,0:2:0:0:
147,123,43606,1,2,3:2:0:0:
229,113,43726,1,2,1:3:0:0:
147,123,43966,1,10,0:0:0:0:
65,133,44206,2,0,P|38:181|38:210,1,45.0000017166138,2|2,0:2|0:2,0:0:0:0:
95,335,44446,5,0,1:2:0:0:
5,249,44686,1,2,0:2:0:0:
23,379,44926,5,10,0:2:0:0:
65,133,45166,1,0,1:2:0:0:
68,147,45286,1,2,3:2:0:0:
134,198,45406,2,0,L|126:282,3,53.9999983520508,0|2|2|2,3:2|3:2|1:2|3:2,0:0:0:0:
89,326,45886,5,10,3:2:0:0:
209,262,46006,1,2,3:2:0:0:
92,342,46126,1,2,3:2:0:0:
220,273,46246,1,2,3:2:0:0:
170,384,46366,6,0,B|190:348|233:351|233:351|290:355,1,107.999996704102,6|0,1:2|0:0,0:0:0:0:
468,376,46606,1,2,0:2:0:0:
434,301,46726,1,2,0:2:0:0:
387,368,46846,1,8,0:2:0:0:
434,301,46966,1,2,0:2:0:0:
468,376,47086,1,2,1:3:0:0:
338,167,47326,1,2,0:2:0:0:
385,234,47446,1,2,0:2:0:0:
419,159,47566,1,0,1:0:0:0:
493,48,47806,2,0,P|479:96|452:114,1,53.9999983520508,8|0,0:0|0:0,0:0:0:0:
271,116,48046,1,2,0:2:0:0:
426,3,48286,5,0,1:2:0:0:
426,3,48526,2,0,P|407:28|385:37,1,53.9999983520508,2|2,0:3|0:2,0:0:0:0:
237,43,48766,2,0,P|213:54|197:76,1,53.9999983520508,8|0,0:2|0:0,0:0:0:0:
213,235,49006,1,0,1:2:0:0:
255,264,49246,2,0,P|229:254|212:234,1,53.9999983520508,2|2,1:2|3:2,0:0:0:0:
197,76,49486,1,4,1:2:0:0:
140,17,49606,1,2,0:2:0:0:
67,54,49726,1,8,0:2:0:0:
67,54,49966,2,0,P|53:129|50:153,1,53.9999983520508,2|0,0:2|0:0,0:0:0:0:
87,211,50206,5,6,1:2:0:0:
67,193,50326,1,2,0:2:0:0:
40,188,50446,1,2,0:2:0:0:
16,199,50566,1,2,0:2:0:0:
1,221,50686,1,8,0:2:0:0:
51,289,50926,1,2,1:2:0:0:
0,357,51166,1,2,0:2:0:0:
51,289,51406,1,2,1:3:0:0:
119,342,51646,1,8,0:0:0:0:
189,242,51886,2,0,P|186:284|190:305,1,53.9999983520508,2|2,0:2|0:2,0:0:0:0:
258,376,52126,6,0,P|288:299|392:312,1,155.999992858887,4|10,1:2|0:2,0:0:0:0:
258,376,52606,6,0,P|288:299|377:268,1,155.999992858887,12|10,0:2|3:2,0:0:0:0:
431,294,52966,1,10,3:2:0:0:
258,376,53086,5,4,3:2:0:0:
285,303,53206,1,8,3:2:0:0:
338,247,53326,1,8,3:2:0:0:
258,376,53566,6,0,P|288:299|324:201,1,155.999992858887,14|8,1:2|3:2,0:0:0:0:
442,97,53926,1,8,3:2:0:0:
322,110,54046,6,0,B|327:166|391:171|384:160|438:166|445:227,1,180.000006866455,6|2,1:2|0:2,0:0:0:0:
356,349,54526,2,0,P|432:320|451:228,1,180.000006866455,8|2,0:2|1:3,0:0:0:0:
271,250,55006,2,0,L|287:346,1,60,2|0,0:2|0:0,0:0:0:0:
190,262,55246,2,0,L|206:358,1,60,2|0,1:2|0:0,0:0:0:0:
106,254,55486,2,0,L|123:360,1,107.999996704102,10|2,0:0|0:2,0:0:0:0:
118,373,55966,5,2,1:2:0:0:
26,244,56206,1,2,0:2:0:0:
36,384,56446,5,8,0:2:0:0:
76,178,56686,1,0,1:2:0:0:
333,216,56926,1,2,1:2:0:0:
333,216,57166,2,0,P|227:216|153:207,1,180.000006866455,4|10,1:2|0:2,0:0:0:0:
78,167,57526,1,2,0:2:0:0:
160,198,57646,1,2,0:2:0:0:
0,88,57886,6,0,P|117:79|227:48,1,180.000006866455,6|2,1:2|0:2,0:0:0:0:
359,71,58366,2,0,P|257:53|173:55,1,180.000006866455,8|2,0:2|1:2,0:0:0:0:
450,10,58846,1,2,0:2:0:0:
438,88,58966,1,2,3:2:0:0:
512,60,59086,1,2,1:3:0:0:
297,31,59326,2,0,P|319:69|360:83,1,90.0000034332277,8|0,0:0|0:0,0:0:0:0:
510,49,59566,1,2,0:2:0:0:
259,128,59806,5,0,1:2:0:0:
419,162,60046,1,2,0:2:0:0:
339,145,60166,1,2,0:2:0:0:
259,128,60286,1,10,0:2:0:0:
499,179,60526,1,2,1:2:0:0:
259,128,60766,6,0,P|253:173|253:222,1,71.9999978027344,2|2,3:2|3:2,0:0:0:0:
464,310,61006,2,0,P|449:250|434:226,1,71.9999978027344,2|2,1:2|3:2,0:0:0:0:
208,331,61246,2,0,B|231:356|231:356|326:346,1,90.0000034332277,10|0,3:2|3:2,0:0:0:0:
447,73,61486,1,10,3:3:0:0:
382,187,61606,1,8,3:3:0:0:
462,71,61726,5,6,1:2:0:0:
68,169,61966,1,2,0:2:0:0:
506,264,62206,1,8,0:2:0:0:
112,362,62446,1,2,1:3:0:0:
112,362,62926,6,2,B|126:359|126:359|135:350|149:354|149:354|157:366|170:359|170:359|184:346|202:354|202:354|211:372|240:365|240:365|254:335|290:343|290:343|303:379|339:375|339:375|353:325|405:337|405:337|429:386|488:379,1,408.000007781983,2|2,1:2|0:2,0:1:0:0:
479,302,63526,1,2,0:2:0:0:
407,245,63646,2,0,P|387:305|409:357,1,90.0000034332277,0|2,1:2|0:2,0:0:0:0:
240,376,63886,2,0,P|205:323|212:267,1,90.0000034332277,2|2,0:3|0:2,0:0:0:0:
76,169,64126,2,0,P|41:221|48:277,1,90.0000034332277,8|0,0:2|0:0,0:0:0:0:
132,371,64366,1,0,1:2:0:0:
310,172,64606,1,2,1:2:0:0:
255,232,64726,1,2,3:2:0:0:
230,154,64846,2,0,B|211:97|230:121|212:62,1,90.0000034332277,4|0,1:2|0:0,0:0:0:0:
34,33,65086,2,0,B|277:48|62:46|301:61,1,270.000010299683,8|0,0:2|0:0,0:0:0:0:
314,61,65566,5,6,1:2:0:0:
471,45,65806,1,2,0:2:0:0:
391,32,65926,1,2,0:2:0:0:
420,108,66046,1,8,0:2:0:0:
391,32,66166,1,2,0:2:0:0:
471,45,66286,1,2,1:2:0:0:
444,268,66526,2,0,B|450:212|456:233|464:178,1,90.0000034332277,2|2,0:2|3:2,0:0:0:0:
479,36,66766,1,2,1:3:0:0:
346,143,67006,2,0,B|352:199|358:178|366:233,1,90.0000034332277,8|0,0:0|0:0,0:0:0:0:
369,384,67246,1,2,0:2:0:0:
447,280,67486,5,4,1:2:0:0:
368,374,67606,1,0,1:0:0:0:
308,299,67726,1,0,1:0:0:0:
265,343,67846,1,0,1:0:0:0:
232,310,67966,1,0,1:0:0:0:
203,328,68086,1,0,1:0:0:0:
185,316,68206,1,0,1:0:0:0:
173,317,68326,2,0,L|170:345,2,17.9999994506836,2|2|2,1:2|1:2|1:2,0:0:0:0:
97,296,68566,5,2,1:2:0:0:
105,384,68686,1,2,1:2:0:0:
105,384,68926,6,2,B|95:306|95:306|97:300|97:300|26:270|26:270|28:264|28:264|18:189,1,240,10|10,1:2|1:2,0:1:0:0:
0,63,69286,1,10,1:2:0:0:
21,268,69406,5,6,1:2:0:0:
159,7,69646,2,0,P|123:108|101:214,1,215.999993408203,2|8,0:2|0:2,0:0:0:0:
101,214,70126,2,0,P|123:108|159:7,1,215.999993408203,2|2,1:3|0:2,0:0:0:0:
296,11,70606,2,0,P|281:72|299:14,2,215.999993408203,0|8|2,1:0|0:0|0:2,0:0:0:0:
295,10,71326,6,0,P|246:61|300:15,1,215.999993408203,0|2,1:2|0:2,0:0:0:0:
393,67,71806,2,0,P|442:117|388:71,1,215.999993408203,8|0,0:2|1:2,0:0:0:0:
208,162,72286,6,0,B|231:148|231:148|324:155,1,107.999996704102,2|2,1:2|3:2,0:0:0:0:
441,303,72526,2,0,B|425:274|425:274|415:61,2,215.999993408203,4|10|2,1:2|0:2|0:2,0:0:0:0:
492,369,73126,1,2,0:0:0:0:
348,305,73246,6,0,B|238:316|238:316|347:325,2,215.999993408203,6|2|8,1:2|0:2|0:2,0:0:0:0:
56,233,73966,2,0,P|142:145|350:298,1,431.999986816407,2|2,1:2|1:3,0:0:0:0:
56,233,74686,1,8,0:0:0:0:
350,294,74926,2,0,P|229:137|56:233,1,431.999986816407,2|2,0:2|0:2,0:0:0:0:
350,294,75646,1,8,0:2:0:0:
56,233,75886,1,0,1:2:0:0:
350,294,76126,1,0,3:2:0:0:
276,278,76246,1,2,3:2:0:0:
203,263,76366,1,2,1:2:0:0:
130,248,76486,1,2,3:2:0:0:
56,233,76606,2,0,P|28:306|30:347,1,107.999996704102,8|0,3:2|3:2,0:0:0:0:
276,278,76846,5,10,3:3:0:0:
179,192,76966,1,8,3:3:0:0:
56,233,77086,1,6,1:2:0:0:
56,233,77326,2,0,B|102:216|102:216|98:169|65:146|65:146|72:145|72:145|37:119|35:78,1,215.999993408203,2|8,0:2|0:2,0:0:0:0:
35,78,77806,2,0,B|37:119|72:145|72:145|65:146|65:146|98:169|102:216|102:216|56:233,1,215.999993408203,2|2,1:3|0:2,0:0:0:0:
36,330,78286,2,0,B|131:294|131:294|15:356,2,215.999993408203,0|8|2,1:0|0:0|0:2,0:0:0:0:
36,330,79006,6,0,B|131:294|131:294|15:356,1,215.999993408203,0|2,1:2|0:3,0:0:0:0:
277,263,79486,2,0,B|182:227|182:227|298:289,1,215.999993408203,8|0,0:2|1:2,0:0:0:0:
345,383,79966,2,0,P|358:328|406:286,1,107.999996704102,2|2,1:2|3:2,0:0:0:0:
477,156,80206,2,0,B|482:253|482:253|477:261|477:261|482:386,2,215.999993408203,4|8|2,1:2|0:2|0:2,0:0:0:0:
360,0,80806,1,2,0:0:0:0:
436,20,80926,6,0,P|386:23|439:23,2,215.999993408203,6|2|8,1:2|0:2|0:2,0:0:0:0:
61,70,81646,2,0,B|415:41|131:78|522:47,1,431.999986816407,2|2,1:2|1:3,0:0:0:0:
61,70,82366,1,8,0:0:0:0:
492,49,82606,2,0,B|310:63,1,107.999996704102,2|2,0:2|0:2,0:0:0:0:
61,70,82846,5,0,3:2:0:0:
74,62,82966,1,0,3:2:0:0:
80,85,83086,1,2,3:3:0:0:
44,80,83206,1,0,3:2:0:0:
61,39,83326,1,0,3:2:0:0:
113,61,83446,1,0,3:2:0:0:
97,132,83566,1,0,3:2:0:0:
16,112,83686,2,0,B|8:83|8:83|13:136,2,53.9999983520508,2|2|2,1:2|1:2|1:2,0:0:0:0:
23,338,84046,5,2,3:2:0:0:
59,266,84166,1,2,0:2:0:0:
104,353,84286,2,0,B|108:369|120:380|120:380|133:313|157:263|157:263|155:322|179:370|179:370|189:309|219:281|219:281|223:324|237:352|237:352|251:309|283:292|283:292|281:324|298:344|298:344|311:314|346:304|346:304|350:328|368:335|368:335|387:321|414:325,1,720.000027465821,10|6,1:3|1:2,0:0:0:0:
409,324,90397,5,6,1:2:0:0:
409,324,90614,1,0,3:0:0:0:
409,324,90831,1,8,0:1:0:0:
469,155,91049,5,8,0:1:0:0:
387,242,91157,1,8,0:1:0:0:
304,209,91266,5,0,3:0:0:0:
306,219,91374,1,0,3:0:0:0:
316,217,91483,1,2,3:3:0:0:
314,207,91592,1,0,3:3:0:0:
302,214,91701,1,0,3:3:0:0:
308,205,91809,1,0,3:3:0:0:
317,211,91918,1,0,3:3:0:0:
311,220,92027,1,0,3:3:0:0:
225,174,92136,6,0,L|216:278,2,60,6|2|2,1:2|0:2|0:2,0:0:0:0:
330,328,92570,2,0,P|268:295|229:291,1,60,8|0,0:2|0:0,0:0:0:0:
148,277,92788,1,2,1:3:0:0:
34,383,93005,1,2,0:2:0:0:
69,306,93114,1,2,3:2:0:0:
134,360,93223,1,2,1:2:0:0:
71,163,93440,1,8,0:0:0:0:
71,163,93657,2,0,P|62:192|62:222,1,60,2|2,0:2|0:2,0:0:0:0:
257,86,93875,6,0,P|228:76|198:76,1,60,0|2,1:2|3:2,0:0:0:0:
123,96,94092,1,2,0:3:0:0:
24,29,94310,2,0,P|91:49|125:103,1,120,8|2,0:2|0:2,0:0:0:0:
123,96,94636,1,2,3:2:0:0:
198,76,94744,2,0,P|228:76|257:86,1,60,2|2,1:2|3:2,0:0:0:0:
318,141,94962,1,0,1:2:0:0:
395,20,95179,1,8,0:2:0:0:
389,185,95397,1,2,1:2:0:0:
392,102,95506,1,2,0:2:0:0:
318,141,95615,5,6,1:2:0:0:
512,148,95831,1,2,0:2:0:0:
318,141,96049,1,8,0:2:0:0:
392,102,96158,1,2,0:2:0:0:
389,185,96267,1,2,1:2:0:0:
512,298,96483,1,2,0:2:0:0:
438,259,96592,1,2,3:2:0:0:
441,342,96701,1,2,1:3:0:0:
285,306,96918,1,8,0:0:0:0:
360,345,97027,1,2,0:2:0:0:
278,317,97136,1,2,0:2:0:0:
309,170,97353,6,0,L|316:243,1,60,0|2,1:2|3:2,0:0:0:0:
229,114,97570,2,0,L|222:187,1,60,2|2,1:2|0:2,0:0:0:0:
293,9,97788,1,8,0:2:0:0:
298,68,97896,1,2,3:2:0:0:
229,114,98005,2,0,L|222:187,1,60,2|2,0:2|3:2,0:0:0:0:
159,71,98223,5,0,3:2:0:0:
127,106,98331,1,2,3:2:0:0:
92,74,98440,1,2,3:2:0:0:
124,39,98549,1,2,3:2:0:0:
150,95,98657,1,8,3:2:0:0:
148,47,98765,1,0,3:2:0:0:
100,49,98874,1,2,3:3:0:0:
102,97,98983,1,2,3:3:0:0:
137,191,99092,5,6,1:2:0:0:
10,77,99310,1,2,0:2:0:0:
218,202,99527,2,0,B|129:212|192:214|100:223,1,120,8|2,0:2|1:3,0:0:0:0:
81,345,99962,1,2,0:2:0:0:
0,326,100070,1,2,3:2:0:0:
89,355,100179,2,0,B|137:349|106:347|153:342,1,60,0|2,1:0|0:2,0:0:0:0:
241,295,100397,2,0,B|232:279|232:279|226:336,1,60,8|0,0:0|0:0,0:0:0:0:
297,371,100614,2,0,B|345:365|314:363|361:358,1,60,2|2,0:2|0:2,0:0:0:0:
436,383,100831,5,0,1:2:0:0:
476,166,101049,1,2,0:3:0:0:
512,241,101157,1,2,0:2:0:0:
451,298,101266,1,8,0:2:0:0:
476,166,101483,1,2,0:2:0:0:
379,258,101701,1,2,1:2:0:0:
393,176,101809,1,2,3:2:0:0:
476,166,101918,2,0,B|485:158|485:158|489:109,1,60,0|2,1:2|0:2,0:0:0:0:
470,151,102136,2,0,B|479:143|479:143|483:94,1,60,8|0,0:2|0:0,0:0:0:0:
464,136,102353,2,0,B|473:128|473:128|477:79,1,60,2|2,1:2|0:2,0:0:0:0:
425,25,102570,6,0,B|473:59|473:59|325:65|325:65|321:69|321:69|169:76,1,360.000013732911,6|8,1:2|0:2,0:0:0:0:
93,88,103114,1,2,0:2:0:0:
133,14,103223,1,2,1:2:0:0:
178,84,103331,1,2,3:2:0:0:
139,158,103440,1,2,0:2:0:0:
55,163,103549,1,2,3:2:0:0:
10,92,103657,1,2,1:3:0:0:
245,222,103875,2,0,B|250:210|250:210|198:220,1,60,8|2,0:0|0:2,0:0:0:0:
311,150,104092,2,0,P|337:180|382:186,1,60,2|2,0:2|0:2,0:0:0:0:
498,156,104310,5,6,1:2:0:0:
320,263,104527,1,0,3:0:0:0:
505,73,104744,1,8,0:1:0:0:
212,345,104962,1,8,0:1:0:0:
324,275,105070,2,0,B|321:293|321:293|265:320,1,60,8|0,0:1|3:0,0:0:0:0:
97,341,105288,5,0,0:0:0:0:
114,316,105397,1,2,3:3:0:0:
127,343,105505,1,0,1:3:0:0:
110,368,105614,1,0,1:3:0:0:
144,318,105723,1,0,1:3:0:0:
84,314,105831,1,0,1:3:0:0:
50,364,105940,1,0,1:3:0:0:
0,277,106049,6,0,B|9:297|9:297|26:162,1,143.999995605469,6|2,1:2|0:2,0:0:0:0:
111,12,106483,2,0,B|96:123|96:123|113:91,1,143.999995605469,8|2,0:2|1:3,0:0:0:0:
15,91,106918,1,2,0:2:0:0:
187,59,107136,1,0,1:0:0:0:
0,8,107353,1,8,0:0:0:0:
256,105,107570,1,2,0:2:0:0:
512,8,107788,5,0,1:2:0:0:
512,8,108223,1,8,0:2:0:0:
444,60,108331,1,0,1:2:0:0:
444,103,108440,1,2,0:2:0:0:
455,144,108548,1,2,3:2:0:0:
365,28,108657,1,2,1:2:0:0:
444,60,108765,1,2,3:2:0:0:
456,100,108875,1,4,1:2:0:0:
455,144,108983,1,2,0:2:0:0:
455,144,109092,6,0,B|460:199|460:199|465:205|465:205|471:280,1,107.999996704102,8|0,0:2|0:0,0:0:0:0:
477,274,109310,2,0,L|471:202,1,71.9999978027344,2|2,1:2|0:2,0:0:0:0:
477,373,109527,6,0,B|507:356|507:356|266:372,1,270.000010299683,6|2,1:2|0:2,0:0:0:0:
192,342,109962,1,8,0:2:0:0:
190,357,110070,1,2,0:2:0:0:
262,293,110179,1,2,1:2:0:0:
55,318,110397,2,0,P|78:348|110:366,1,71.9999978027344,2|2,0:2|3:2,0:0:0:0:
273,213,110614,2,0,P|250:183|218:165,1,71.9999978027344,2|2,1:3|0:2,0:0:0:0:
51,305,110831,1,8,0:0:0:0:
105,245,110940,1,2,0:2:0:0:
71,172,111049,1,2,0:2:0:0:
49,41,111266,6,0,P|26:72|12:122,1,81.0000003089905,0|2,1:2|3:2,0:0:0:0:
283,215,111483,2,0,P|306:184|320:134,1,81.0000003089905,2|2,1:2|0:2,0:0:0:0:
14,232,111701,2,0,P|19:270|45:315,1,81.0000003089905,8|2,0:2|3:2,0:0:0:0:
349,212,111918,2,0,P|343:173|317:128,1,81.0000003089905,2|2,0:2|3:2,0:0:0:0:
180,0,112136,5,0,3:2:0:0:
212,76,112244,1,2,3:2:0:0:
282,35,112353,1,2,1:2:0:0:
314,111,112462,1,2,3:2:0:0:
244,152,112570,1,8,3:2:0:0:
163,145,112679,1,0,3:2:0:0:
156,226,112788,1,10,3:3:0:0:
237,233,112897,1,8,3:3:0:0:
285,312,113005,6,0,P|249:319|205:318,2,81.0000003089905,6|2|2,1:2|0:2|0:2,0:0:0:0:
486,371,113440,2,0,P|458:361|429:324,1,71.9999978027344,8|2,0:2|0:2,0:0:0:0:
379,140,113657,1,2,1:3:0:0:
485,38,113875,1,2,0:2:0:0:
474,123,113983,1,2,3:2:0:0:
389,138,114092,1,0,1:0:0:0:
347,62,114201,1,2,0:2:0:0:
407,0,114310,1,8,0:0:0:0:
60,378,114744,6,0,P|88:368|117:331,1,71.9999978027344,0|2,1:2|3:2,0:0:0:0:
156,148,114962,1,2,0:3:0:0:
9,25,115179,1,8,0:2:0:0:
88,18,115288,1,0,1:2:0:0:
149,69,115397,1,2,0:2:0:0:
105,209,115614,1,2,1:2:0:0:
352,137,115831,2,0,B|309:154|282:122|301:117|268:80|222:99,1,143.999995605469,6|8,1:2|0:2,0:0:0:0:
105,209,116266,1,2,1:2:0:0:
477,0,116483,6,0,B|439:19|439:19|430:175,1,143.999995605469,6|2,1:2|0:2,0:0:0:0:
355,384,116918,1,8,0:2:0:0:
289,340,117027,1,2,0:2:0:0:
282,261,117136,1,2,1:2:0:0:
478,219,117353,2,0,B|468:208|468:208|372:199,1,71.9999978027344,2|2,0:2|3:2,0:0:0:0:
276,253,117570,1,2,1:3:0:0:
512,296,117788,2,0,B|502:307|502:307|406:316,1,71.9999978027344,8|2,0:0|0:2,0:0:0:0:
213,305,118005,1,2,0:2:0:0:
25,384,118223,6,0,P|104:309|227:297,1,215.999993408203,4|2,1:2|0:2,0:0:0:0:
405,321,118657,2,0,P|299:346|186:295,1,215.999993408203,4|2,1:2|0:2,0:0:0:0:
174,147,119092,1,4,3:2:0:0:
252,167,119201,1,0,3:2:0:0:
195,224,119310,1,0,3:2:0:0:
180,141,119418,1,0,3:2:0:0:
253,175,119527,1,2,1:3:0:0:
187,221,119636,1,0,3:2:0:0:
190,139,119744,1,8,0:2:0:0:
110,261,119853,1,8,0:2:0:0:
72,95,119962,6,0,B|68:42|89:0|89:0|25:125|25:273,1,360.000013732911,6|8,1:2|0:2,0:0:0:0:
25,252,120614,1,2,1:3:0:0:
11,351,120831,2,0,B|1:342|1:342|82:331,1,71.9999978027344,2|2,0:2|3:2,0:0:0:0:
198,305,121049,2,0,B|188:314|188:314|269:325,1,71.9999978027344,0|2,1:0|0:2,0:0:0:0:
416,358,121266,2,0,P|406:338|415:365,1,143.999995605469,8|2,0:0|0:2,0:0:0:0:
500,380,121701,6,0,B|504:360|504:360|495:289,1,71.9999978027344,0|2,1:2|3:2,0:0:0:0:
391,130,121918,2,0,B|387:150|387:150|396:221,1,71.9999978027344,2|2,0:3|0:2,0:0:0:0:
503,300,122136,2,0,B|496:280|496:280|453:223,1,71.9999978027344,8|0,0:2|1:2,0:0:0:0:
271,50,122353,2,0,B|277:69|277:69|320:126,1,71.9999978027344,2|2,0:2|3:2,0:0:0:0:
512,65,122570,2,0,L|385:57,1,71.9999978027344,2|2,1:2|3:2,0:0:0:0:
147,6,122788,2,0,B|180:55|180:55|321:63,1,143.999995605469,6|8,1:2|0:2,0:0:0:0:
349,24,123114,1,2,0:2:0:0:
346,10,123223,1,2,1:2:0:0:
6,46,123440,6,0,B|69:36|69:36|153:159,1,180.000006866455,6|2,1:2|0:2,0:0:0:0:
297,173,123875,2,0,B|233:163|233:163|150:286,1,180.000006866455,8|2,0:2|1:2,0:0:0:0:
0,373,124310,1,2,0:2:0:0:
4,348,124418,1,2,3:2:0:0:
7,384,124527,1,2,1:3:0:0:
219,331,124744,2,0,B|191:366|191:366|51:379,1,143.999995605469,8|2,0:0|0:2,0:0:0:0:
296,373,125179,5,6,3:2:0:0:
290,285,125288,1,0,3:0:0:0:
284,384,125396,1,0,3:0:0:0:
339,144,125614,2,0,B|329:164|329:164|335:226,1,71.9999978027344,8|0,0:1|0:0,0:0:0:0:
482,376,125831,5,8,0:1:0:0:
293,293,125940,2,0,B|313:306|313:306|402:301,1,71.9999978027344,8|0,0:1|3:0,0:0:0:0:
510,165,126157,5,0,0:0:0:0:
302,71,126266,2,0,B|282:71|282:71|277:91,6,35.9999989013672,2|0|0|0|0|0|0,3:3|1:3|1:3|1:3|1:3|1:3|1:3,0:0:0:0:
277,97,126701,1,0,1:3:0:0:
512,0,126918,5,6,1:2:0:0:
70,16,127136,2,0,P|164:78|276:96,1,227.999993911743,2|8,0:2|0:2,0:0:0:0:
277,96,127570,2,0,P|166:79|72:17,1,227.999993911743,2|2,1:3|0:2,0:0:0:0:
24,185,128005,2,0,P|0:120|30:185,2,227.999993911743,0|8|2,1:0|0:0|0:2,0:0:0:0:
24,185,128657,6,0,P|0:120|30:185,1,227.999993911743,0|2,1:2|0:2,0:0:0:0:
179,249,129092,2,0,P|203:184|173:249,1,227.999993911743,8|0,0:2|1:2,0:0:0:0:
0,345,129527,2,0,B|13:318|13:318|98:309,1,113.999996955872,2|2,1:2|3:2,0:0:0:0:
370,323,129744,2,0,B|194:308|194:308|176:260,2,227.999993911743,4|10|2,1:2|0:2|0:2,0:0:0:0:
465,241,130396,6,0,B|459:364|459:364|452:255,2,227.999993911743,6|2|8,1:2|0:2|0:2,0:0:0:0:
354,234,131049,2,0,P|321:59|211:210,1,455.999987823487,2|2,1:2|1:3,0:0:0:0:
354,234,131701,1,8,0:0:0:0:
207,203,131918,2,0,P|325:60|353:236,1,455.999987823487,2|2,0:2|0:2,0:0:0:0:
207,203,132570,1,8,0:2:0:0:
355,233,132788,1,0,1:2:0:0:
207,203,133005,5,0,3:2:0:0:
289,175,133114,1,2,3:2:0:0:
355,233,133223,1,2,1:2:0:0:
289,175,133331,1,2,3:2:0:0:
306,88,133440,1,8,3:2:0:0:
289,175,133549,1,0,3:2:0:0:
207,203,133657,5,10,3:3:0:0:
306,88,133766,1,8,3:3:0:0:
354,234,133875,1,6,1:2:0:0:
354,234,134092,2,0,B|352:273|325:292|325:292|289:305|257:296|257:296|259:302|259:302|216:284|175:297,1,227.999993911743,2|8,0:2|0:2,0:0:0:0:
175,297,134527,2,0,B|216:284|259:302|259:302|257:296|257:296|289:305|325:292|325:292|352:273|354:234,1,227.999993911743,2|2,1:3|0:2,0:0:0:0:
449,82,134962,2,0,B|435:201|435:201|469:91,2,227.999993911743,0|8|2,1:0|0:0|0:2,0:0:0:0:
449,82,135614,6,0,B|435:201|435:201|469:91,1,227.999993911743,0|2,1:2|0:2,0:0:0:0:
345,240,136049,2,0,B|359:359|359:359|325:249,1,227.999993911743,8|0,0:2|1:2,0:0:0:0:
132,31,136483,2,0,P|105:75|130:143,1,113.999996955872,2|2,1:2|3:2,0:0:0:0:
228,372,136701,2,0,B|285:305|217:226|226:271|149:217|230:106,2,227.999993911743,4|10|2,1:2|0:2|0:2,0:0:0:0:
45,222,137353,6,0,P|98:217|42:226,2,227.999993911743,6|2|8,1:2|0:2|0:2,0:0:0:0:
481,224,138005,2,0,B|81:248|421:240|27:268,1,455.999987823487,2|2,1:2|1:3,0:0:0:0:
481,224,138657,1,8,0:0:0:0:
27,268,138875,2,0,B|210:253,1,113.999996955872,2|2,0:2|0:2,0:0:0:0:
492,232,139092,6,0,P|360:233|111:134,1,341.999990867615,4|2,1:2|0:2,0:0:0:0:
385,17,139527,2,0,P|296:104|217:319,1,341.999990867615,4|2,1:2|0:2,0:0:0:0:
424,384,139962,2,0,P|492:348|481:282,1,113.999996955872,4|0,3:2|3:2,0:0:0:0:
82,74,140179,2,0,L|262:98,1,113.999996955872,8|0,0:2|3:2,0:0:0:0:
491,152,140397,2,0,L|378:136,1,113.999996955872,14|0,0:2|3:2,0:0:0:0:
197,100,140614,1,8,0:2:0:0:
373,129,140723,1,8,0:2:0:0:
192,111,140831,1,6,1:2:0:0:
192,111,145849,5,4,1:2:0:0:
202,125,145939,1,0,1:2:0:0:
221,114,146030,1,0,1:2:0:0:
211,83,146121,1,0,1:2:0:0:
165,95,146212,1,4,1:2:0:0:
174,141,146303,1,0,1:2:0:0:
243,141,146394,1,0,1:2:0:0:
254,67,146485,1,0,1:2:0:0:
182,33,146576,1,4,3:2:0:0:
206,199,146758,5,8,3:2:0:0:
229,365,146939,1,8,3:2:0:0:
261,277,147121,5,8,3:2:0:0:
267,288,147212,1,8,3:2:0:0:
346,273,147303,6,0,B|286:286|334:284|267:298,1,77.9999964294435,6|0,1:2|0:0,0:0:0:0:
107,305,147485,1,2,0:2:0:0:
144,381,147576,2,0,B|91:212|146:307|97:133,1,233.999989288331,2|2,0:2|1:3,0:0:0:0:
95,146,147939,1,2,3:2:0:0:
16,187,148030,2,0,P|28:246|43:281,1,77.9999964294435,2|0,0:2|3:2,0:0:0:0:
200,211,148212,1,2,1:2:0:0:
201,198,148303,1,2,0:2:0:0:
186,113,148394,2,0,B|182:131|182:131|204:220,1,77.9999964294435,8|2,0:0|0:2,0:0:0:0:
346,118,148576,2,0,B|350:100|350:100|328:11,1,77.9999964294435,2|2,0:2|0:2,0:0:0:0:
83,7,148758,5,0,1:2:0:0:
197,116,148939,1,2,0:3:0:0:
174,20,149030,1,2,0:2:0:0:
187,25,149121,2,0,P|225:37|266:42,1,77.9999964294435,8|0,0:2|0:0,0:0:0:0:
335,42,149303,2,0,P|274:49|247:47,1,77.9999964294435,0|2,1:2|3:2,0:0:0:0:
329,31,149485,2,0,P|424:29|486:37,1,155.999992858887,2|4,1:2|1:2,0:0:0:0:
511,280,149758,2,0,B|506:125|492:211|488:46,1,233.999989288331,2|2,0:2|0:2,0:0:0:0:
506,293,150212,6,0,P|493:370|417:369,1,155.999992858887,6|2,1:2|0:2,0:0:0:0:
264,264,150485,2,0,L|418:285,1,155.999992858887,2|0,0:2|0:0,0:0:0:0:
255,251,150758,2,0,L|265:348,1,77.9999964294435,2|2,1:2|3:2,0:0:0:0:
436,141,150939,6,0,P|423:64|347:65,1,155.999992858887,2|2,0:2|1:3,0:0:0:0:
194,170,151212,2,0,L|348:148,1,155.999992858887,2|0,0:2|0:0,0:0:0:0:
185,183,151485,2,0,L|195:86,1,77.9999964294435,2|2,0:2|0:2,0:0:0:0:
0,30,151667,6,0,L|10:127,1,77.9999964294435,0|0,1:2|3:2,0:0:0:0:
184,267,151849,2,0,L|177:190,1,77.9999964294435,2|2,0:2|0:2,0:0:0:0:
121,45,152030,2,0,L|111:142,1,77.9999964294435,8|0,0:2|0:0,0:0:0:0:
46,181,152212,2,0,L|36:278,1,77.9999964294435,0|2,1:2|3:2,0:0:0:0:
45,355,152394,5,0,3:2:0:0:
97,321,152485,1,2,3:2:0:0:
158,335,152576,1,2,1:2:0:0:
217,314,152667,1,2,3:2:0:0:
256,363,152758,1,8,3:2:0:0:
295,314,152849,1,0,3:2:0:0:
354,335,152940,1,2,3:3:0:0:
415,321,153031,1,0,3:3:0:0:
467,355,153121,6,0,P|502:322|519:261,2,77.9999964294435,6|2|2,1:2|0:2|0:2,0:0:0:0:
512,178,153485,2,0,P|421:239|346:238,1,155.999992858887,8|2,0:2|1:3,0:0:0:0:
190,98,153849,1,2,0:2:0:0:
371,234,154030,2,0,P|414:164|415:85,2,155.999992858887,0|8|2,1:0|0:0|0:2,0:0:0:0:
161,23,154576,5,0,1:2:0:0:
337,103,154758,1,2,0:3:0:0:
263,131,154939,1,8,0:2:0:0:
370,31,155121,1,0,1:2:0:0:
87,51,155303,1,2,1:2:0:0:
443,64,155485,1,4,1:2:0:0:
87,51,155667,2,0,B|51:206|106:116|67:286,1,233.999989288331,8|0,0:2|0:0,0:0:0:0:
23,351,156030,6,0,P|36:303|75:282,1,77.9999964294435,6|0,1:2|0:0,0:0:0:0:
226,315,156212,2,0,B|91:298|201:297|74:282,1,155.999992858887,2|8,0:2|0:2,0:0:0:0:
266,155,156576,2,0,P|246:172|230:221,1,77.9999964294435,2|0,1:2|3:2,0:0:0:0:
304,354,156758,2,0,P|324:337|340:288,1,77.9999964294435,2|2,0:2|3:2,0:0:0:0:
236,233,156939,1,2,1:3:0:0:
422,274,157121,1,8,0:0:0:0:
510,34,157303,1,2,0:2:0:0:
459,98,157394,1,2,0:2:0:0:
469,107,157485,5,2,1:2:0:0:
470,126,157575,1,2,3:2:0:0:
471,145,157666,1,2,0:0:0:0:
472,165,157757,1,2,0:0:0:0:
473,184,157848,1,2,0:3:0:0:
338,51,158030,1,2,1:2:0:0:
339,31,158121,1,0,3:3:0:0:
248,4,158212,5,2,3:2:0:0:
257,65,158302,1,0,3:3:0:0:
266,126,158394,1,2,3:3:0:0:
275,187,158485,1,0,3:3:0:0:
274,258,158576,1,0,3:3:0:0:
265,197,158666,1,0,3:3:0:0:
256,136,158757,1,2,3:3:0:0:
247,75,158849,1,2,3:3:0:0:
238,14,158939,5,6,1:2:0:0:
165,142,159121,2,0,B|171:111|164:66|164:66|147:132|154:240,1,233.999989288331,2|0,0:2|0:0,0:0:0:0:
201,292,159485,1,2,1:3:0:0:
75,82,159667,1,2,0:2:0:0:
41,124,159757,1,2,3:2:0:0:
71,170,159849,1,2,1:2:0:0:
37,212,159939,1,2,0:2:0:0:
67,258,160030,2,0,L|61:356,1,77.9999964294435,10|0,0:0|0:0,0:0:0:0:
198,377,160212,2,0,L|193:299,1,77.9999964294435,2|2,0:2|0:2,0:0:0:0:
164,13,160394,5,0,1:2:0:0:
298,108,160576,1,2,0:3:0:0:
145,129,160758,1,8,0:2:0:0:
249,4,160939,2,0,B|251:25|246:41|246:41|303:2|384:3,1,155.999992858887,0|2,1:2|1:2,0:0:0:0:
495,126,161303,5,4,1:2:0:0:
500,117,161364,6,0,P|499:80|497:61,1,51.999997619629,0|0,1:2|1:2,0:0:0:0:
439,4,161485,6,0,B|460:2|478:13|478:13|501:80|487:230,1,233.999989288331,8|0,0:2|0:0,0:0:0:0:
473,285,161849,5,6,1:2:0:0:
500,364,162030,1,2,0:2:0:0:
362,360,162212,1,10,0:2:0:0:
493,373,162394,1,2,1:2:0:0:
369,351,162576,5,2,0:2:0:0:
500,364,162758,1,2,1:2:0:0:
406,230,162939,1,10,0:2:0:0:
493,373,163121,1,2,0:2:0:0:
413,221,163303,5,2,1:2:0:0:
500,364,163485,1,2,0:2:0:0:
281,381,163667,1,10,0:2:0:0:
493,373,163849,1,2,1:2:0:0:
342,73,164030,5,2,3:2:0:0:
115,95,164212,1,2,1:2:0:0:
414,114,164394,1,10,3:2:0:0:
342,73,164485,1,2,3:2:0:0:
299,144,164576,1,2,3:3:0:0:
508,235,164758,6,0,P|446:197|374:203,1,83.9999974365235,6|0,1:2|0:0,0:0:0:0:
187,268,164939,2,0,B|302:251|361:228|361:228|267:219|150:279,1,335.999989746094,2|2,0:2|1:3,0:0:0:0:
45,334,165485,1,2,0:2:0:0:
45,334,165667,1,0,1:0:0:0:
129,348,165758,1,2,0:0:0:0:
180,279,165849,2,0,L|174:184,1,77.9999964294435,8|0,0:0|0:0,0:0:0:0:
1,163,166030,2,0,L|5:85,1,77.9999964294435,2|2,0:2|0:2,0:0:0:0:
224,31,166212,6,0,L|219:108,1,77.9999964294435,0|2,1:2|0:2,0:0:0:0:
184,188,166393,2,0,L|188:265,1,77.9999964294435,2|2,0:3|0:2,0:0:0:0:
365,334,166576,2,0,L|360:256,1,77.9999964294435,8|0,0:2|0:0,0:0:0:0:
303,190,166757,2,0,L|307:112,2,77.9999964294435,0|2|2,1:2|3:2|1:2,0:0:0:0:
511,2,167121,6,0,P|470:4|438:35,1,77.9999964294435,4|0,1:2|0:0,0:0:0:0:
464,210,167303,1,8,0:2:0:0:
470,196,167394,1,2,0:2:0:0:
476,182,167485,2,0,L|472:100,1,77.9999964294435,2|0,0:2|0:0,0:0:0:0:
352,32,167667,5,6,1:2:0:0:
355,43,167758,1,2,0:0:0:0:
363,6,167849,1,2,0:2:0:0:
106,88,168030,2,0,P|120:141|178:159,1,77.9999964294435,8|0,0:2|0:0,0:0:0:0:
382,122,168212,1,2,1:2:0:0:
347,52,168303,1,0,3:2:0:0:
273,77,168394,1,2,0:2:0:0:
211,221,168576,1,2,1:3:0:0:
218,144,168667,2,0,P|227:246|244:316,1,155.999992858887,2|0,0:2|0:0,0:0:0:0:
314,326,168939,1,2,0:2:0:0:
149,298,169121,6,0,P|143:345|104:382,1,77.9999964294435,2|2,1:2|3:2,0:0:0:0:
115,374,169303,1,2,0:2:0:0:
368,262,169485,6,0,P|362:215|323:178,1,77.9999964294435,2|0,0:3|0:0,0:0:0:0:
279,196,169667,1,2,1:2:0:0:
290,199,169758,1,0,3:3:0:0:
345,179,169849,5,2,3:2:0:0:
355,121,169939,1,0,3:3:0:0:
310,83,170030,1,2,3:3:0:0:
254,103,170120,1,0,3:3:0:0:
232,158,170212,1,0,3:3:0:0:
243,100,170303,1,0,3:3:0:0:
299,80,170393,1,2,3:3:0:0:
344,118,170484,1,2,3:3:0:0:
381,48,170576,6,0,P|420:44|454:63,1,77.9999964294435,6|0,1:2|0:0,0:0:0:0:
448,228,170758,2,0,B|448:110|460:194|462:71,1,155.999992858887,2|8,0:2|0:2,0:0:0:0:
499,297,171121,1,2,1:3:0:0:
207,355,171303,1,2,0:2:0:0:
506,309,171485,1,2,1:2:0:0:
219,350,171667,2,0,B|393:359|274:366|454:373,1,234.000000892639,8|0,0:0|1:2,0:0:0:0:
444,364,172121,1,2,3:2:0:0:
433,367,172212,1,2,0:3:0:0:
438,377,172303,1,2,0:2:0:0:
451,373,172394,1,8,0:2:0:0:
399,289,172576,1,0,1:2:0:0:
299,373,172758,1,2,1:2:0:0:
8,262,172939,6,0,B|186:271|186:271|190:268|190:268|261:272|261:272|264:275|264:275|418:284,1,384,4|0,1:2|0:0,0:0:0:0:
181,168,173485,6,2,B|195:193|195:193|273:198|273:198|291:175,1,135.000005149841,6|2,1:2|0:2,0:1:0:0:
331,172,173849,6,2,B|306:129|306:129|172:120|172:120|141:159,1,233.999989288331,8|2,0:2|3:2,0:1:0:0:
151,281,174212,6,2,B|236:166|236:166|245:25,1,215.999993408203,2|2,0:2|1:3,0:1:0:0:
166,12,174485,6,2,B|156:202|156:202|240:274|240:274|252:62,1,431.999986816407,2|2,3:2|0:2,0:1:0:0:
253,12,174849,1,2,0:2:0:0:
155,22,174939,5,0,1:2:0:0:
330,49,175121,1,2,0:2:0:0:
407,86,175303,1,8,0:2:0:0:
70,5,175485,1,0,1:2:0:0:
146,110,175667,5,0,3:2:0:0:
92,84,175758,1,2,3:2:0:0:
66,138,175849,1,2,1:2:0:0:
120,163,175939,1,2,3:2:0:0:
142,103,176030,1,8,3:2:0:0:
126,160,176121,1,0,3:2:0:0:
69,144,176211,1,2,3:3:0:0:
85,86,176302,1,0,3:3:0:0:
211,160,176394,6,0,B|204:213|204:213|199:217|199:217|189:288,1,77.9999964294435,6|0,1:2|0:0,0:0:0:0:
113,353,176576,2,0,L|125:267,1,77.9999964294435,2|2,0:2|0:2,0:0:0:0:
282,227,176758,2,0,B|263:256|263:256|173:266,1,77.9999964294435,8|0,0:2|0:0,0:0:0:0:
42,272,176939,2,0,B|22:253|22:253|90:245,1,77.9999964294435,2|2,1:3|0:2,0:0:0:0:
332,371,177121,2,0,L|344:285,1,77.9999964294435,2|0,0:2|0:0,0:0:0:0:
393,50,177303,2,0,B|359:278|359:278|354:283|354:283|343:359,1,311.999985717774,2|2,1:2|0:2,0:0:0:0:
172,0,177849,6,0,B|180:17|180:17|246:25,1,77.9999964294435,0|2,1:2|0:2,0:0:0:0:
319,130,178030,2,0,B|311:113|311:113|245:105,1,77.9999964294435,2|2,0:3|0:2,0:0:0:0:
157,119,178212,2,0,B|203:113|203:113|207:107|207:107|246:103,1,77.9999964294435,8|0,0:2|0:0,0:0:0:0:
385,12,178394,2,0,B|377:29|377:29|311:37,1,77.9999964294435,0|2,1:2|3:2,0:0:0:0:
3,33,178576,2,0,B|20:14|20:14|8:75,1,77.9999964294435,2|2,1:2|3:2,0:0:0:0:
63,337,178758,2,0,B|32:352|32:352|77:115,1,270.000010299683,6|0,1:2|0:0,0:0:0:0:
101,2,179121,1,2,0:2:0:0:
137,70,179212,1,2,0:2:0:0:
83,126,179303,6,0,B|80:148|80:148|120:204,1,77.9999964294435,6|0,1:2|0:0,0:0:0:0:
249,137,179485,1,2,0:2:0:0:
240,145,179576,2,0,B|257:158|257:158|326:151,1,77.9999964294435,2|8,0:2|0:2,0:0:0:0:
487,366,179849,6,0,P|456:345|440:296,1,77.9999964294435,2|0,1:2|3:2,0:0:0:0:
499,87,180030,2,0,B|497:166|497:166|495:172|495:172|492:276,1,155.999992858887,2|2,0:2|1:3,0:0:0:0:
503,249,180303,2,0,B|505:178|505:178|507:172|507:172|509:93,1,155.999992858887,2|0,0:2|0:0,0:0:0:0:
424,106,180576,1,2,0:2:0:0:
499,87,180667,1,2,0:2:0:0:
510,10,180758,5,2,1:2:0:0:
283,19,180939,1,2,0:2:0:0:
504,0,181121,1,2,0:3:0:0:
229,84,181303,1,0,1:3:0:0:
235,94,181394,1,0,3:3:0:0:
282,163,181485,5,0,3:3:0:0:
225,188,181576,1,0,3:3:0:0:
171,156,181667,1,2,3:3:0:0:
114,181,181758,1,0,3:3:0:0:
68,143,181849,1,0,3:3:0:0:
122,175,181939,1,0,3:3:0:0:
179,150,182030,1,2,3:3:0:0:
233,182,182121,1,2,3:3:0:0:
290,157,182212,6,0,L|446:167,1,155.999992858887,6|2,1:2|0:2,0:0:0:0:
457,178,182485,2,0,L|301:168,1,155.999992858887,2|2,0:2|0:2,0:0:0:0:
464,188,182758,1,2,1:3:0:0:
316,14,182939,2,0,P|301:105|304:194,1,155.999992858887,2|2,0:2|1:2,0:0:0:0:
307,178,183182,5,0,1:0:0:0:
316,188,183242,5,0,1:0:0:0:
297,185,183303,6,0,P|308:260|392:305,1,155.999992858887,8|2,0:0|0:2,0:0:0:0:
503,260,183576,1,2,0:2:0:0:
451,329,183667,5,0,1:2:0:0:
497,109,183849,1,2,0:3:0:0:
461,340,184030,1,8,0:2:0:0:
432,53,184212,1,0,1:2:0:0:
415,133,184303,1,2,3:2:0:0:
423,47,184394,2,0,P|360:40|337:57,1,77.9999964294435,2|2,1:2|3:2,0:0:0:0:
139,124,184576,2,0,P|233:120|329:103,2,155.999992858887,4|8|2,1:2|0:2|0:2,0:0:0:0:
12,8,185121,6,0,P|34:53|38:99,1,77.9999964294435,6|0,1:2|0:0,0:0:0:0:
68,169,185303,1,2,0:2:0:0:
59,161,185394,2,0,P|37:206|33:252,1,77.9999964294435,2|8,0:2|0:2,0:0:0:0:
305,360,185667,5,2,1:2:0:0:
88,301,185849,1,2,0:2:0:0:
361,275,186030,1,2,1:3:0:0:
348,286,186121,2,0,P|355:243|374:204,1,77.9999964294435,2|8,0:2|0:0,0:0:0:0:
411,4,186394,5,2,0:2:0:0:
512,109,186576,2,0,P|496:57|482:34,1,77.9999964294435,0|0,1:2|3:2,0:0:0:0:
306,28,186758,2,0,P|345:65|369:77,1,77.9999964294435,2|2,0:2|0:2,0:0:0:0:
497,24,186939,2,0,P|428:2|389:2,1,77.9999964294435,8|0,0:2|0:0,0:0:0:0:
240,74,187121,1,0,1:2:0:0:
239,88,187212,1,2,3:2:0:0:
197,123,187303,5,0,3:2:0:0:
155,88,187394,1,2,3:2:0:0:
145,141,187485,1,2,1:2:0:0:
197,123,187576,1,2,3:2:0:0:
147,84,187667,1,8,3:2:0:0:
189,119,187758,1,0,3:2:0:0:
137,137,187849,1,2,3:3:0:0:
147,84,187939,1,0,3:3:0:0:
77,32,188030,6,0,L|38:244,1,180.000006866455,6|2,1:2|0:2,0:0:0:0:
30,238,188303,2,0,L|68:29,1,155.999992858887,2|0,0:2|0:0,0:0:0:0:
0,0,188576,1,2,1:3:0:0:
197,208,188758,6,0,P|119:252|99:319,1,155.999992858887,2|0,0:2|1:0,0:0:0:0:
109,331,189030,2,0,P|132:253|199:218,1,155.999992858887,2|0,0:2|0:0,0:0:0:0:
274,236,189303,1,2,0:2:0:0:
458,266,189485,5,0,1:2:0:0:
323,306,189667,1,2,0:3:0:0:
468,274,189849,1,8,0:2:0:0:
312,162,190030,1,0,1:2:0:0:
479,282,190212,1,2,1:2:0:0:
251,109,190394,1,4,1:2:0:0:
322,161,190485,2,0,L|506:121,1,180,2|2,0:2|0:2,0:0:0:0:
242,103,190939,6,2,L|21:152,1,120,6|0,1:0|0:0,0:1:0:0:
33,127,191121,2,2,B|244:82|244:82|257:89|257:89|-7:146,1,486.000001853943,2|0,0:3|0:0,0:1:0:0:
11,49,191485,1,2,1:2:0:0:
25,123,191576,1,0,1:2:0:0:
14,40,191667,1,2,1:2:0:0:
1,240,191849,5,2,1:3:0:0:
8,229,191939,2,0,B|96:218|39:237|127:225,1,120,2|8,0:2|0:0,0:0:0:0:
237,382,192212,1,2,1:2:0:0:
240,370,192303,1,2,1:2:0:0:
299,310,192394,5,6,1:2:0:0:
458,371,192576,1,8,0:2:0:0:
179,307,192758,1,14,0:2:0:0:
475,246,192939,2,0,L|467:377,2,120,10|10|4,0:2|0:2|1:2,0:0:0:0:
416,185,193212,2,0,L|408:65,1,120,10|10,3:2|3:2,0:0:0:0:
188,18,193485,1,14,3:2:0:0:
504,3,193667,2,0,L|398:59,2,120,10|10|6,3:2|3:2|1:2,0:0:0:0:
334,172,194030,6,0,P|305:81|190:11,1,227.999993911743,2|8,0:2|0:2,0:0:0:0:
197,12,194394,2,0,P|294:67|334:172,1,227.999993911743,2|2,1:3|0:2,0:0:0:0:
50,71,194758,2,0,P|126:66|51:77,2,227.999993911743,2|8|2,1:2|0:0|0:2,0:0:0:0:
50,71,195303,6,0,P|125:59|52:81,1,227.999993911743,0|2,1:2|0:2,0:0:0:0:
246,181,195667,2,0,P|171:169|244:192,1,227.999993911743,8|0,0:2|1:2,0:0:0:0:
239,293,195939,1,2,3:2:0:0:
250,299,196030,2,0,B|246:334|246:334|152:361,1,113.999996955872,2|2,1:2|3:2,0:0:0:0:
32,178,196212,2,0,B|93:234|93:234|80:383,2,227.999993911743,4|8|2,1:2|0:2|0:2,0:0:0:0:
348,257,196758,6,0,B|326:371|326:371|335:261,2,227.999993911743,6|2|8,1:2|0:2|0:2,0:0:0:0:
375,1,197303,2,0,B|280:96|384:239|443:143|544:273|444:385,1,455.999987823487,2|2,1:2|1:3,0:0:0:0:
375,1,197849,1,8,0:0:0:0:
444,385,198030,2,0,B|544:273|443:143|384:239|280:96|375:1,1,455.999987823487,2|2,0:2|0:2,0:0:0:0:
444,384,198576,1,8,0:2:0:0:
374,1,198758,1,0,1:2:0:0:
432,316,198939,5,0,3:2:0:0:
458,247,199030,1,2,3:2:0:0:
409,192,199121,1,2,1:2:0:0:
359,136,199212,1,2,3:2:0:0:
386,67,199303,1,8,3:2:0:0:
435,122,199394,1,0,3:2:0:0:
409,192,199485,1,10,3:3:0:0:
382,260,199576,1,8,3:3:0:0:
432,316,199667,5,6,1:2:0:0:
432,316,199849,2,0,B|387:351|323:339|323:339|323:344|323:344|272:340|272:340|268:346|241:330|217:329,1,227.999993911743,2|8,0:2|0:2,0:0:0:0:
217,329,200212,2,0,B|241:330|268:346|272:340|272:340|323:344|323:344|323:339|323:339|387:351|432:316,1,227.999993911743,2|2,1:3|0:2,0:0:0:0:
140,290,200576,2,0,B|160:169|160:169|147:324,2,227.999993911743,0|8|2,1:0|0:0|0:2,0:0:0:0:
140,290,201121,6,0,B|160:169|160:169|151:273,1,227.999993911743,0|2,1:2|0:2,0:0:0:0:
82,138,201485,2,0,B|62:17|62:17|70:121,1,227.999993911743,8|0,0:2|1:2,0:0:0:0:
42,289,201849,2,0,B|54:309|54:309|68:215,1,113.999996955872,2|2,1:2|3:2,0:0:0:0:
161,90,202030,2,0,B|250:36|250:36|236:242,2,227.999993911743,4|8|2,1:2|0:2|0:2,0:0:0:0:
300,244,202576,6,0,P|376:239|301:250,2,227.999993911743,6|2|8,1:2|0:2|0:2,0:0:0:0:
20,275,203121,2,0,B|386:256|87:255|473:235,1,455.999987823487,2|2,1:2|1:3,0:0:0:0:
20,275,203667,1,8,0:0:0:0:
473,235,203849,2,0,B|267:245,1,113.999996955872,2|2,0:2|0:2,0:0:0:0:
133,356,204030,6,0,P|260:264|255:74,1,341.999990867615,4|2,1:2|0:2,0:0:0:0:
160,231,204394,2,0,P|276:347|440:325,1,341.999990867615,4|2,1:2|0:2,0:0:0:0:
479,244,204758,5,4,3:2:0:0:
464,166,204849,1,0,3:2:0:0:
398,121,204939,1,0,3:2:0:0:
320,136,205030,1,0,3:2:0:0:
275,202,205120,1,2,1:3:0:0:
320,136,205212,1,0,3:2:0:0:
398,121,205303,1,8,0:2:0:0:
464,166,205393,1,8,0:2:0:0:
479,244,205484,5,6,1:2:0:0:
479,244,205667,1,2,0:2:0:0:
327,268,205849,1,8,0:2:0:0:
134,61,206030,5,2,1:2:0:0:
134,61,206212,1,0,1:2:0:0:
256,86,206394,1,2,1:3:0:0:
134,61,206576,1,8,0:2:0:0:
12,36,206758,1,2,0:2:0:0:
256,86,206939,5,12,1:0:0:0:
241,102,207030,1,2,0:0:0:0:
264,122,207121,1,2,0:2:0:0:
298,89,207212,1,2,0:0:0:0:
269,34,207303,1,12,1:0:0:0:
197,60,207394,1,2,0:0:0:0:
181,146,207485,1,2,0:2:0:0:
256,190,207576,1,2,0:0:0:0:
336,142,207667,5,12,1:0:0:0:
408,90,207757,1,2,3:2:0:0:
490,126,207848,1,2,3:2:0:0:
504,213,207939,1,2,3:2:0:0:
509,308,208030,1,14,1:0:0:0:
496,220,208122,1,2,3:2:0:0:
483,133,208213,1,2,3:2:0:0:
400,97,208304,1,2,3:2:0:0:
328,149,208394,1,12,1:0:0:0:
