osu file format v14

[General]
AudioFilename: audio.MP3
AudioLeadIn: 0
PreviewTime: 126921
Countdown: 0
SampleSet: Soft
StackLeniency: 0.5
Mode: 0
LetterboxInBreaks: 1
WidescreenStoryboard: 1

[Editor]
Bookmarks: 4118,23318,38678,54038,69398,74918,77078,84758,92128,106041,126910,133867,140823,147295,158931,170568,182204,193841,199659,205477
DistanceSpacing: 0.8
BeatDivisor: 8
GridSize: 8
TimelineZoom: 1.5

[Metadata]
Title:Pi Li Pa La
TitleUnicode:劈哩啪啦
Artist:Machi DiDi
ArtistUnicode:麻吉弟弟
Creator:Aranel
Version:Normal
Source:
Tags:Fsjallink Len Fast YokesPai pw384 384059043 1103 Down chinese hiphop hip hop hip-hop rap OH My Andrew Chow Chou zhou li ming ma chi di di 麻吉 弟弟 周立铭 周立銘
BeatmapID:3766008
BeatmapSetID:1713947

[Difficulty]
HPDrainRate:3
CircleSize:4.2
OverallDifficulty:5
ApproachRate:5.5
SliderMultiplier:1.3
SliderTickRate:1

[Events]
//Background and Video events
0,0,"machi.jpg",0,0
//Break Periods
2,84966,89272
2,141031,144724
//Storyboard Layer 0 (Background)
//Storyboard Layer 1 (Fail)
//Storyboard Layer 2 (Pass)
//Storyboard Layer 3 (Foreground)
//Storyboard Layer 4 (Overlay)
//Storyboard Sound Samples

[TimingPoints]
286,480,4,2,1,60,1,0
7966,-100,4,2,1,60,0,0
8446,-100,4,2,1,60,0,0
11806,-100,4,2,1,60,0,0
12286,-100,4,2,1,60,0,0
14206,-100,4,2,1,60,0,0
14446,-100,4,2,1,60,0,0
15166,-100,4,2,1,60,0,0
15406,-100,4,2,1,60,0,0
23086,-100,4,2,2,60,0,0
23146,-100,4,2,2,5,0,0
23206,-100,4,2,2,60,0,0
23326,-100,4,2,1,65,0,0
23926,-100,4,2,1,5,0,0
24046,-100,4,2,1,65,0,0
30766,-100,4,2,2,65,0,0
31006,-100,4,2,1,65,0,0
36766,-100,4,2,1,65,0,1
38686,-100,4,2,1,65,0,0
40126,-100,4,2,1,65,0,0
40606,-100,4,2,1,65,0,0
40726,-100,4,2,1,5,0,0
40846,-100,4,2,1,65,0,0
42526,-100,4,2,1,65,0,0
43486,-100,4,2,1,65,0,0
43966,-100,4,2,1,65,0,0
44086,-100,4,2,1,5,0,0
44206,-100,4,2,1,65,0,0
44446,-100,4,2,1,65,0,0
46366,-100,4,2,1,65,0,0
46486,-100,4,2,1,5,0,0
46606,-100,4,2,1,65,0,0
47326,-100,4,2,1,65,0,0
47806,-100,4,2,1,65,0,0
52126,-100,4,2,1,65,0,1
54046,-100,4,2,1,65,0,0
55486,-100,4,2,1,65,0,0
55966,-100,4,2,1,65,0,0
60286,-100,4,2,1,65,0,0
60766,-100,4,2,1,65,0,0
61246,-100,4,2,1,65,0,0
61426,-100,4,2,1,5,0,0
61486,-100,4,2,2,65,0,0
61726,-100,4,2,1,65,0,1
62206,-100,4,2,1,65,0,1
62386,-100,4,2,1,5,0,1
62446,-100,4,2,1,65,0,0
62866,-100,4,2,1,5,0,0
62926,-100,4,2,1,65,0,1
63586,-100,4,2,1,5,0,0
63646,-100,4,2,1,65,0,0
67486,-100,4,2,1,65,0,0
68686,-100,4,2,1,65,0,0
68866,-100,4,2,1,5,0,0
68926,-100,4,2,1,65,0,0
69166,-100,4,2,1,65,0,0
69406,-100,4,2,1,75,0,1
70486,-100,4,2,1,5,0,1
70606,-100,4,2,1,75,0,1
76846,-100,4,2,2,75,0,1
77086,-100,4,2,1,75,0,1
78166,-100,4,2,1,5,0,1
78286,-100,4,2,1,75,0,1
82846,-100,4,2,1,75,0,0
84286,-100,4,2,2,75,0,1
84406,-100,4,2,1,75,0,1
84706,-100,4,2,1,5,0,1
84766,-100,4,2,1,75,0,0
85726,-100,4,2,1,5,0,0
88606,447.761194029851,4,2,1,70,1,0
90397,434.782608695652,4,2,1,60,1,1
91511,-100,4,2,1,40,0,1
92136,-100,4,2,1,65,0,0
95614,-100,4,2,1,65,0,0
95831,-100,4,2,1,65,0,0
98875,-100,4,2,2,65,0,0
99092,-100,4,2,1,65,0,0
102570,-100,4,2,1,65,0,0
102787,-100,4,2,1,65,0,0
104310,-100,4,2,1,65,0,1
105424,-100,4,2,1,40,0,1
106049,-100,4,2,1,65,0,0
109527,-100,4,2,1,65,0,0
109962,-100,4,2,1,65,0,0
111266,-100,4,2,1,65,0,0
112788,-100,4,2,2,65,0,0
113005,-100,4,2,1,65,0,0
113440,-100,4,2,1,65,0,0
117516,-100,4,2,1,5,0,0
117570,-100,4,2,1,65,0,0
117733,-100,4,2,1,5,0,0
117787,-100,4,2,1,65,0,0
117951,-100,4,2,1,5,0,0
118005,-100,4,2,1,65,0,0
118168,-100,4,2,1,5,0,0
118222,-100,4,2,1,65,0,0
119962,-100,4,2,1,65,0,0
120396,-100,4,2,1,65,0,0
122136,-100,4,2,1,65,0,0
122570,-100,4,2,1,65,0,0
122788,-100,4,2,1,65,0,0
123005,-100,4,2,1,65,0,0
123440,-100,4,2,1,65,0,0
123875,-100,4,2,1,65,0,0
125179,-100,4,2,1,65,0,1
126375,-100,4,2,1,40,0,0
126918,-100,4,2,1,75,0,1
127896,-100,4,2,1,5,0,1
128005,-100,4,2,1,75,0,1
133657,-100,4,2,2,75,0,1
133874,-100,4,2,1,75,0,1
134853,-100,4,2,1,5,0,1
134962,-100,4,2,1,75,0,1
140831,-100,4,2,1,75,0,0
141701,-100,4,2,1,5,0,0
144310,394.736842105263,4,2,1,70,1,0
145099,375,4,2,1,70,1,0
145849,363.636363636364,4,2,1,70,1,1
147303,-100,4,2,1,70,0,0
149303,-100,4,2,1,70,0,0
152939,-100,4,2,2,70,0,0
153121,-100,4,2,1,70,0,0
157485,-100,4,2,1,60,0,0
158758,-100,4,2,2,60,0,0
158939,-100,4,2,1,70,0,0
161849,-100,4,2,1,70,0,0
162212,-100,4,2,1,70,0,0
162576,-100,4,2,1,70,0,0
162939,-100,4,2,1,70,0,0
163667,-100,4,2,1,70,0,0
164030,-100,4,2,1,70,0,0
164394,-100,4,2,1,70,0,0
164576,-100,4,2,2,70,0,0
164758,-100,4,2,1,70,0,0
165121,-100,4,2,1,70,0,0
169121,-100,4,2,1,60,0,0
170394,-100,4,2,2,60,0,0
170576,-100,4,2,1,70,0,0
171667,-111.111111111111,4,2,1,70,0,0
172030,-100,4,2,1,70,0,0
172939,-100,4,2,1,70,0,0
173485,-90.9090909090909,4,2,1,70,0,1
173849,-100,4,2,1,70,0,1
174212,-100,4,2,1,70,0,1
174485,-100,4,2,1,70,0,1
174939,-100,4,2,1,70,0,0
176212,-100,4,2,2,70,0,0
176394,-100,4,2,1,70,0,0
178758,-100,4,2,1,70,0,0
179030,-100,4,2,1,70,0,0
180758,-100,4,2,1,60,0,0
182030,-100,4,2,2,60,0,0
182212,-100,4,2,1,70,0,0
183667,-100,4,2,1,70,0,0
188030,-100,4,2,1,70,0,1
188212,-100,4,2,1,70,0,0
188758,-100,4,2,1,70,0,0
188940,-100,4,2,1,70,0,0
190485,-100,4,2,1,70,0,0
190939,-100,4,2,1,70,0,1
191121,-90.9090909090909,4,2,1,70,0,1
191394,-100,4,2,1,70,0,0
193849,-100,4,2,1,70,0,1
194667,-100,4,2,1,5,0,1
194758,-100,4,2,1,70,0,1
199485,-100,4,2,2,75,0,1
199667,-100,4,2,1,75,0,1
200485,-100,4,2,1,5,0,1
200576,-100,4,2,1,70,0,1
205485,-100,4,2,1,75,0,0
206939,-83.3333333333333,4,2,2,75,0,1
208394,-100,4,2,2,75,0,0
208439,-100,4,2,2,75,0,0
209849,-100,4,2,2,5,0,0

[Colours]
Combo1 : 129,129,192
Combo2 : 151,47,255
Combo3 : 128,128,255
Combo4 : 150,143,182

[HitObjects]
59,52,7966,6,0,B|122:41|132:82|192:72,1,130,6|8,1:2|0:2,0:0:0:0:
235,88,8686,1,2,1:2:0:0:
332,47,9166,1,2,1:3:0:0:
332,47,9406,1,8,0:0:0:0:
425,93,9886,2,0,P|412:163|419:238,1,130,2|8,1:2|0:2,0:0:0:0:
439,273,10606,1,2,1:2:0:0:
439,273,10846,2,0,P|415:303|371:312,1,65,2|2,3:2|3:3,0:0:0:0:
354,349,11326,1,8,3:2:0:0:
264,295,11806,6,0,B|190:308|190:308|183:318|183:318|135:328,1,130,6|8,1:2|0:2,0:0:0:0:
90,339,12526,1,2,1:2:0:0:
105,239,13006,1,2,1:3:0:0:
105,239,13246,2,0,P|108:173|68:113,1,130,8|0,0:0|3:2,0:0:0:0:
76,119,14686,1,2,3:2:0:0:
76,119,14926,1,0,3:0:0:0:
76,119,15166,2,2,P|113:105|151:100,1,65,2|8,1:3|0:2,0:1:0:0:
185,79,15646,6,0,P|251:107|245:175,1,130,6|8,1:2|0:2,0:0:0:0:
213,185,16366,1,2,1:2:0:0:
213,185,16606,2,0,L|205:260,1,65,2|2,0:2|1:3,0:0:0:0:
170,286,17086,1,8,0:0:0:0:
251,350,17566,2,0,B|316:365|316:365|377:315,1,130,2|8,1:2|0:2,0:0:0:0:
417,323,18286,1,2,1:2:0:0:
403,224,18766,1,4,1:2:0:0:
403,224,19006,1,8,0:2:0:0:
487,164,19486,6,0,P|451:118|364:131,1,130,6|8,1:2|0:2,0:0:0:0:
339,141,20206,1,2,1:2:0:0:
339,141,20446,2,0,P|295:146|264:125,1,65,2|2,0:2|1:3,0:0:0:0:
233,109,20926,1,8,0:0:0:0:
150,44,21406,2,0,P|50:102|63:253,1,260,2|2,1:2|1:2,0:0:0:0:
46,338,22846,2,0,L|128:353,1,65,2|10,1:2|3:3,0:0:0:0:
159,341,23326,6,0,B|232:330|227:369|308:357,1,130,6|8,1:2|0:2,0:0:0:0:
332,335,24046,2,0,P|335:303|345:269,2,65,2|2|0,1:3|0:2|1:0,0:0:0:0:
370,370,24766,1,8,0:0:0:0:
463,325,25246,6,0,P|458:272|432:191,1,130,2|10,1:2|0:2,0:0:0:0:
399,168,25966,1,2,1:2:0:0:
399,168,26206,2,0,P|408:129|404:86,1,65,2|6,1:2|1:2,0:0:0:0:
372,65,26686,1,8,0:2:0:0:
278,18,27166,6,0,P|230:52|231:140,1,130,6|8,1:2|0:2,0:0:0:0:
199,168,27886,1,2,1:2:0:0:
199,168,28126,2,0,P|203:208|178:247,1,65,2|2,0:2|1:3,0:0:0:0:
202,281,28606,1,8,0:0:0:0:
122,346,29086,6,0,P|62:322|53:241,1,130,0|8,1:2|0:2,0:0:0:0:
18,224,29806,1,2,1:2:0:0:
18,224,30046,2,0,L|7:141,1,65,0|2,3:2|1:2,0:0:0:0:
41,118,30526,2,0,L|51:35,1,65,8|10,3:2|3:3,0:0:0:0:
94,28,31006,5,6,1:2:0:0:
180,86,31486,2,0,L|254:73,1,65,8|2,0:2|1:3,0:0:0:0:
283,40,31966,2,0,B|356:50|337:81|426:90,1,130,2|8,0:2|0:0,0:0:0:0:
454,69,32686,1,2,0:2:0:0:
454,69,32926,1,0,1:2:0:0:
500,162,33406,2,0,L|491:238,1,65,8|2,0:2|1:2,0:0:0:0:
462,269,33886,2,0,L|471:345,1,65,2|6,1:2|1:2,0:0:0:0:
445,379,34366,1,8,0:2:0:0:
353,329,34846,6,0,B|297:312|283:361|213:349,1,130,6|8,1:2|0:2,0:0:0:0:
190,321,35566,1,2,1:2:0:0:
190,321,35806,2,0,P|204:262|216:176,1,130,2|10,0:2|0:0,0:0:0:0:
283,122,36766,5,6,1:2:0:0:
254,21,37246,1,6,1:2:0:0:
151,40,37726,2,0,P|118:56|96:87,1,65,6|2,3:2|3:2,0:0:0:0:
52,98,38206,2,0,P|39:132|46:170,1,65,6|10,1:2|0:2,0:0:0:0:
13,203,38686,5,6,1:2:0:0:
63,293,39166,1,10,0:2:0:0:
63,293,39406,2,0,P|126:323|184:361,1,130,2|2,1:3|1:2,0:0:0:0:
223,377,40126,1,10,0:2:0:0:
293,300,40606,1,2,1:2:0:0:
392,329,41086,1,10,0:2:0:0:
392,329,41326,2,0,P|415:268|444:211,1,130,2|6,1:2|1:2,0:0:0:0:
476,169,42046,1,10,0:2:0:0:
434,73,42526,6,0,P|392:72|352:70,1,65,6|2,1:2|0:2,0:0:0:0:
326,50,43006,1,10,0:2:0:0:
326,50,43246,2,0,B|256:57|270:88|203:95,1,130,2|2,1:2|1:3,0:0:0:0:
158,120,43966,1,10,0:0:0:0:
65,72,44446,1,0,1:2:0:0:
12,161,44926,2,0,P|25:191|37:220,1,65,10|0,0:2|1:2,0:0:0:0:
62,266,45406,1,0,3:2:0:0:
154,313,45886,2,0,P|166:283|179:253,1,65,10|2,3:2|3:2,0:0:0:0:
226,232,46366,6,0,P|198:173|256:109,1,130,6|8,1:2|0:2,0:0:0:0:
251,76,47086,1,2,1:3:0:0:
251,76,47326,2,0,B|319:87|310:45|376:56,1,130,2|8,0:2|0:0,0:0:0:0:
462,114,48286,6,0,P|453:163|449:204,1,65,0|2,1:2|0:3,0:0:0:0:
446,230,48766,1,8,0:2:0:0:
494,319,49246,2,0,B|434:301|427:345|368:334,1,130,2|8,1:2|0:2,0:0:0:0:
326,361,49966,1,2,0:2:0:0:
326,361,50206,6,0,P|295:349|263:344,1,65,6|2,1:2|0:2,0:0:0:0:
213,359,50686,1,8,0:2:0:0:
120,310,51166,2,0,P|69:272|75:196,1,130,2|8,0:2|0:0,0:0:0:0:
56,163,51886,1,2,0:2:0:0:
56,163,52126,5,4,1:2:0:0:
20,65,52606,1,12,0:2:0:0:
119,34,53086,1,4,3:2:0:0:
155,130,53566,2,0,P|188:135|222:146,1,65,14|8,1:2|3:2,0:0:0:0:
266,167,54046,6,0,B|328:146|338:192|404:181,1,130,6|8,1:2|0:2,0:0:0:0:
445,168,54766,1,2,1:3:0:0:
445,168,55006,1,2,0:2:0:0:
504,253,55486,1,10,0:0:0:0:
433,329,55966,6,0,P|390:335|344:348,1,65,2|2,1:2|0:2,0:0:0:0:
325,369,56446,2,0,P|293:361|267:331,1,65,8|0,0:2|1:2,0:0:0:0:
224,316,56926,2,0,B|239:266|204:247|221:185,1,130,2|10,1:2|0:2,0:0:0:0:
263,93,57886,6,0,P|216:49|153:51,1,130,6|8,1:2|0:2,0:0:0:0:
104,54,58606,1,2,1:2:0:0:
104,54,58846,2,0,P|85:81|73:132,1,65,2|2,0:2|1:3,0:0:0:0:
35,145,59326,1,8,0:0:0:0:
98,227,59806,6,0,P|114:290|126:358,1,130,0|10,1:2|0:2,0:0:0:0:
173,383,60526,1,2,1:2:0:0:
173,383,60766,2,0,P|204:375|236:369,1,65,2|2,3:2|1:2,0:0:0:0:
289,365,61246,1,10,3:2:0:0:
338,347,61486,1,10,3:3:0:0:
383,322,61726,2,0,P|391:290|397:258,1,65,6|2,1:2|0:2,0:0:0:0:
406,210,62206,1,8,0:2:0:0:
406,210,62446,1,2,1:3:0:0:
485,142,62926,6,2,P|438:101|349:122,1,130,2|2,1:2|0:2,0:1:0:0:
321,110,63646,2,0,P|319:72|292:34,1,65,0|2,1:2|0:3,0:0:0:0:
261,23,64126,1,8,0:2:0:0:
205,111,64606,2,0,P|167:113|129:140,1,65,2|4,1:2|1:2,0:0:0:0:
118,170,65086,1,8,0:2:0:0:
24,125,65566,2,0,P|14:161|52:259,1,130,6|8,1:2|0:2,0:0:0:0:
83,285,66286,1,2,1:2:0:0:
83,285,66526,2,0,L|66:361,2,65,2|2|8,0:2|1:3|0:0,0:0:0:0:
132,268,67246,1,2,0:2:0:0:
181,251,67486,5,4,1:2:0:0:
181,251,68446,2,0,L|258:237,1,65,2|2,1:2|1:2,0:0:0:0:
296,229,68926,1,10,1:2:0:0:
381,288,69406,6,0,P|418:236|420:146,1,130,6|8,1:2|0:2,0:0:0:0:
452,126,70126,1,2,1:3:0:0:
370,61,70606,1,0,1:0:0:0:
370,61,70846,2,0,P|328:72|297:78,1,65,8|2,0:0|0:2,0:0:0:0:
259,54,71326,2,0,B|188:46|203:78|106:67,1,130,0|8,1:2|0:2,0:0:0:0:
86,92,72046,1,0,1:2:0:0:
86,92,72286,2,0,P|74:128|59:160,1,65,2|4,1:2|1:2,0:0:0:0:
21,183,72766,1,10,0:2:0:0:
91,258,73246,6,0,P|101:286|113:340,1,65,6|2,1:2|0:2,0:0:0:0:
154,346,73726,1,8,0:2:0:0:
154,346,73966,2,0,B|234:348|214:379|276:384,1,130,2|2,1:2|1:3,0:0:0:0:
320,355,74686,1,8,0:0:0:0:
320,355,74926,1,2,0:2:0:0:
257,271,75406,5,2,0:2:0:0:
257,271,75646,2,0,P|250:235|240:205,1,65,8|0,0:2|1:2,0:0:0:0:
202,173,76126,2,0,P|166:166|136:156,2,65,0|2|8,3:2|1:2|3:2,0:0:0:0:
227,128,76846,1,10,3:3:0:0:
257,85,77086,6,0,P|312:53|376:49,1,130,6|8,1:2|0:2,0:0:0:0:
427,62,77806,1,2,1:3:0:0:
470,156,78286,1,0,1:0:0:0:
470,156,78526,2,0,P|461:197|457:231,1,65,8|2,0:0|0:2,0:0:0:0:
474,269,79006,2,0,B|395:285|421:314|348:331,1,130,0|8,1:2|0:2,0:0:0:0:
316,356,79726,1,0,1:2:0:0:
316,356,79966,2,0,L|239:336,1,65,2|4,1:2|1:2,0:0:0:0:
204,322,80446,1,8,0:2:0:0:
113,373,80926,6,0,P|80:345|75:296,1,65,6|2,1:2|0:2,0:0:0:0:
42,289,81406,1,8,0:2:0:0:
42,289,81646,2,0,B|66:148,1,130,2|2,1:2|1:3,0:0:0:0:
103,126,82366,2,0,L|88:34,1,65,8|2,0:0|0:2,0:0:0:0:
50,31,82846,1,0,3:2:0:0:
50,31,83806,5,2,1:2:0:0:
119,51,84046,1,2,3:2:0:0:
188,71,84286,1,10,1:3:0:0:
322,118,84766,1,6,1:2:0:0:
275,367,90397,6,0,L|264:287,1,65,6|0,1:2|3:0,0:0:0:0:
254,252,90831,2,0,L|238:139,2,97.5,8|8|2,0:1|0:1|3:3,0:0:0:0:
388,330,92136,6,0,L|410:255,1,65,6|2,1:2|0:2,0:0:0:0:
425,219,92570,1,8,0:2:0:0:
488,136,93005,2,0,P|458:106|425:88,1,65,2|2,0:2|1:2,0:0:0:0:
402,57,93439,1,8,0:0:0:0:
306,13,93875,2,0,B|238:24|245:53|176:64,1,130,0|8,1:2|0:2,0:0:0:0:
145,92,94527,1,2,0:2:0:0:
145,92,94744,2,0,P|106:83|64:80,1,65,2|0,1:2|1:2,0:0:0:0:
36,53,95179,1,8,0:2:0:0:
4,151,95614,6,0,P|11:185|16:227,1,65,6|2,1:2|0:2,0:0:0:0:
50,252,96049,2,0,P|35:316|28:380,2,130,8|2|8,0:2|0:2|0:0,0:0:0:0:
123,178,97353,2,0,B|191:189|184:218|253:229,1,130,0|8,1:2|0:2,0:0:0:0:
290,258,98005,1,2,0:2:0:0:
290,258,98223,2,0,P|321:232|364:233,1,65,0|2,3:2|3:2,0:0:0:0:
389,203,98657,1,8,3:2:0:0:
469,268,99092,6,0,L|455:341,1,65,6|2,1:2|0:2,0:0:0:0:
427,374,99527,1,8,0:2:0:0:
340,314,99962,2,0,B|289:325|289:325|268:346|268:346|204:360,1,130,2|8,0:2|0:0,0:0:0:0:
173,369,100614,1,2,0:2:0:0:
173,369,100831,2,0,P|137:359|116:326,1,65,0|2,1:2|0:3,0:0:0:0:
75,311,101266,1,8,0:2:0:0:
14,226,101701,2,0,L|27:142,1,65,2|0,1:2|1:2,0:0:0:0:
38,111,102136,1,8,0:2:0:0:
110,36,102570,6,0,B|163:31|163:31|185:40|185:40|244:30,1,130,6|8,1:2|0:2,0:0:0:0:
291,21,103223,1,2,1:2:0:0:
291,21,103440,2,0,P|307:49|305:89,1,65,2|2,0:2|1:3,0:0:0:0:
277,124,103875,1,8,0:0:0:0:
214,207,104310,6,0,L|294:218,1,65,6|0,1:2|3:0,0:0:0:0:
329,228,104744,2,0,L|442:244,2,97.5,8|8|2,0:1|0:1|3:3,0:0:0:0:
207,326,106049,6,0,L|130:340,1,65,6|2,1:2|0:2,0:0:0:0:
92,350,106483,1,8,0:2:0:0:
23,272,106918,2,0,L|9:195,1,65,2|0,0:2|1:0,0:0:0:0:
45,168,107353,2,0,L|59:91,1,65,8|2,0:0|0:2,0:0:0:0:
96,70,107788,1,0,1:2:0:0:
183,14,108223,2,0,L|204:156,1,130,8|2,0:2|1:2,0:0:0:0:
219,196,108875,1,4,1:2:0:0:
219,196,109092,1,8,0:2:0:0:
301,259,109527,6,0,B|379:246|350:225|422:215,1,130,6|8,1:2|0:2,0:0:0:0:
460,180,110179,1,2,1:2:0:0:
460,180,110397,2,0,P|475:138|465:99,1,65,2|2,0:2|1:3,0:0:0:0:
435,82,110831,1,8,0:0:0:0:
346,26,111266,2,0,L|263:44,1,65,0|2,1:2|1:2,0:0:0:0:
231,50,111701,1,8,0:2:0:0:
152,117,112136,2,0,P|112:107|69:99,1,65,0|2,3:2|1:2,0:0:0:0:
42,127,112570,2,0,P|48:158|53:190,1,65,8|10,3:2|3:3,0:0:0:0:
89,229,113005,6,0,P|69:283|110:360,1,130,6|8,1:2|0:2,0:0:0:0:
140,371,113657,1,2,1:3:0:0:
140,371,113875,1,2,0:2:0:0:
205,290,114310,1,8,0:0:0:0:
301,328,114744,2,0,B|356:313|376:357|433:334,1,130,0|8,1:2|0:2,0:0:0:0:
471,304,115397,1,2,0:2:0:0:
471,304,115614,2,0,P|462:266|456:228,1,65,2|6,1:2|1:2,0:0:0:0:
482,194,116049,1,8,0:2:0:0:
404,125,116483,6,0,P|365:73|290:69,1,130,6|8,1:2|0:2,0:0:0:0:
259,47,117136,1,2,1:2:0:0:
259,47,117353,2,0,P|251:86|240:123,1,65,2|2,0:2|1:3,0:0:0:0:
219,155,117788,1,8,0:0:0:0:
122,116,118223,1,4,1:2:0:0:
42,194,118657,1,4,1:2:0:0:
92,284,119092,1,4,3:2:0:0:
194,264,119527,2,0,P|227:272|266:286,1,65,2|8,1:3|0:2,0:0:0:0:
286,324,119962,6,0,B|347:332|344:369|403:375,1,130,6|8,1:2|0:2,0:0:0:0:
453,356,120614,1,2,1:3:0:0:
453,355,120831,2,0,P|473:331|477:299,1,65,2|0,0:2|1:0,0:0:0:0:
502,253,121266,1,8,0:0:0:0:
420,187,121701,2,0,P|413:152|404:113,1,65,0|2,1:2|0:3,0:0:0:0:
357,107,122136,2,0,P|333:129|308:150,1,65,8|2,0:2|0:2,0:0:0:0:
262,173,122570,2,0,P|255:138|246:99,1,65,2|6,1:2|1:2,0:0:0:0:
199,93,123005,1,8,0:2:0:0:
97,114,123440,6,0,P|100:50|48:14,2,130,6|8|2,1:2|0:2|0:2,0:0:0:0:
55,144,124527,1,2,1:3:0:0:
55,144,124744,1,8,0:0:0:0:
104,235,125179,6,0,L|184:246,1,65,6|0,3:2|3:0,0:0:0:0:
219,252,125614,2,0,L|299:263,1,65,8|8,0:1|0:1,0:0:0:0:
338,273,126049,1,0,3:0:0:0:
338,273,126266,1,2,3:3:0:0:
417,205,126701,5,0,1:3:0:0:
417,205,126918,2,0,P|454:257|431:342,1,130,6|8,1:2|0:2,0:0:0:0:
411,358,127570,1,2,1:3:0:0:
309,382,128005,1,0,1:0:0:0:
309,382,128223,2,0,P|267:371|236:365,1,65,8|2,0:0|0:2,0:0:0:0:
213,326,128657,2,0,B|159:331|159:331|154:339|154:339|62:350,1,130,0|8,1:2|0:2,0:0:0:0:
50,318,129310,1,0,1:2:0:0:
50,318,129527,2,0,P|24:287|23:250,1,65,2|4,1:2|1:2,0:0:0:0:
35,213,129962,1,10,0:2:0:0:
116,148,130396,6,0,P|126:120|138:66,1,65,6|2,1:2|0:2,0:0:0:0:
183,63,130831,1,8,0:2:0:0:
183,63,131049,2,0,B|263:65|243:96|305:101,1,130,2|2,1:2|1:3,0:0:0:0:
356,83,131701,1,8,0:0:0:0:
356,83,131918,1,2,0:2:0:0:
441,150,132353,5,2,0:2:0:0:
441,150,132570,2,0,P|448:186|458:216,1,65,8|0,0:2|1:2,0:0:0:0:
448,264,133005,2,0,P|484:271|514:281,2,65,0|2|8,3:2|1:2|3:2,0:0:0:0:
398,281,133657,1,10,3:3:0:0:
357,313,133875,6,0,P|299:295|235:252,1,130,6|8,1:2|0:2,0:0:0:0:
214,212,134527,1,2,1:3:0:0:
261,121,134962,1,0,1:0:0:0:
261,121,135180,2,0,P|251:78|246:47,1,65,8|2,0:0|0:2,0:0:0:0:
210,21,135614,2,0,P|150:6|99:78,1,130,0|8,1:2|0:2,0:0:0:0:
67,86,136267,1,0,1:2:0:0:
67,86,136484,2,0,P|65:124|60:160,1,65,2|4,1:2|1:2,0:0:0:0:
24,186,136919,1,10,0:2:0:0:
92,263,137353,6,0,P|102:291|114:345,1,65,6|2,1:2|0:2,0:0:0:0:
163,346,137788,1,8,0:2:0:0:
163,346,138006,2,0,B|243:348|223:379|285:384,1,130,2|2,1:2|1:3,0:0:0:0:
332,363,138657,2,0,P|339:331|347:278,1,65,8|2,0:0|0:2,0:0:0:0:
386,268,139092,5,4,1:2:0:0:
364,153,139527,1,4,1:2:0:0:
342,38,139962,2,0,P|384:47|416:63,2,65,4|8|14,3:2|0:2|0:2,0:0:0:0:
270,30,140614,1,8,0:2:0:0:
199,20,140831,1,6,1:2:0:0:
256,192,145849,12,6,147303,1:2:0:0:
84,46,148030,6,0,P|75:130|58:200,1,130,2|8,0:2|0:0,0:0:0:0:
46,225,148576,1,2,0:2:0:0:
46,225,148758,1,0,1:2:0:0:
67,326,149121,1,8,0:2:0:0:
168,304,149485,2,0,B|243:313|221:349|313:363,1,130,2|8,1:2|0:2,0:0:0:0:
339,368,150030,1,2,0:2:0:0:
339,368,150212,6,0,P|397:348|410:264,1,130,6|8,1:2|0:2,0:0:0:0:
476,201,150939,2,0,P|472:157|394:103,1,130,2|8,0:2|0:0,0:0:0:0:
327,39,151667,2,0,P|291:49|256:51,1,65,0|2,1:2|0:2,0:0:0:0:
212,40,152030,1,8,0:2:0:0:
167,134,152394,2,0,P|131:120|102:101,1,65,0|2,3:2|1:2,0:0:0:0:
73,67,152757,1,8,3:2:0:0:
12,151,153121,6,0,B|29:234|42:199|59:281,1,130,6|8,1:2|0:2,0:0:0:0:
52,327,153667,1,2,1:3:0:0:
52,327,153849,1,2,0:2:0:0:
154,341,154212,1,8,0:0:0:0:
167,236,154576,2,0,P|223:199|280:231,1,130,0|8,1:2|0:2,0:0:0:0:
311,266,155121,1,0,1:2:0:0:
311,266,155303,2,0,P|303:304|298:346,1,65,2|4,1:2|1:2,0:0:0:0:
324,376,155666,1,8,0:2:0:0:
426,355,156030,6,0,P|434:290|448:227,1,130,6|8,1:2|0:2,0:0:0:0:
486,191,156576,1,2,1:2:0:0:
486,191,156758,2,0,P|492:133|426:89,1,130,2|8,0:2|0:0,0:0:0:0:
337,107,157485,1,2,1:2:0:0:
337,107,158212,2,0,B|251:103|296:78|186:72,1,130,2|0,3:2|3:3,0:0:0:0:
132,7,158939,6,0,P|106:64|127:124,1,130,6|8,1:2|0:2,0:0:0:0:
164,168,159485,1,2,1:3:0:0:
164,168,159667,1,2,0:2:0:0:
238,240,160030,1,10,0:0:0:0:
173,321,160394,2,0,P|91:315|31:311,1,130,0|8,1:2|0:2,0:0:0:0:
18,265,160939,2,0,P|47:188|69:132,1,130,0|4,1:2|1:2,0:0:0:0:
53,92,161485,1,8,0:2:0:0:
143,40,161849,6,0,B|197:21|216:60|278:30,1,130,6|10,1:2|0:2,0:0:0:0:
321,21,162394,1,2,1:2:0:0:
321,21,162576,1,2,0:2:0:0:
402,84,162939,1,10,0:2:0:0:
499,46,163303,2,0,P|506:119|464:161,1,130,2|10,1:2|0:2,0:0:0:0:
421,173,163848,1,2,1:2:0:0:
421,173,164030,2,0,P|423:210|411:262,1,65,2|2,3:2|1:2,0:0:0:0:
438,285,164393,1,10,3:2:0:0:
365,360,164758,6,0,B|300:379|304:338|237:351,1,130,6|8,1:2|0:2,0:0:0:0:
191,339,165303,1,2,1:3:0:0:
191,339,165485,1,2,0:2:0:0:
95,380,165849,1,8,0:0:0:0:
27,300,166212,2,0,B|39:227|46:264|61:175,1,130,0|8,1:2|0:2,0:0:0:0:
33,131,166758,1,0,1:2:0:0:
109,60,167121,1,4,1:2:0:0:
109,60,167303,1,8,0:2:0:0:
204,100,167667,6,0,B|216:173|223:136|238:224,1,130,6|8,1:2|0:2,0:0:0:0:
283,259,168212,1,2,1:2:0:0:
283,259,168394,2,0,B|332:271|332:271|352:295|352:295|402:309,1,130,2|8,0:2|0:0,0:0:0:0:
489,256,169121,1,2,1:2:0:0:
489,256,169848,2,0,P|513:191|494:132,1,130,2|0,3:2|3:3,0:0:0:0:
420,70,170576,5,6,1:2:0:0:
420,70,170758,2,0,B|350:81|377:111|290:124,1,130,2|2,0:2|1:3,0:0:0:0:
256,146,171303,2,0,P|223:135|184:128,1,65,2|2,0:2|1:2,0:0:0:0:
150,101,171667,2,0,P|112:127|106:199,1,116.999996429443,8|0,0:0|1:2,0:0:0:0:
45,280,172394,2,0,L|59:348,1,65,8|0,0:2|1:2,0:0:0:0:
105,376,172758,1,2,1:2:0:0:
105,376,172939,2,0,L|173:362,1,65,4|8,1:2|0:2,0:0:0:0:
244,290,173485,6,2,B|250:223|250:223|255:228|255:228|261:156,2,143.000004364014,6|8|2,1:2|0:2|0:2,0:1:0:0:
273,332,174394,1,2,1:3:0:0:
306,371,174576,1,8,0:0:0:0:
404,338,174939,2,0,P|455:321|459:231,1,130,0|8,1:2|0:2,0:0:0:0:
437,219,175485,1,0,1:2:0:0:
437,219,175667,2,0,B|431:155|431:155|427:159|427:159|421:99,1,130,0|8,3:2|3:2,0:0:0:0:
339,33,176394,6,0,B|277:16|272:65|212:49,1,130,6|8,1:2|0:2,0:0:0:0:
177,19,176939,1,2,1:3:0:0:
177,19,177121,2,0,P|114:17|72:64,1,130,2|8,0:2|0:0,0:0:0:0:
9,147,177849,2,0,P|24:211|33:294,1,130,0|8,1:2|0:2,0:0:0:0:
73,313,178394,1,0,1:2:0:0:
73,313,178576,2,0,P|108:307|147:305,1,65,2|6,1:2|1:2,0:0:0:0:
179,274,178939,1,8,0:2:0:0:
271,322,179303,6,0,P|279:257|293:194,1,130,6|8,1:2|0:2,0:0:0:0:
276,150,179849,1,2,1:2:0:0:
276,150,180030,2,0,P|320:99|389:118,1,130,2|8,0:2|0:0,0:0:0:0:
443,188,180758,1,2,1:2:0:0:
443,188,181485,2,0,P|457:251|465:315,1,130,0|0,3:3|3:3,0:0:0:0:
379,373,182212,6,0,B|307:366|326:344|255:335,1,130,6|8,1:2|0:2,0:0:0:0:
218,306,182758,1,2,1:3:0:0:
218,306,182939,2,0,P|154:317|89:324,1,130,2|8,0:2|0:0,0:0:0:0:
32,237,183667,2,0,P|46:203|64:167,1,65,0|2,1:2|0:3,0:0:0:0:
91,137,184030,1,8,0:2:0:0:
51,40,184394,2,0,P|87:33|127:30,1,65,2|4,1:2|1:2,0:0:0:0:
167,37,184757,1,8,0:2:0:0:
250,98,185121,6,0,B|320:89|323:122|385:109,1,130,6|8,1:2|0:2,0:0:0:0:
425,87,185667,1,2,1:2:0:0:
425,87,185849,2,0,P|479:128|475:189,1,130,2|8,0:2|0:0,0:0:0:0:
503,285,186576,2,0,P|433:291|369:310,1,130,0|8,1:2|0:2,0:0:0:0:
335,339,187122,1,0,1:2:0:0:
335,339,187304,2,0,P|326:274|306:200,1,130,0|8,3:2|3:2,0:0:0:0:
222,155,188030,6,0,P|164:168|147:231,1,130,6|8,1:2|0:2,0:0:0:0:
187,270,188576,1,2,1:3:0:0:
187,270,188758,1,2,0:2:0:0:
144,364,189121,1,8,0:0:0:0:
42,342,189485,2,0,P|33:277|19:214,1,130,0|8,1:2|0:2,0:0:0:0:
7,167,190031,1,0,1:2:0:0:
7,167,190212,2,0,P|18:136|25:102,1,65,2|4,1:2|1:2,0:0:0:0:
38,54,190576,1,8,0:2:0:0:
134,14,190939,5,6,1:0:0:0:
134,14,191121,2,2,B|209:26|192:66|268:81,1,143.000004364014,2|2,0:3|1:2,0:1:0:0:
305,103,191667,2,0,P|340:91|388:82,1,65,2|2,1:2|1:3,0:0:0:0:
418,78,192030,1,8,0:0:0:0:
479,161,192394,2,0,P|468:219|443:294,1,130,6|14,1:2|0:2,0:0:0:0:
415,328,192939,2,0,P|464:339|523:357,2,97.5,10|10|14,0:2|3:2|3:2,0:0:0:0:
370,311,193667,5,10,3:2:0:0:
370,311,193849,2,0,B|303:321|329:361|241:377,1,130,6|8,1:2|0:2,0:0:0:0:
206,378,194394,1,2,1:3:0:0:
114,335,194758,1,2,1:2:0:0:
114,335,194939,2,0,P|104:294|92:264,1,65,8|2,0:0|0:2,0:0:0:0:
52,243,195303,2,0,B|72:88,1,130,0|8,1:2|0:2,0:0:0:0:
113,85,195849,1,0,1:2:0:0:
113,85,196030,2,0,P|149:96|167:130,1,65,2|4,1:2|1:2,0:0:0:0:
185,165,196394,1,8,0:2:0:0:
278,120,196758,6,0,P|285:88|296:57,1,65,6|2,1:2|0:2,0:0:0:0:
349,44,197121,1,8,0:2:0:0:
349,44,197303,2,0,B|409:60|409:60|415:79|415:79|482:100,1,130,2|2,1:2|1:3,0:0:0:0:
503,131,197849,1,8,0:0:0:0:
503,131,198030,1,2,0:2:0:0:
424,199,198394,5,2,0:2:0:0:
424,199,198576,2,0,P|434:229|442:261,1,65,8|0,0:2|1:2,0:0:0:0:
432,312,198939,2,0,P|468:319|498:329,2,65,0|2|8,3:2|1:2|3:2,0:0:0:0:
384,333,199485,1,10,3:3:0:0:
338,358,199667,6,0,P|289:345|260:259,1,130,6|8,1:2|0:2,0:0:0:0:
222,238,200212,1,2,1:3:0:0:
304,173,200576,1,0,1:0:0:0:
304,173,200757,2,0,P|296:142|289:110,1,65,8|2,0:0|0:2,0:0:0:0:
251,73,201121,2,0,B|199:37|199:37|133:64,1,130,0|8,1:2|0:2,0:0:0:0:
87,78,201667,1,0,1:2:0:0:
87,78,201848,2,0,P|71:108|74:151,1,65,2|4,1:2|1:2,0:0:0:0:
46,185,202212,1,8,0:2:0:0:
119,258,202576,6,0,P|129:286|141:340,1,65,6|2,1:2|0:2,0:0:0:0:
192,329,202939,1,8,0:2:0:0:
192,329,203121,2,0,B|272:331|252:362|314:367,1,130,2|2,1:2|1:3,0:0:0:0:
364,381,203667,2,0,P|390:364|404:319,1,65,8|2,0:0|0:2,0:0:0:0:
446,303,204030,1,4,1:2:0:0:
427,200,204394,1,4,1:2:0:0:
408,97,204758,2,0,P|439:75|466:47,2,65,4|0|2,3:2|3:2|1:3,0:0:0:0:
361,87,205303,1,8,0:2:0:0:
361,87,205485,6,0,B|290:78|305:113|233:105,1,130,6|8,1:2|0:2,0:0:0:0:
189,131,206030,1,2,1:2:0:0:
98,88,206394,1,2,1:3:0:0:
98,88,206576,1,8,0:2:0:0:
29,172,206939,6,0,P|48:247|61:324,3,155.999995239258,12|12|12|14,1:0|1:0|1:0|1:0,0:0:0:0:
149,379,208394,1,12,1:0:0:0:
