osu file format v14

[General]
AudioFilename: audio.MP3
AudioLeadIn: 0
PreviewTime: 126921
Countdown: 0
SampleSet: Soft
StackLeniency: 0.7
Mode: 0
LetterboxInBreaks: 1
WidescreenStoryboard: 1

[Editor]
Bookmarks: 4118,23318,38678,54038,69398,77078,84758,92128,106041,126910,133867,140823,147295,158931,170568,182204,188750,193841,199659,205477
DistanceSpacing: 0.7
BeatDivisor: 8
GridSize: 8
TimelineZoom: 1.700006

[Metadata]
Title:Pi Li Pa La
TitleUnicode:劈哩啪啦
Artist:Machi DiDi
ArtistUnicode:麻吉弟弟
Creator:Aranel
Version:Fsjallink's Hard
Source:
Tags:Fsjallink Len Fast YokesPai pw384 384059043 1103 Down chinese hiphop hip hop hip-hop rap OH My Andrew Chow Chou zhou li ming ma chi di di 麻吉 弟弟 周立铭 周立銘
BeatmapID:3683476
BeatmapSetID:1713947

[Difficulty]
HPDrainRate:4
CircleSize:3.8
OverallDifficulty:6
ApproachRate:7.5
SliderMultiplier:1.8
SliderTickRate:1

[Events]
//Background and Video events
0,0,"machi.jpg",0,0
//Break Periods
2,84966,89572
2,141031,145024
//Storyboard Layer 0 (Background)
//Storyboard Layer 1 (Fail)
//Storyboard Layer 2 (Pass)
//Storyboard Layer 3 (Foreground)
//Storyboard Layer 4 (Overlay)
//Storyboard Sound Samples

[TimingPoints]
286,480,4,2,1,60,1,0
15166,-83.3333333333333,4,2,1,60,0,0
15646,-100,4,2,1,60,0,0
23086,-100,4,2,2,60,0,0
23326,-100,4,2,1,65,0,0
30766,-100,4,2,2,65,0,0
31006,-100,4,2,1,65,0,0
61486,-100,4,2,2,65,0,0
61726,-100,4,2,1,65,0,0
67486,-111.111111111111,4,2,1,65,0,0
68446,-90.9090909090909,4,2,1,65,0,0
68926,-76.9230769230769,4,2,1,65,0,0
69406,-83.3333333333333,4,2,1,65,0,1
76846,-83.3333333333333,4,2,2,75,0,1
77086,-83.3333333333333,4,2,1,75,0,1
84286,-76.9230769230769,4,2,2,75,0,1
84406,-76.9230769230769,4,2,1,75,0,1
84766,-83.3333333333333,4,2,1,75,0,0
88606,447.761194029851,4,2,1,70,1,0
90397,434.782608695652,4,2,1,60,1,0
91511,-100,4,2,1,40,0,0
92136,-100,4,2,1,65,0,0
98875,-100,4,2,2,65,0,0
99092,-100,4,2,1,65,0,0
105424,-100,4,2,1,40,0,0
106049,-100,4,2,1,65,0,0
112788,-100,4,2,2,65,0,0
113005,-100,4,2,1,65,0,0
126918,-83.3333333333333,4,2,1,75,0,1
133657,-83.3333333333333,4,2,2,75,0,1
133874,-83.3333333333333,4,2,1,75,0,1
140831,-83.3333333333333,4,2,1,75,0,0
144310,394.736842105263,4,2,1,70,1,0
145099,375,4,2,1,70,1,0
145849,363.636363636364,4,2,1,70,1,0
152939,-100,4,2,2,70,0,0
153121,-100,4,2,1,70,0,0
157485,-100,4,2,1,60,0,0
158758,-100,4,2,2,60,0,0
158939,-100,4,2,1,70,0,0
164576,-100,4,2,2,70,0,0
164758,-100,4,2,1,70,0,0
169121,-100,4,2,1,60,0,0
170394,-100,4,2,2,60,0,0
170576,-100,4,2,1,70,0,0
176212,-100,4,2,2,70,0,0
176394,-100,4,2,1,70,0,0
180758,-100,4,2,1,60,0,0
182030,-100,4,2,2,60,0,0
182212,-100,4,2,1,70,0,0
193849,-90.9090909090909,4,2,1,70,0,1
199485,-90.9090909090909,4,2,2,75,0,1
199667,-90.9090909090909,4,2,1,75,0,1
205485,-90.9090909090909,4,2,1,75,0,0
206939,-90.9090909090909,4,2,2,75,0,0

[Colours]
Combo1 : 129,129,192
Combo2 : 151,47,255
Combo3 : 128,128,255
Combo4 : 150,143,182

[HitObjects]
96,192,4126,5,4,1:2:0:0:
416,192,5086,1,4,1:2:0:0:
256,192,6046,1,6,1:2:0:0:
256,96,6526,1,2,1:2:0:0:
256,288,7006,1,0,1:2:0:0:
327,243,7246,1,10,0:0:0:0:
396,289,7486,1,8,0:0:0:0:
478,266,7726,1,8,0:0:0:0:
478,266,7846,1,10,0:0:0:0:
478,266,7966,6,0,P|483:208|485:146,1,90,6|2,1:2|0:2,0:0:0:0:
465,97,8446,1,8,0:2:0:0:
497,22,8686,1,2,1:2:0:0:
378,132,9166,5,2,1:3:0:0:
338,61,9406,2,0,P|282:52|229:47,1,90,8|2,0:0|0:2,0:0:0:0:
221,45,9766,1,2,0:2:0:0:
221,45,9886,6,0,P|204:135|224:245,1,180,2|8,1:2|0:2,0:0:0:0:
88,241,10606,2,0,P|105:151|85:41,1,180,2|2,1:2|3:3,0:0:0:0:
10,29,11326,1,8,3:2:0:0:
184,71,11806,6,0,P|261:61|300:50,1,90,6|2,1:2|0:2,0:0:0:0:
292,54,12166,1,2,0:2:0:0:
292,54,12286,1,8,0:2:0:0:
381,59,12526,1,2,1:2:0:0:
253,186,13006,5,2,1:3:0:0:
284,261,13246,2,0,P|282:314|293:369,1,90,8|2,0:0|0:2,0:0:0:0:
197,356,13726,2,0,L|150:360,7,45,0|0|0|0|0|0|0|0,3:2|3:0|3:0|3:0|3:0|3:0|3:0|1:0,0:0:0:0:
115,333,14686,2,0,P|119:259|113:215,1,90,2|0,3:2|3:0,0:0:0:0:
187,179,15166,2,2,B|228:153|228:153|343:161,1,161.999995056153,2|8,1:3|0:0,0:1:0:0:
367,165,15646,6,0,P|357:221|371:289,1,90,6|2,1:2|0:2,0:0:0:0:
449,350,16126,2,0,P|459:294|445:226,1,90,8|2,0:2|1:2,0:0:0:0:
468,168,16606,1,2,0:2:0:0:
485,147,16726,1,2,3:2:0:0:
495,122,16846,1,2,1:3:0:0:
450,27,17086,2,0,P|392:39|356:39,1,90,8|2,0:0|0:2,0:0:0:0:
295,109,17566,6,0,P|239:90|178:94,1,90,2|2,1:2|0:2,0:0:0:0:
180,91,17926,1,2,0:2:0:0:
180,91,18046,1,8,0:2:0:0:
204,187,18286,1,2,1:2:0:0:
125,260,18526,1,2,1:2:0:0:
98,261,18646,1,2,3:2:0:0:
71,255,18766,1,4,1:2:0:0:
105,359,19006,2,0,B|152:338|152:338|240:346,1,135,8|0,0:2|0:0,0:0:0:0:
254,348,19486,5,6,1:2:0:0:
220,249,19726,1,2,0:2:0:0:
220,249,19846,1,2,0:2:0:0:
220,249,19966,2,0,P|214:182|228:122,1,90,8|2,0:2|1:2,0:0:0:0:
220,46,20446,1,2,0:2:0:0:
196,33,20566,1,0,3:2:0:0:
170,25,20686,1,2,1:3:0:0:
61,82,20926,2,0,P|111:104|157:107,1,90,8|2,0:0|0:2,0:0:0:0:
216,159,21406,6,0,L|206:215,3,45,2|2|2|2,1:2|0:2|0:2|0:2,0:0:0:0:
227,233,21886,2,0,L|237:289,3,45,2|2|2|2,1:3|0:2|0:2|0:2,0:0:0:0:
205,298,22366,2,0,L|195:354,3,45,2|2|2|2,1:2|3:2|3:2|3:2,0:0:0:0:
223,367,22846,1,2,1:2:0:0:
324,324,23086,1,10,3:3:0:0:
350,340,23206,1,8,3:3:0:0:
379,349,23326,6,0,P|430:336|492:333,1,90,6|2,1:2|0:2,0:0:0:0:
506,253,23806,2,0,P|512:204|511:152,1,90,8|2,0:2|1:3,0:0:0:0:
427,197,24286,1,2,0:2:0:0:
411,111,24526,2,0,P|355:102|298:126,1,90,0|8,1:0|0:0,0:0:0:0:
257,181,25006,1,2,0:2:0:0:
257,181,25126,1,2,0:2:0:0:
257,181,25246,6,0,L|155:171,1,90,2|2,1:2|0:2,0:0:0:0:
104,81,25726,2,0,L|206:71,1,90,10|2,0:2|1:2,0:0:0:0:
214,73,26086,1,2,3:2:0:0:
214,73,26206,1,2,1:2:0:0:
289,122,26446,1,6,1:2:0:0:
323,38,26686,1,8,0:2:0:0:
407,69,26926,1,2,0:2:0:0:
376,153,27166,6,0,P|368:203|373:274,1,90,6|2,1:2|0:2,0:0:0:0:
319,318,27646,1,8,0:2:0:0:
264,246,27886,1,2,1:2:0:0:
192,300,28126,1,2,0:2:0:0:
162,310,28246,1,2,3:2:0:0:
130,314,28366,1,2,1:3:0:0:
50,271,28606,2,0,P|37:217|40:98,1,135,8|2,0:0|0:2,0:0:0:0:
41,112,29086,6,0,P|96:127|139:128,1,90,0|2,1:2|0:2,0:0:0:0:
216,83,29566,1,8,0:2:0:0:
228,181,29806,1,2,1:2:0:0:
324,202,30046,1,0,3:2:0:0:
308,299,30286,1,2,1:2:0:0:
210,284,30526,1,8,3:2:0:0:
125,335,30766,1,10,3:3:0:0:
125,335,30886,1,8,3:3:0:0:
125,335,31006,6,0,P|74:318|1:316,1,90,6|2,1:2|0:2,0:0:0:0:
55,214,31486,2,0,P|106:231|179:233,1,90,8|2,0:2|1:3,0:0:0:0:
231,226,31966,1,2,0:2:0:0:
232,257,32086,1,2,0:0:0:0:
247,284,32206,1,0,1:0:0:0:
334,304,32446,1,8,0:0:0:0:
326,214,32686,2,0,P|310:150|310:92,1,90,2|0,0:2|1:2,0:0:0:0:
365,56,33166,5,2,0:3:0:0:
391,145,33406,1,8,0:2:0:0:
477,121,33646,1,2,1:2:0:0:
464,210,33886,1,2,1:2:0:0:
449,298,34126,1,6,1:2:0:0:
366,262,34366,2,0,B|326:239|326:239|204:243,1,135,8|0,0:2|0:0,0:0:0:0:
211,240,34846,5,6,1:2:0:0:
261,156,35086,2,0,P|255:111|259:56,1,90,2|8,0:2|0:2,0:0:0:0:
167,75,35566,1,2,1:2:0:0:
135,76,35686,1,0,3:2:0:0:
105,64,35806,1,2,0:2:0:0:
52,136,36046,2,0,L|2:145,2,45,2|2|10,1:3|0:0|0:0,0:0:0:0:
88,216,36526,1,2,0:2:0:0:
168,168,36766,5,6,1:2:0:0:
189,255,37006,1,2,0:2:0:0:
276,280,37246,1,6,1:2:0:0:
340,218,37486,1,2,0:2:0:0:
318,130,37726,1,6,3:2:0:0:
232,106,37966,1,2,3:2:0:0:
168,168,38206,1,6,1:2:0:0:
256,192,38446,1,10,0:2:0:0:
256,192,38566,1,8,0:2:0:0:
256,192,38686,6,0,P|326:188|376:187,1,90,6|2,1:2|0:2,0:0:0:0:
419,271,39166,2,0,P|374:268|329:266,1,90,10|2,0:2|1:3,0:0:0:0:
263,355,39646,2,0,P|307:352|352:350,1,90,2|2,0:2|1:2,0:0:0:0:
460,352,40126,1,10,0:2:0:0:
419,271,40366,1,2,0:2:0:0:
468,195,40606,1,2,1:2:0:0:
323,269,41086,5,10,0:2:0:0:
323,269,41206,1,2,0:2:0:0:
323,269,41326,2,0,P|270:251|208:260,1,90,2|2,1:2|1:2,0:0:0:0:
158,297,41806,1,6,1:2:0:0:
75,261,42046,1,10,0:2:0:0:
128,188,42286,1,2,0:2:0:0:
77,113,42526,6,0,P|72:48|73:0,1,90,6|2,1:2|0:2,0:0:0:0:
159,58,43006,1,10,0:2:0:0:
158,150,43246,2,0,P|148:209|133:251,1,90,2|2,1:2|0:2,0:0:0:0:
122,261,43606,1,2,3:2:0:0:
122,261,43726,1,2,1:3:0:0:
155,355,43966,2,0,B|207:334|207:334|286:335,1,135,10|2,0:0|0:2,0:0:0:0:
305,338,44446,5,0,1:2:0:0:
270,250,44686,1,2,0:2:0:0:
270,250,44806,1,2,0:2:0:0:
270,250,44926,2,0,P|260:190|269:142,1,90,10|0,0:2|1:2,0:0:0:0:
365,102,45406,2,0,P|368:146|358:190,1,90,0|2,3:2|1:2,0:0:0:0:
386,283,45886,1,10,3:2:0:0:
386,283,46006,1,2,3:2:0:0:
386,283,46126,2,0,L|457:275,1,45,2|2,3:2|3:2,0:0:0:0:
472,304,46366,6,0,L|312:322,1,135,6|2,1:2|0:2,0:0:0:0:
301,322,46846,2,0,P|297:267|282:217,1,90,8|2,0:2|1:3,0:0:0:0:
202,199,47326,1,2,0:2:0:0:
170,203,47446,1,2,0:2:0:0:
143,220,47566,1,0,1:0:0:0:
114,317,47806,2,0,P|148:348|204:374,1,90,8|2,0:0|0:2,0:0:0:0:
301,322,48286,6,0,P|297:257|315:154,1,135,0|2,1:2|0:2,0:0:0:0:
319,162,48766,2,0,P|390:178|430:178,1,90,8|0,0:2|1:2,0:0:0:0:
496,136,49246,1,2,1:2:0:0:
498,104,49366,1,2,3:2:0:0:
502,72,49486,1,4,1:2:0:0:
421,14,49726,2,0,P|344:30|286:32,1,135,8|0,0:2|0:0,0:0:0:0:
263,30,50206,5,6,1:2:0:0:
287,121,50446,1,2,0:2:0:0:
287,121,50566,1,2,0:2:0:0:
287,121,50686,2,0,P|222:118|158:120,1,90,8|2,0:2|1:2,0:0:0:0:
150,41,51166,1,2,0:2:0:0:
62,62,51406,1,2,1:3:0:0:
63,151,51646,2,0,P|60:213|67:251,1,90,8|2,0:0|0:2,0:0:0:0:
141,286,52126,5,4,1:2:0:0:
216,236,52366,1,10,0:2:0:0:
285,293,52606,1,12,0:2:0:0:
359,241,52846,1,10,3:2:0:0:
359,241,52966,1,10,3:2:0:0:
359,241,53086,2,0,L|411:246,2,45,4|8|8,3:2|3:2|3:2,0:0:0:0:
310,164,53566,1,14,1:2:0:0:
351,83,53806,1,8,3:2:0:0:
351,83,53926,1,8,3:2:0:0:
351,83,54046,6,0,P|420:63|480:149,1,180,6|8,1:2|0:2,0:0:0:0:
442,220,54766,2,0,P|450:296|456:331,1,90,2|2,1:3|0:2,0:0:0:0:
383,367,55246,1,2,1:2:0:0:
314,309,55486,2,0,B|268:288|268:288|168:295,1,135,10|2,0:0|0:2,0:0:0:0:
154,296,55966,5,2,1:2:0:0:
87,252,56206,1,2,0:2:0:0:
87,252,56326,1,2,0:2:0:0:
87,252,56446,2,0,P|77:193|89:143,1,90,8|0,0:2|1:2,0:0:0:0:
165,130,56926,2,0,P|175:71|163:21,1,90,2|4,1:2|1:2,0:0:0:0:
269,35,57406,2,0,L|424:41,1,135,10|0,0:2|0:0,0:0:0:0:
429,41,57886,6,0,P|415:106|425:160,1,90,6|2,1:2|0:2,0:0:0:0:
496,213,58366,2,0,P|508:169|508:125,1,90,8|2,0:2|1:2,0:0:0:0:
414,159,58846,1,2,0:2:0:0:
384,147,58966,1,2,3:2:0:0:
352,142,59086,1,2,1:3:0:0:
283,213,59326,2,0,P|225:205|180:178,1,90,8|2,0:0|0:2,0:0:0:0:
118,241,59806,6,0,P|123:312|102:384,1,135,0|2,1:2|0:2,0:0:0:0:
89,384,60286,2,0,P|31:367|5:349,1,90,10|2,0:2|1:2,0:0:0:0:
34,255,60766,1,2,3:2:0:0:
4,160,61006,1,2,1:2:0:0:
102,166,61246,1,10,3:2:0:0:
177,101,61486,1,10,3:3:0:0:
177,101,61606,1,8,3:3:0:0:
177,101,61726,6,0,P|169:47|138:-10,1,90,6|2,1:2|0:2,0:0:0:0:
56,27,62206,1,8,0:2:0:0:
17,118,62446,1,2,1:3:0:0:
195,203,62926,6,2,B|268:208|268:208|313:193|313:193|396:199,1,180,2|2,1:2|0:2,0:1:0:0:
355,101,63646,2,0,L|248:95,1,90,0|2,1:2|0:3,0:0:0:0:
222,187,64126,2,0,L|115:181,1,90,8|0,0:2|1:2,0:0:0:0:
52,241,64606,1,2,1:2:0:0:
47,272,64726,1,2,3:2:0:0:
49,303,64846,1,4,1:2:0:0:
133,354,65086,2,0,B|187:331|187:331|288:335,1,135,8|0,0:2|0:0,0:0:0:0:
287,337,65566,5,6,1:2:0:0:
392,360,65806,1,2,0:2:0:0:
392,360,65926,1,2,0:2:0:0:
392,360,66046,2,0,P|401:272|393:235,1,90,8|2,0:2|1:2,0:0:0:0:
297,198,66526,2,0,P|296:242|305:286,1,90,2|2,0:2|1:3,0:0:0:0:
393,234,67006,1,8,0:0:0:0:
368,139,67246,1,2,0:2:0:0:
368,139,67366,1,2,0:2:0:0:
368,139,67486,6,0,L|379:82,7,40.4999987640381,4|0|0|0|0|0|0|2,1:2|1:0|1:0|1:0|1:0|1:0|1:0|1:2,0:0:0:0:
374,54,68446,2,0,P|310:52|268:44,1,99.0000030212403,2|2,1:2|1:2,0:0:0:0:
205,120,68926,2,2,B|214:194|214:194|179:306,1,175.499991966248,10|10,1:2|1:2,0:1:0:0:
179,313,69406,5,6,1:2:0:0:
112,239,69646,2,0,P|33:241|-13:251,1,107.999996704102,2|8,0:2|0:2,0:0:0:0:
46,146,70126,2,0,P|41:85|166:22,1,215.999993408203,2|0,1:3|1:0,0:0:0:0:
240,94,70846,2,0,P|328:80|361:73,1,107.999996704102,8|2,0:0|0:2,0:0:0:0:
448,40,71326,5,0,1:2:0:0:
439,147,71566,1,2,0:2:0:0:
336,181,71806,1,8,0:2:0:0:
352,287,72046,1,0,1:2:0:0:
454,251,72286,1,2,1:2:0:0:
438,357,72526,2,0,P|372:330|286:325,1,107.999996704102,4|10,1:2|0:2,0:0:0:0:
226,355,73006,1,2,0:2:0:0:
226,355,73126,1,2,0:0:0:0:
226,355,73246,6,0,P|209:278|212:192,1,161.999995056153,6|2,1:2|0:2,0:0:0:0:
215,169,73726,1,8,0:2:0:0:
317,229,73966,2,0,P|391:221|441:208,1,107.999996704102,2|2,1:2|0:2,0:0:0:0:
445,211,74326,1,2,3:2:0:0:
445,211,74446,1,2,1:3:0:0:
461,104,74686,1,8,0:0:0:0:
355,126,74926,2,0,P|291:138|209:131,1,107.999996704102,2|0,0:2|1:2,0:0:0:0:
183,51,75406,1,2,0:2:0:0:
92,109,75646,2,0,P|101:183|86:231,1,107.999996704102,8|0,0:2|1:2,0:0:0:0:
6,280,76126,5,0,3:2:0:0:
63,371,76366,1,2,1:2:0:0:
156,316,76606,1,8,3:2:0:0:
103,233,76846,1,10,3:3:0:0:
103,233,76966,1,8,3:3:0:0:
103,233,77086,5,6,1:2:0:0:
210,242,77326,2,0,P|278:214|331:212,1,107.999996704102,2|8,0:2|0:2,0:0:0:0:
409,257,77806,2,0,P|373:343|252:319,1,215.999993408203,2|0,1:3|1:0,0:0:0:0:
210,242,78526,2,0,P|198:174|194:120,1,107.999996704102,8|2,0:0|0:2,0:0:0:0:
217,29,79006,5,0,1:2:0:0:
318,64,79246,1,2,0:3:0:0:
285,166,79486,1,8,0:2:0:0:
391,148,79726,1,0,1:2:0:0:
430,47,79966,1,2,1:2:0:0:
505,123,80206,2,0,P|496:186|477:248,1,107.999996704102,4|8,1:2|0:2,0:0:0:0:
393,287,80686,1,2,0:2:0:0:
393,287,80806,1,2,0:0:0:0:
393,287,80926,6,0,P|345:258|208:258,1,161.999995056153,6|2,1:2|0:2,0:0:0:0:
213,253,81406,1,8,0:2:0:0:
227,145,81646,2,0,P|161:150|91:148,1,107.999996704102,2|2,1:2|0:2,0:0:0:0:
94,150,82006,1,2,3:2:0:0:
94,150,82126,1,2,1:3:0:0:
46,52,82366,1,8,0:0:0:0:
153,37,82606,1,2,0:2:0:0:
153,37,82726,1,2,0:2:0:0:
153,37,82846,6,0,P|213:30|232:26,7,53.9999983520508,0|0|2|0|0|0|0|2,3:2|3:2|3:3|3:2|3:2|3:2|3:2|1:2,0:0:0:0:
259,43,83806,2,0,P|246:113|254:168,1,107.999996704102,2|2,1:2|3:2,0:0:0:0:
316,245,84286,2,0,B|378:210|378:210|501:219,1,175.499991966248,10|2,1:3|0:2,0:0:0:0:
500,222,84766,1,6,1:2:0:0:
256,192,90397,12,6,92136,1:2:0:0:
189,212,92570,6,0,P|175:146|172:102,1,90,8|2,0:2|1:3,0:0:0:0:
218,45,93005,1,2,0:2:0:0:
248,51,93114,1,2,3:2:0:0:
279,46,93223,1,2,1:2:0:0:
350,100,93440,2,0,P|416:83|477:79,1,90,8|2,0:0|0:2,0:0:0:0:
491,152,93875,5,0,1:2:0:0:
442,227,94092,2,0,P|441:290|454:339,1,90,2|8,0:3|0:2,0:0:0:0:
366,357,94527,1,2,0:2:0:0:
366,357,94636,1,2,3:2:0:0:
366,357,94744,2,0,L|249:351,1,90,2|0,1:2|1:2,0:0:0:0:
229,264,95179,2,0,L|346:258,1,90,8|2,0:2|1:2,0:0:0:0:
367,183,95614,5,6,1:2:0:0:
285,145,95831,2,0,P|274:66|279:21,1,90,2|8,0:2|0:2,0:0:0:0:
184,49,96266,2,0,P|182:93|173:137,1,90,2|2,1:2|0:2,0:0:0:0:
167,154,96592,1,2,3:2:0:0:
167,154,96701,1,2,1:3:0:0:
69,171,96918,1,8,0:0:0:0:
64,202,97027,1,2,0:2:0:0:
70,232,97136,1,2,0:2:0:0:
139,289,97353,6,0,P|202:273|246:271,1,90,0|2,1:2|1:2,0:0:0:0:
295,329,97788,1,8,0:2:0:0:
326,329,97897,1,2,3:2:0:0:
356,320,98005,1,2,0:2:0:0:
363,230,98223,2,0,P|342:171|341:137,1,90,0|2,3:2|3:2,0:0:0:0:
446,66,98657,2,0,P|441:110|423:151,1,90,8|2,3:2|3:3,0:0:0:0:
337,113,99092,6,0,P|285:84|171:120,1,180,6|8,1:2|0:2,0:0:0:0:
122,189,99744,1,2,1:3:0:0:
46,139,99962,1,2,0:2:0:0:
35,109,100070,1,2,3:2:0:0:
29,77,100179,1,0,1:0:0:0:
130,5,100397,2,0,P|122:63|108:105,1,90,8|2,0:0|0:2,0:0:0:0:
122,189,100831,6,0,P|95:285|107:349,1,135,0|2,1:2|0:2,0:0:0:0:
107,343,101266,1,8,0:2:0:0:
185,283,101483,2,0,P|241:288|286:299,1,90,2|2,0:2|1:2,0:0:0:0:
353,354,101918,1,0,1:2:0:0:
449,331,102136,1,8,0:2:0:0:
428,234,102353,1,2,1:2:0:0:
330,248,102570,6,0,P|309:161|319:31,1,180,6|8,1:2|0:2,0:0:0:0:
407,31,103223,1,2,1:2:0:0:
407,31,103331,1,2,3:2:0:0:
407,31,103440,2,0,P|403:93|392:130,1,90,2|2,0:2|1:3,0:0:0:0:
302,152,103875,2,0,P|239:129|181:127,1,90,8|2,0:0|0:2,0:0:0:0:
191,125,104201,1,2,0:2:0:0:
191,125,104310,1,6,1:2:0:0:
256,192,104527,12,6,106049,1:2:0:0:
176,218,106483,6,0,P|175:275|186:332,1,90,8|2,0:2|1:3,0:0:0:0:
261,364,106918,2,0,P|266:319|264:274,1,90,2|0,0:2|1:0,0:0:0:0:
316,189,107353,1,8,0:0:0:0:
395,247,107570,1,2,0:2:0:0:
477,192,107788,1,0,1:2:0:0:
302,110,108223,6,0,P|310:55|311:38,5,45,8|0|2|2|2|2,0:2|1:2|0:2|3:2|1:2|3:2,0:0:0:0:
288,20,108875,1,4,1:2:0:0:
257,28,108983,1,2,0:2:0:0:
227,37,109092,2,0,P|153:32|102:27,1,90,8|2,0:2|1:2,0:0:0:0:
55,101,109527,6,0,P|122:128|133:241,1,180,6|8,1:2|0:2,0:0:0:0:
133,253,110070,1,2,0:2:0:0:
133,253,110179,1,2,1:2:0:0:
189,334,110397,2,0,P|252:347|295:350,1,90,2|2,0:2|1:3,0:0:0:0:
245,255,110831,1,8,0:0:0:0:
237,224,110940,1,2,0:2:0:0:
238,192,111049,1,2,0:2:0:0:
318,134,111266,6,0,P|375:150|426:148,1,90,0|2,1:2|1:2,0:0:0:0:
383,247,111701,2,0,P|326:231|275:233,1,90,8|2,0:2|0:2,0:0:0:0:
209,272,112136,1,0,3:2:0:0:
209,272,112244,1,2,3:2:0:0:
209,272,112353,1,2,1:2:0:0:
124,220,112570,1,8,3:2:0:0:
185,142,112788,1,10,3:3:0:0:
111,76,113005,6,0,P|51:77|16:203,1,180,6|8,1:2|0:2,0:0:0:0:
46,263,113657,2,0,P|40:321|34:364,1,90,2|2,1:3|0:2,0:0:0:0:
126,363,114092,1,0,1:0:0:0:
156,356,114201,1,2,0:2:0:0:
187,356,114310,1,8,0:0:0:0:
346,273,114744,6,0,P|340:228|335:183,1,90,0|2,1:2|0:3,0:0:0:0:
369,99,115179,1,8,0:2:0:0:
399,106,115288,1,0,1:2:0:0:
430,105,115397,1,2,0:2:0:0:
489,172,115614,1,2,1:2:0:0:
439,246,115831,2,0,P|435:301|450:356,1,90,6|8,1:2|0:2,0:0:0:0:
347,366,116266,1,2,1:2:0:0:
280,292,116483,6,0,B|232:262|232:262|129:264,1,135,6|2,1:2|0:2,0:0:0:0:
131,264,116918,1,8,0:2:0:0:
57,197,117136,1,2,1:2:0:0:
113,115,117353,2,0,P|171:147|232:148,1,90,2|2,0:2|1:3,0:0:0:0:
292,156,117788,1,8,0:0:0:0:
278,58,118005,1,2,0:2:0:0:
377,58,118223,6,0,P|385:128|398:192,1,135,4|2,1:2|0:2,0:0:0:0:
439,217,118657,2,0,P|421:298|412:334,1,90,4|2,1:2|0:2,0:0:0:0:
336,360,119092,1,4,3:2:0:0:
281,276,119310,1,0,3:2:0:0:
201,334,119527,1,2,1:3:0:0:
161,243,119744,1,8,0:2:0:0:
161,243,119853,1,8,0:2:0:0:
161,243,119962,6,0,B|141:190|141:190|156:59,1,180,6|8,1:2|0:2,0:0:0:0:
78,14,120614,2,0,L|66:123,1,90,2|2,1:3|0:2,0:0:0:0:
5,180,121049,1,0,1:0:0:0:
50,267,121266,1,8,0:0:0:0:
247,258,121701,6,0,L|362:253,1,90,0|2,1:2|0:3,0:0:0:0:
410,172,122136,2,0,L|295:167,1,90,8|2,0:2|0:2,0:0:0:0:
242,122,122570,1,2,1:2:0:0:
253,23,122788,1,6,1:2:0:0:
162,17,123005,1,8,0:2:0:0:
162,17,123114,1,2,0:2:0:0:
162,17,123223,1,2,1:2:0:0:
145,114,123440,6,0,P|141:240|152:318,1,180,6|8,1:2|0:2,0:0:0:0:
230,346,124092,1,2,1:2:0:0:
309,286,124310,2,0,P|369:281|426:281,1,90,2|2,0:2|1:3,0:0:0:0:
475,342,124744,1,8,0:0:0:0:
485,144,125179,6,0,P|493:61|489:27,1,90,6|0,3:2|3:0,0:0:0:0:
393,12,125614,2,0,P|393:56|400:101,1,90,8|8,0:1|0:1,0:0:0:0:
409,122,125940,1,8,0:1:0:0:
409,122,126049,1,0,3:0:0:0:
324,183,126266,2,0,B|281:158|281:158|150:157,1,180,2|0,3:3|1:3,0:0:0:0:
228,247,126918,5,6,1:2:0:0:
343,274,127136,2,0,P|390:241|436:184,1,107.999996704102,2|8,0:2|0:2,0:0:0:0:
439,96,127570,2,0,P|387:51|243:86,1,215.999993408203,2|0,1:3|1:0,0:0:0:0:
170,148,128223,2,0,P|117:130|55:123,1,107.999996704102,8|2,0:0|0:2,0:0:0:0:
23,222,128657,5,0,1:2:0:0:
23,330,128875,1,2,0:2:0:0:
130,326,129092,1,8,0:2:0:0:
128,217,129310,1,0,1:2:0:0:
229,252,129527,1,2,1:2:0:0:
318,192,129744,2,0,P|376:180|441:190,1,107.999996704102,4|10,1:2|0:2,0:0:0:0:
498,263,130179,1,2,0:2:0:0:
498,263,130288,1,2,0:0:0:0:
498,263,130396,6,0,P|480:317|356:350,1,161.999995056153,6|2,1:2|0:2,0:0:0:0:
363,353,130831,1,8,0:2:0:0:
386,247,131049,2,0,P|373:167|357:103,1,107.999996704102,2|2,1:2|0:2,0:0:0:0:
359,123,131375,1,2,3:2:0:0:
359,123,131483,1,2,1:3:0:0:
279,196,131701,1,8,0:0:0:0:
191,133,131918,2,0,P|204:53|220:-11,1,107.999996704102,2|0,0:2|1:2,0:0:0:0:
107,61,132353,1,2,0:2:0:0:
4,26,132570,2,0,P|15:78|22:132,1,107.999996704102,8|0,0:2|1:2,0:0:0:0:
99,208,133005,5,0,3:2:0:0:
79,314,133223,1,2,1:2:0:0:
176,359,133440,1,8,3:2:0:0:
252,282,133657,1,10,3:3:0:0:
252,282,133766,1,8,3:3:0:0:
252,282,133875,5,6,1:2:0:0:
198,188,134092,2,0,P|193:117|198:59,1,107.999996704102,2|8,0:2|0:2,0:0:0:0:
288,24,134527,2,0,P|317:88|450:98,1,215.999993408203,2|0,1:3|1:0,0:0:0:0:
498,194,135179,2,0,P|488:253|482:317,1,107.999996704102,8|2,0:0|0:2,0:0:0:0:
390,357,135614,5,0,1:2:0:0:
287,322,135831,1,2,0:2:0:0:
311,216,136049,1,8,0:2:0:0:
204,232,136266,1,0,1:2:0:0:
187,125,136483,1,2,1:2:0:0:
294,111,136701,2,0,P|359:99|420:88,1,107.999996704102,4|10,1:2|0:2,0:0:0:0:
475,169,137136,1,2,0:2:0:0:
475,169,137244,1,2,0:0:0:0:
475,169,137353,6,0,L|297:202,1,161.999995056153,6|2,1:2|0:2,0:0:0:0:
299,202,137788,1,8,0:2:0:0:
329,305,138005,2,0,P|246:311|195:298,1,107.999996704102,2|2,1:2|0:2,0:0:0:0:
194,299,138331,1,2,3:2:0:0:
194,299,138440,1,2,1:3:0:0:
127,214,138657,1,8,0:0:0:0:
206,140,138875,2,0,P|289:146|340:133,1,107.999996704102,2|4,0:2|1:2,0:0:0:0:
385,60,139310,5,2,0:2:0:0:
488,88,139527,1,4,1:2:0:0:
453,190,139744,1,2,0:2:0:0:
347,163,139962,1,4,3:2:0:0:
393,260,140179,2,0,P|385:323|376:372,1,107.999996704102,8|14,0:2|0:2,0:0:0:0:
280,318,140614,1,8,0:2:0:0:
243,307,140723,1,8,0:2:0:0:
205,305,140831,1,6,1:2:0:0:
256,192,145849,12,8,146939,3:2:0:0:
333,255,147303,6,0,P|264:269|222:284,1,90,6|2,1:2|0:2,0:0:0:0:
166,232,147667,2,0,P|149:157|147:114,1,90,8|2,0:2|1:3,0:0:0:0:
146,122,147939,1,2,3:2:0:0:
146,122,148030,1,2,0:2:0:0:
213,62,148212,2,0,P|207:10|206:0,2,45,2|2|8,1:2|0:2|0:0,0:0:0:0:
283,118,148576,2,0,P|351:98|407:101,1,90,2|0,0:2|1:2,0:0:0:0:
446,143,148939,2,0,P|441:198|439:215,1,45,2|2,0:3|0:2,0:0:0:0:
413,223,149121,6,0,P|345:203|289:206,1,90,8|0,0:2|1:2,0:0:0:0:
255,258,149485,1,2,1:2:0:0:
255,258,149667,1,4,1:2:0:0:
178,210,149849,2,0,P|166:132|164:59,1,135,8|0,0:2|0:0,0:0:0:0:
164,36,150212,6,0,P|95:43|33:37,1,90,6|2,1:2|0:2,0:0:0:0:
0,141,150576,2,0,P|69:134|131:140,1,90,8|2,0:2|1:2,0:0:0:0:
134,212,150939,2,0,P|127:276|112:322,1,90,2|2,0:2|1:3,0:0:0:0:
102,331,151212,1,2,0:2:0:0:
102,331,151303,6,0,P|169:317|301:325,1,180,8|0,0:0|1:2,0:0:0:0:
370,328,151849,1,2,0:2:0:0:
400,243,152030,1,8,0:2:0:0:
333,182,152212,1,0,1:2:0:0:
368,99,152394,2,0,P|418:95|476:114,1,90,0|2,3:2|1:2,0:0:0:0:
490,29,152758,2,0,P|426:10|332:19,1,135,8|0,3:2|3:3,0:0:0:0:
332,15,153121,5,6,1:2:0:0:
280,89,153303,2,0,P|228:83|175:62,2,90,2|8|2,0:2|0:2|1:3,0:0:0:0:
326,166,153849,1,2,0:2:0:0:
326,166,153939,1,2,0:2:0:0:
326,166,154030,2,0,P|318:223|302:263,1,90,0|8,1:0|0:0,0:0:0:0:
222,286,154394,2,0,P|207:243|202:198,1,90,2|0,0:2|1:2,0:0:0:0:
170,123,154758,5,2,0:3:0:0:
90,111,154939,1,8,0:2:0:0:
43,177,155121,1,0,1:2:0:0:
66,254,155303,1,2,1:2:0:0:
144,272,155485,1,4,1:2:0:0:
164,350,155667,1,8,0:2:0:0:
304,242,156030,5,6,1:2:0:0:
304,242,156212,2,0,P|289:168|290:54,1,180,2|2,0:2|1:2,0:0:0:0:
357,19,156758,1,2,0:2:0:0:
407,82,156939,2,0,P|463:79|499:66,1,90,2|8,1:3|0:0,0:0:0:0:
501,158,157303,1,2,0:2:0:0:
498,184,157394,1,2,0:2:0:0:
495,210,157485,1,2,1:2:0:0:
256,192,157667,12,6,158939,1:2:0:0:
273,242,159303,6,0,P|219:213|166:204,1,90,8|2,0:2|1:3,0:0:0:0:
110,195,159667,1,2,0:2:0:0:
110,195,159758,1,2,3:2:0:0:
110,195,159849,2,0,P|105:143|102:116,2,45,2|2|10,1:2|0:2|0:0,0:0:0:0:
37,248,160212,2,0,P|46:309|64:363,1,90,2|0,0:2|1:2,0:0:0:0:
141,357,160576,1,2,0:3:0:0:
141,357,160758,1,8,0:2:0:0:
201,290,160939,2,0,P|262:281|378:332,1,180,0|4,1:2|1:2,0:0:0:0:
453,290,161485,2,0,P|431:230|431:178,1,90,8|2,0:2|0:2,0:0:0:0:
495,142,161849,6,0,P|488:97|470:56,1,90,6|2,1:2|0:2,0:0:0:0:
384,29,162212,2,0,P|330:50|261:48,1,90,10|2,0:2|1:2,0:0:0:0:
207,55,162576,2,0,P|126:72|92:97,1,90,2|2,0:2|1:2,0:0:0:0:
80,154,162939,2,0,P|88:199|78:242,1,90,10|2,0:2|0:2,0:0:0:0:
176,299,163303,6,0,P|168:254|178:211,1,90,2|2,1:2|0:2,0:0:0:0:
239,156,163667,1,10,0:2:0:0:
297,212,163849,1,2,1:2:0:0:
372,183,164030,1,2,3:2:0:0:
442,222,164212,1,2,1:2:0:0:
438,309,164394,1,10,3:2:0:0:
438,309,164485,1,2,3:2:0:0:
438,309,164576,2,0,P|385:313|339:329,1,90,2|6,3:3|1:2,0:0:0:0:
258,361,164939,6,0,P|210:338|214:204,1,180,2|2,0:2|1:3,0:0:0:0:
248,148,165485,1,2,0:2:0:0:
162,118,165667,2,0,P|99:125|62:149,1,90,0|8,1:0|0:0,0:0:0:0:
40,220,166030,1,2,0:2:0:0:
123,252,166212,6,0,P|121:317|106:360,1,90,0|2,1:2|0:3,0:0:0:0:
199,370,166576,1,8,0:2:0:0:
252,297,166758,2,0,B|299:327|299:327|429:315,1,180,0|4,1:2|1:2,0:0:0:0:
489,254,167303,1,8,0:2:0:0:
489,254,167394,1,2,0:2:0:0:
489,254,167485,1,2,0:2:0:0:
424,190,167667,6,0,P|416:138|416:88,1,90,6|2,1:2|0:2,0:0:0:0:
324,46,168030,2,0,P|332:98|332:148,1,90,8|2,0:2|1:2,0:0:0:0:
330,163,168303,1,0,3:2:0:0:
330,163,168394,2,0,P|230:158|219:161,1,90,2|2,0:2|1:3,0:0:0:0:
251,245,168758,2,0,P|186:258|132:246,1,90,8|2,0:0|0:2,0:0:0:0:
79,290,169121,1,2,1:2:0:0:
256,192,169303,12,6,170576,1:2:0:0:
158,62,170939,6,0,P|181:68|257:69,1,90,8|2,0:2|1:3,0:0:0:0:
318,135,171303,1,2,0:2:0:0:
318,135,171485,1,2,1:2:0:0:
402,104,171667,2,0,P|413:181|402:294,1,180,8|0,0:0|1:2,0:0:0:0:
322,319,172212,2,0,P|256:314|224:306,1,90,2|8,0:3|0:2,0:0:0:0:
243,218,172576,2,0,P|309:223|341:231,1,90,0|2,1:2|1:2,0:0:0:0:
408,183,172939,2,0,B|391:113|391:113|408:6,1,180,4|0,1:2|0:0,0:0:0:0:
317,13,173485,6,2,P|240:22|202:29,1,90,6|2,1:2|0:2,0:1:0:0:
170,94,173849,2,2,P|170:172|156:215,1,90,8|2,0:2|1:2,0:1:0:0:
86,223,174212,2,2,P|81:311|89:334,1,90,2|2,0:2|1:3,0:1:0:0:
100,340,174485,1,2,3:2:0:0:
100,340,174576,1,8,0:0:0:0:
189,351,174758,2,0,P|194:313|192:287,1,45,2|2,0:2|0:2,0:0:0:0:
215,266,174939,6,0,P|287:264|328:257,1,90,0|2,1:2|0:2,0:0:0:0:
380,316,175303,1,8,0:2:0:0:
426,238,175485,2,0,P|431:164|424:106,1,90,0|0,1:2|3:2,0:0:0:0:
353,100,175849,2,0,L|282:115,1,45,2|2,1:2|3:2,0:0:0:0:
264,112,176030,2,0,P|207:81|110:88,1,135,8|0,3:2|3:3,0:0:0:0:
95,94,176394,6,0,P|99:161|92:195,1,90,6|2,1:2|0:2,0:0:0:0:
185,265,176758,2,0,P|179:220|185:175,1,90,8|2,0:2|1:3,0:0:0:0:
268,208,177121,1,2,0:2:0:0:
320,134,177303,2,0,P|370:106|499:145,1,180,2|2,1:2|0:2,0:0:0:0:
485,221,177849,6,0,P|480:285|476:328,1,90,0|2,1:2|0:3,0:0:0:0:
391,337,178212,2,0,P|396:273|400:230,1,90,8|0,0:2|1:2,0:0:0:0:
341,181,178576,1,2,1:2:0:0:
277,244,178758,2,0,P|204:245|100:182,1,180,6|2,1:2|0:2,0:0:0:0:
94,178,179212,1,2,0:2:0:0:
94,178,179303,6,0,P|116:139|133:98,1,90,6|2,1:2|0:2,0:0:0:0:
68,17,179667,2,0,P|45:56|28:97,1,90,8|2,0:2|1:2,0:0:0:0:
61,181,180030,2,0,P|64:258|56:305,1,90,2|2,0:2|1:3,0:0:0:0:
117,343,180394,1,8,0:0:0:0:
189,288,180576,1,2,0:2:0:0:
220,292,180667,1,2,0:2:0:0:
251,293,180758,1,2,1:2:0:0:
256,192,180939,12,6,182212,1:2:0:0:
322,187,182576,6,0,P|326:120|317:60,1,90,8|2,0:2|1:3,0:0:0:0:
251,44,182939,2,0,P|178:57|140:54,1,90,2|2,0:2|1:2,0:0:0:0:
136,53,183212,1,2,0:2:0:0:
136,53,183303,1,8,0:0:0:0:
76,120,183485,2,0,L|79:177,1,45,2|2,0:2|0:2,0:0:0:0:
101,203,183667,6,0,P|160:189|287:191,1,180,0|8,1:2|0:2,0:0:0:0:
366,238,184212,1,0,1:2:0:0:
366,238,184303,1,2,3:2:0:0:
366,238,184394,2,0,P|355:305|350:334,1,90,2|4,1:2|1:2,0:0:0:0:
263,348,184758,1,8,0:2:0:0:
205,279,184939,1,2,0:2:0:0:
118,305,185121,6,0,P|94:234|106:122,1,180,6|8,1:2|0:2,0:0:0:0:
179,79,185667,1,2,1:2:0:0:
179,79,185758,1,2,3:2:0:0:
179,79,185849,2,0,P|239:85|281:85,1,90,2|2,0:2|1:3,0:0:0:0:
352,177,186212,2,0,P|282:177|198:184,1,135,8|2,0:0|0:2,0:0:0:0:
187,186,186576,6,0,P|187:248|201:296,1,90,0|2,1:2|0:2,0:0:0:0:
271,340,186939,2,0,P|279:295|277:250,1,90,8|0,0:2|1:2,0:0:0:0:
340,185,187303,1,0,3:2:0:0:
418,228,187485,1,2,1:2:0:0:
487,170,187667,2,0,P|500:112|492:16,1,135,8|0,3:2|3:3,0:0:0:0:
480,14,188030,6,0,P|399:21|349:23,1,90,6|2,1:2|0:2,0:0:0:0:
323,82,188394,2,0,P|255:87|211:87,1,90,8|2,0:2|1:3,0:0:0:0:
216,176,188758,2,0,P|284:171|328:171,1,90,2|0,0:2|1:0,0:0:0:0:
351,248,189121,2,0,P|426:252|483:247,1,90,8|2,0:0|0:2,0:0:0:0:
413,337,189485,6,0,P|307:339|217:364,1,180,0|8,1:2|0:2,0:0:0:0:
147,336,190030,1,0,1:2:0:0:
179,252,190212,2,0,P|164:188|157:132,1,90,2|4,1:2|1:2,0:0:0:0:
196,81,190576,2,0,P|264:44|338:83,1,135,8|0,0:2|0:0,0:0:0:0:
332,73,190939,5,6,1:0:0:0:
308,160,191121,2,2,P|300:204|289:247,1,90,2|8,0:3|0:2,0:1:0:0:
209,281,191485,1,2,1:2:0:0:
209,281,191576,1,0,1:2:0:0:
209,281,191667,1,2,1:2:0:0:
141,221,191849,2,0,P|129:157|126:31,1,180,2|2,1:3|1:2,0:0:0:0:
213,60,192394,5,6,1:2:0:0:
296,25,192576,1,8,0:2:0:0:
382,50,192758,1,14,0:2:0:0:
415,143,192939,1,10,0:2:0:0:
415,143,193030,1,10,0:2:0:0:
415,143,193121,2,0,P|408:220|372:327,1,180,4|14,1:2|3:2,0:0:0:0:
291,268,193667,1,10,3:2:0:0:
291,268,193758,1,10,3:2:0:0:
291,268,193849,5,6,1:2:0:0:
220,334,194030,2,0,P|157:324|103:321,1,99.0000030212403,2|8,0:2|0:2,0:0:0:0:
112,232,194394,2,0,P|85:177|159:59,1,198.000006042481,2|2,1:3|1:2,0:0:0:0:
241,46,194939,2,0,P|243:104|248:144,1,99.0000030212403,8|2,0:0|0:2,0:0:0:0:
332,198,195303,5,0,1:2:0:0:
332,198,195485,1,2,0:2:0:0:
419,150,195667,1,8,0:2:0:0:
419,150,195849,1,0,1:2:0:0:
492,216,196030,1,2,1:2:0:0:
492,216,196212,2,0,P|475:287|449:335,1,99.0000030212403,4|8,1:2|0:2,0:0:0:0:
376,346,196576,1,2,0:2:0:0:
376,346,196667,1,2,0:0:0:0:
376,346,196758,6,0,P|316:309|180:321,1,198.000006042481,6|8,1:2|0:2,0:0:0:0:
177,216,197303,2,0,P|178:155|169:106,1,99.0000030212403,2|2,1:2|0:2,0:0:0:0:
102,45,197667,1,2,1:3:0:0:
36,119,197849,1,8,0:0:0:0:
82,206,198030,2,0,P|88:254|87:304,1,99.0000030212403,2|0,0:2|1:2,0:0:0:0:
147,355,198394,1,2,0:2:0:0:
218,321,198576,1,8,0:2:0:0:
235,243,198758,1,0,1:2:0:0:
189,178,198939,1,0,3:2:0:0:
194,98,199121,1,2,1:2:0:0:
254,46,199303,1,8,3:2:0:0:
333,52,199485,1,10,3:3:0:0:
389,107,199667,6,0,P|373:170|393:313,1,198.000006042481,6|8,1:2|0:2,0:0:0:0:
298,343,200212,2,0,P|228:362|101:336,1,198.000006042481,2|0,1:3|1:0,0:0:0:0:
146,247,200758,2,0,P|156:196|148:126,1,99.0000030212403,8|2,0:0|0:2,0:0:0:0:
136,51,201121,5,0,1:2:0:0:
136,51,201303,1,2,0:2:0:0:
228,87,201485,1,8,0:2:0:0:
228,87,201667,1,0,1:2:0:0:
309,31,201849,1,2,1:2:0:0:
309,31,202030,2,0,P|373:23|422:25,1,99.0000030212403,4|8,1:2|0:2,0:0:0:0:
480,91,202394,1,2,0:2:0:0:
480,91,202485,1,2,0:0:0:0:
480,91,202576,6,0,B|459:160|459:160|479:290,1,198.000006042481,6|8,1:2|0:2,0:0:0:0:
397,359,203121,2,0,L|378:238,1,99.0000030212403,2|2,1:2|0:2,0:0:0:0:
299,204,203485,1,2,1:3:0:0:
369,133,203667,1,8,0:0:0:0:
275,99,203849,2,0,L|294:-22,1,99.0000030212403,2|4,0:2|1:2,0:0:0:0:
206,30,204212,5,2,0:2:0:0:
119,6,204394,1,4,1:2:0:0:
53,66,204576,1,2,0:2:0:0:
71,153,204758,1,4,3:2:0:0:
154,184,204939,1,0,3:2:0:0:
219,244,205121,1,2,1:3:0:0:
190,328,205303,1,8,0:2:0:0:
104,354,205485,6,0,P|67:282|80:141,1,198.000006042481,6|8,1:2|0:2,0:0:0:0:
126,98,206030,1,2,1:2:0:0:
292,163,206394,1,2,1:3:0:0:
292,163,206576,2,0,P|364:147|422:151,1,99.0000030212403,8|2,0:2|0:2,0:0:0:0:
463,195,206939,6,0,P|454:284|450:328,1,99.0000030212403,12|2,1:0|0:2,0:0:0:0:
365,359,207303,2,0,P|360:309|355:260,1,99.0000030212403,12|2,1:0|0:2,0:0:0:0:
351,236,207576,1,2,0:0:0:0:
351,236,207667,1,12,1:0:0:0:
256,376,208030,1,14,1:0:0:0:
256,192,208394,5,12,1:0:0:0:
