osu file format v14

[General]
AudioFilename: audio.mp3
AudioLeadIn: 0
PreviewTime: 63904
Countdown: 1
SampleSet: Soft
StackLeniency: 0.7
Mode: 3
LetterboxInBreaks: 0
SpecialStyle: 0
WidescreenStoryboard: 0

[Editor]
DistanceSpacing: 3
BeatDivisor: 4
GridSize: 32
TimelineZoom: 1.5

[Metadata]
Title:KUMAMIKO DANCING
TitleUnicode:KUMAMIKO DANCING
Artist:Machi Ayadori & Natsu Kumai feat.Kumaide-mura no Minasan
ArtistUnicode:雨宿まち&クマ井ナツ feat.熊出村のみなさん
Creator:Betsuto
Version:Normal
Source:くまみこ
Tags:Kuma miko Girl meets Bear
BeatmapID:951908
BeatmapSetID:442529

[Difficulty]
HPDrainRate:6
CircleSize:4
OverallDifficulty:6
ApproachRate:5
SliderMultiplier:1.4
SliderTickRate:1

[Events]
//Background and Video events
Video,0,"kumamiko.avi"
0,0,"KumaMiko.jpg",0,0
//Break Periods
//Storyboard Layer 0 (Background)
//Storyboard Layer 1 (Fail)
//Storyboard Layer 2 (Pass)
//Storyboard Layer 3 (Foreground)
//Storyboard Sound Samples

[TimingPoints]
86,363.636363636364,4,2,1,60,1,0
64086,-100,4,2,1,60,0,1
84449,-100,4,2,1,60,0,0

[HitObjects]
64,192,86,5,0,1:0:0:0:
192,192,86,1,4,0:0:0:0:
448,192,449,1,8,0:0:0:0:
448,192,1176,1,8,0:0:0:0:
64,192,1904,1,8,0:0:0:0:
64,192,2631,1,8,0:0:0:0:
320,192,3358,1,8,0:0:0:0:
320,192,4086,1,8,0:0:0:0:
192,192,4813,1,8,0:0:0:0:
192,192,5540,1,8,0:0:0:0:
320,192,5904,1,4,0:0:0:0:
448,192,5904,1,0,3:0:0:0:
64,192,6267,1,8,0:0:0:0:
448,192,6449,1,0,3:0:0:0:
448,192,6631,1,0,3:0:0:0:
64,192,6995,1,8,0:0:0:0:
192,192,7176,1,0,3:0:0:0:
192,192,7540,1,0,3:0:0:0:
320,192,7722,1,8,0:0:0:0:
192,192,7904,1,0,3:0:0:0:
192,192,8086,1,0,3:0:0:0:
320,192,8449,1,8,0:0:0:0:
64,192,8813,1,0,3:0:0:0:
320,192,9176,1,8,0:0:0:0:
64,192,9358,1,0,3:0:0:0:
64,192,9540,1,0,3:0:0:0:
320,192,9904,1,8,0:0:0:0:
448,192,10086,1,0,3:0:0:0:
448,192,10449,1,0,3:0:0:0:
192,192,10631,1,8,0:0:0:0:
448,192,10813,1,0,3:0:0:0:
448,192,10995,1,0,3:0:0:0:
192,192,11358,1,8,0:0:0:0:
320,192,11722,1,0,3:0:0:0:
64,192,12086,1,8,0:0:0:0:
320,192,12267,1,0,3:0:0:0:
320,192,12449,1,0,3:0:0:0:
64,192,12813,1,8,0:0:0:0:
192,192,12995,1,0,3:0:0:0:
192,192,13358,1,0,3:0:0:0:
448,192,13540,1,8,0:0:0:0:
192,192,13722,1,0,3:0:0:0:
192,192,13904,1,0,3:0:0:0:
448,192,14267,1,8,0:0:0:0:
192,192,14631,1,0,3:0:0:0:
320,192,14995,1,8,0:0:0:0:
192,192,15176,1,0,3:0:0:0:
192,192,15358,1,0,3:0:0:0:
320,192,15722,1,8,0:0:0:0:
64,192,15904,1,0,3:0:0:0:
64,192,16267,1,0,3:0:0:0:
448,192,16449,1,8,0:0:0:0:
64,192,16631,1,0,3:0:0:0:
64,192,16813,1,0,3:0:0:0:
320,192,16813,1,0,1:0:0:0:
448,192,17176,1,8,0:0:0:0:
192,192,17176,1,0,1:0:0:0:
64,192,17540,1,4,0:0:0:0:
320,192,17540,1,0,3:0:0:0:
448,192,17904,1,8,0:0:0:0:
320,192,18086,1,0,3:0:0:0:
320,192,18267,1,0,3:0:0:0:
448,192,18631,1,8,0:0:0:0:
192,192,18813,1,0,3:0:0:0:
192,192,19176,1,0,3:0:0:0:
64,192,19358,1,8,0:0:0:0:
192,192,19540,1,0,3:0:0:0:
192,192,19722,1,0,3:0:0:0:
64,192,20086,1,8,0:0:0:0:
448,192,20449,1,0,3:0:0:0:
64,192,20813,1,8,0:0:0:0:
448,192,20995,1,0,3:0:0:0:
448,192,21176,1,0,3:0:0:0:
64,192,21540,1,8,0:0:0:0:
320,192,21722,1,0,3:0:0:0:
320,192,22086,1,0,3:0:0:0:
192,192,22267,1,8,0:0:0:0:
320,192,22449,1,0,3:0:0:0:
320,192,22631,1,0,3:0:0:0:
192,192,22995,1,8,0:0:0:0:
64,192,23358,1,0,3:0:0:0:
320,192,23722,1,8,0:0:0:0:
64,192,23904,1,0,3:0:0:0:
64,192,24086,1,0,3:0:0:0:
320,192,24449,1,8,0:0:0:0:
192,192,24631,1,0,3:0:0:0:
192,192,24995,1,0,3:0:0:0:
448,192,25176,1,8,0:0:0:0:
192,192,25358,1,0,3:0:0:0:
192,192,25540,1,0,3:0:0:0:
448,192,25904,1,8,0:0:0:0:
64,192,26086,1,0,0:0:0:0:
320,192,26267,1,2,0:0:0:0:
192,192,27722,1,0,0:0:0:0:
320,192,27904,1,0,0:0:0:0:
448,192,28086,1,0,1:0:0:0:
320,192,28267,1,0,0:0:0:0:
192,192,28449,1,0,1:0:0:0:
64,192,28631,1,0,0:0:0:0:
192,192,28813,1,0,1:0:0:0:
320,192,28995,1,0,0:0:0:0:
448,192,29176,1,0,3:0:0:0:
64,192,29176,1,4,0:0:0:0:
320,192,29540,1,8,0:0:0:0:
64,192,29722,1,0,3:0:0:0:
192,192,29904,1,0,3:0:0:0:
448,192,30086,1,0,0:0:0:0:
320,192,30267,1,8,0:0:0:0:
192,192,30631,1,0,3:0:0:0:
64,192,30995,1,8,0:0:0:0:
320,192,31176,1,0,3:0:0:0:
192,192,31358,1,0,3:0:0:0:
448,192,31540,1,0,0:0:0:0:
64,192,31722,1,8,0:0:0:0:
320,192,32086,1,0,3:0:0:0:
64,192,32449,1,8,0:0:0:0:
448,192,32631,1,0,3:0:0:0:
192,192,32813,1,0,3:0:0:0:
320,192,33176,1,8,0:0:0:0:
64,192,33358,1,0,3:0:0:0:
448,192,33722,1,0,3:0:0:0:
320,192,33904,1,8,0:0:0:0:
64,192,34086,1,0,3:0:0:0:
192,192,34267,1,0,3:0:0:0:
320,192,34631,1,8,0:0:0:0:
448,192,34995,1,0,3:0:0:0:
192,192,35358,1,8,0:0:0:0:
320,192,35540,1,0,3:0:0:0:
192,192,35722,1,0,3:0:0:0:
448,192,35904,1,0,0:0:0:0:
64,192,36086,1,8,0:0:0:0:
320,192,36449,1,0,3:0:0:0:
64,192,36813,1,8,0:0:0:0:
320,192,36995,1,0,3:0:0:0:
192,192,37176,1,0,3:0:0:0:
448,192,37358,1,0,0:0:0:0:
64,192,37540,1,8,0:0:0:0:
448,192,37904,1,0,3:0:0:0:
192,192,38267,1,8,0:0:0:0:
320,192,38449,1,0,3:0:0:0:
64,192,38631,1,0,3:0:0:0:
192,192,38995,1,8,0:0:0:0:
448,192,39176,1,0,3:0:0:0:
448,192,39540,1,0,3:0:0:0:
192,192,39722,1,8,0:0:0:0:
320,192,39904,1,0,3:0:0:0:
64,192,40086,1,0,3:0:0:0:
192,192,40086,1,0,1:0:0:0:
320,192,40449,1,0,1:0:0:0:
448,192,40449,1,0,3:0:0:0:
64,192,40813,1,0,3:0:0:0:
448,192,40813,1,4,0:0:0:0:
320,192,41176,1,8,0:0:0:0:
192,192,41358,1,0,3:0:0:0:
448,192,41540,1,0,3:0:0:0:
64,192,41722,1,0,0:0:0:0:
320,192,41904,1,8,0:0:0:0:
192,192,42267,1,0,3:0:0:0:
64,192,42631,1,8,0:0:0:0:
448,192,42813,1,0,3:0:0:0:
192,192,42995,1,0,3:0:0:0:
320,192,43176,1,0,0:0:0:0:
64,192,43358,1,8,0:0:0:0:
320,192,43722,1,0,3:0:0:0:
64,192,44086,1,8,0:0:0:0:
192,192,44267,1,0,3:0:0:0:
320,192,44449,1,0,3:0:0:0:
448,192,44813,1,8,0:0:0:0:
320,192,44995,1,0,3:0:0:0:
192,192,45176,128,2,45904:0:0:0:0:
320,192,45904,128,2,46631:0:0:0:0:
64,192,46631,1,0,1:0:0:0:
192,192,46631,1,0,3:0:0:0:
64,192,46995,1,0,1:0:0:0:
192,192,46995,1,0,3:0:0:0:
320,192,47358,1,0,3:0:0:0:
448,192,47358,1,0,1:0:0:0:
320,192,47722,1,0,3:0:0:0:
448,192,47722,1,0,1:0:0:0:
64,192,48086,1,0,1:0:0:0:
320,192,48086,1,0,3:0:0:0:
192,192,48449,1,0,1:0:0:0:
448,192,48449,1,0,3:0:0:0:
320,192,48813,1,0,1:0:0:0:
192,192,48813,1,0,3:0:0:0:
64,192,49176,1,0,3:0:0:0:
448,192,49176,1,0,1:0:0:0:
192,192,49540,1,0,1:0:0:0:
320,192,49540,1,0,3:0:0:0:
320,192,50995,1,2,0:0:0:0:
448,192,51176,1,2,0:0:0:0:
192,192,51358,1,2,0:0:0:0:
320,192,51540,1,2,0:0:0:0:
64,192,51722,1,2,0:0:0:0:
192,192,51904,1,2,0:0:0:0:
64,192,52086,1,2,0:0:0:0:
320,192,52267,1,2,0:0:0:0:
192,192,52449,1,4,0:0:0:0:
448,192,52449,1,0,3:0:0:0:
320,192,52631,1,0,0:0:0:0:
192,192,52813,1,0,1:0:0:0:
64,192,52813,1,8,0:0:0:0:
448,192,53176,1,0,3:0:0:0:
320,192,53358,1,0,0:0:0:0:
64,192,53540,1,8,0:0:0:0:
192,192,53540,1,0,1:0:0:0:
320,192,53904,1,0,3:0:0:0:
192,192,54086,1,0,0:0:0:0:
448,192,54267,1,8,0:0:0:0:
320,192,54267,1,0,1:0:0:0:
64,192,54449,1,0,0:0:0:0:
192,192,54631,1,0,3:0:0:0:
320,192,54813,1,0,0:0:0:0:
192,192,54995,1,0,1:0:0:0:
64,192,54995,1,8,0:0:0:0:
64,192,55358,1,0,3:0:0:0:
192,192,55540,1,0,0:0:0:0:
320,192,55722,1,0,1:0:0:0:
448,192,55722,1,8,0:0:0:0:
64,192,56086,1,0,3:0:0:0:
192,192,56267,1,0,0:0:0:0:
320,192,56449,1,0,1:0:0:0:
448,192,56449,1,8,0:0:0:0:
192,192,56813,1,0,3:0:0:0:
320,192,56995,1,0,0:0:0:0:
64,192,57176,1,8,0:0:0:0:
192,192,57176,1,0,1:0:0:0:
448,192,57358,1,0,0:0:0:0:
320,192,57540,1,0,3:0:0:0:
192,192,57722,1,0,0:0:0:0:
320,192,57904,1,0,1:0:0:0:
448,192,57904,1,8,0:0:0:0:
192,192,58267,1,0,3:0:0:0:
320,192,58449,1,0,0:0:0:0:
192,192,58631,1,8,0:0:0:0:
64,192,58631,1,0,1:0:0:0:
320,192,58995,1,0,3:0:0:0:
192,192,59176,1,0,0:0:0:0:
320,192,59358,1,0,1:0:0:0:
448,192,59358,1,8,0:0:0:0:
64,192,59722,1,0,3:0:0:0:
320,192,59904,1,0,0:0:0:0:
192,192,60086,1,8,0:0:0:0:
448,192,60086,1,0,1:0:0:0:
64,192,60267,1,0,0:0:0:0:
320,192,60449,1,0,3:0:0:0:
192,192,60631,1,0,0:0:0:0:
64,192,60813,1,0,1:0:0:0:
320,192,60813,1,8,0:0:0:0:
448,192,61176,1,0,1:0:0:0:
320,192,61176,1,0,3:0:0:0:
192,192,61540,1,0,3:0:0:0:
64,192,61540,1,0,1:0:0:0:
64,192,61904,1,0,1:0:0:0:
320,192,61904,1,0,3:0:0:0:
192,192,62267,1,0,3:0:0:0:
448,192,62267,1,0,1:0:0:0:
64,192,62631,1,0,1:0:0:0:
448,192,62631,1,0,3:0:0:0:
192,192,64086,1,4,0:0:0:0:
320,192,64086,1,0,3:0:0:0:
64,192,64449,1,8,0:0:0:0:
192,192,64449,1,0,1:0:0:0:
320,192,64631,1,0,3:0:0:0:
448,192,64813,1,0,3:0:0:0:
64,192,65176,1,8,0:0:0:0:
192,192,65176,1,0,1:0:0:0:
448,192,65540,1,0,3:0:0:0:
192,192,65904,1,0,1:0:0:0:
320,192,65904,1,8,0:0:0:0:
448,192,66086,1,0,3:0:0:0:
64,192,66267,1,0,3:0:0:0:
192,192,66631,1,0,1:0:0:0:
320,192,66631,1,8,0:0:0:0:
64,192,66995,1,0,3:0:0:0:
320,192,67358,1,0,1:0:0:0:
448,192,67358,1,8,0:0:0:0:
64,192,67540,1,0,3:0:0:0:
192,192,67722,1,0,3:0:0:0:
320,192,68086,1,0,1:0:0:0:
448,192,68086,1,8,0:0:0:0:
320,192,68449,1,0,3:0:0:0:
192,192,68813,1,8,0:0:0:0:
448,192,68813,1,0,1:0:0:0:
64,192,68995,1,0,3:0:0:0:
320,192,69176,1,0,3:0:0:0:
192,192,69540,1,8,0:0:0:0:
448,192,69540,1,0,1:0:0:0:
448,192,69904,1,0,3:0:0:0:
64,192,70267,1,0,1:0:0:0:
320,192,70267,1,8,0:0:0:0:
448,192,70449,1,0,3:0:0:0:
192,192,70631,1,0,3:0:0:0:
64,192,70995,1,0,1:0:0:0:
320,192,70995,1,8,0:0:0:0:
192,192,71358,1,0,3:0:0:0:
64,192,71722,1,8,0:0:0:0:
448,192,71722,1,0,1:0:0:0:
320,192,71904,1,0,3:0:0:0:
192,192,72086,1,0,3:0:0:0:
448,192,72449,1,0,1:0:0:0:
64,192,72449,1,8,0:0:0:0:
448,192,72813,1,0,3:0:0:0:
192,192,73176,1,8,0:0:0:0:
320,192,73176,1,0,1:0:0:0:
64,192,73358,1,0,3:0:0:0:
448,192,73540,1,0,3:0:0:0:
192,192,73904,1,8,0:0:0:0:
320,192,73904,1,0,1:0:0:0:
64,192,74267,1,0,1:0:0:0:
192,192,74267,1,0,3:0:0:0:
320,192,74631,1,0,1:0:0:0:
448,192,74631,1,0,3:0:0:0:
64,192,74995,1,0,1:0:0:0:
192,192,74995,1,0,3:0:0:0:
320,192,75358,1,0,1:0:0:0:
448,192,75358,1,0,3:0:0:0:
64,192,75722,128,4,76813:0:0:0:0:
192,192,75722,1,0,3:0:0:0:
448,192,76086,1,8,0:0:0:0:
320,192,76086,1,0,1:0:0:0:
192,192,76267,1,0,3:0:0:0:
448,192,76449,1,0,3:0:0:0:
448,192,76813,1,8,0:0:0:0:
320,192,76813,1,0,1:0:0:0:
320,192,77176,1,0,3:0:0:0:
64,192,77540,1,0,1:0:0:0:
192,192,77540,1,8,0:0:0:0:
320,192,77722,1,0,3:0:0:0:
448,192,77904,1,0,3:0:0:0:
64,192,78267,1,0,1:0:0:0:
192,192,78267,1,8,0:0:0:0:
320,192,78631,1,0,3:0:0:0:
64,192,78995,1,8,0:0:0:0:
448,192,78995,1,0,1:0:0:0:
320,192,79176,1,0,3:0:0:0:
192,192,79358,1,0,3:0:0:0:
64,192,79722,1,8,0:0:0:0:
448,192,79722,1,0,1:0:0:0:
64,192,80086,1,0,3:0:0:0:
192,192,80449,1,0,1:0:0:0:
320,192,80449,1,8,0:0:0:0:
448,192,80631,1,0,3:0:0:0:
64,192,80813,1,0,3:0:0:0:
192,192,81176,1,0,1:0:0:0:
320,192,81176,1,8,0:0:0:0:
448,192,81540,1,0,3:0:0:0:
64,192,81904,1,0,1:0:0:0:
320,192,81904,1,8,0:0:0:0:
192,192,82086,1,0,3:0:0:0:
448,192,82267,1,0,3:0:0:0:
64,192,82631,1,0,1:0:0:0:
320,192,82631,1,8,0:0:0:0:
64,192,82995,1,0,3:0:0:0:
192,192,83358,1,0,1:0:0:0:
448,192,83358,1,8,0:0:0:0:
320,192,83540,1,0,3:0:0:0:
64,192,83722,1,0,3:0:0:0:
192,192,84086,1,0,1:0:0:0:
448,192,84086,1,8,0:0:0:0:
64,192,84449,1,2,0:0:0:0:
320,192,84449,1,0,1:0:0:0:
64,192,84813,1,2,0:0:0:0:
192,192,85176,1,0,1:0:0:0:
448,192,85176,1,2,0:0:0:0:
320,192,85358,1,2,0:0:0:0:
448,192,85540,1,2,0:0:0:0:
320,192,85722,1,2,0:0:0:0:
64,192,85904,1,0,3:0:0:0:
192,192,85904,1,0,1:0:0:0:
320,192,86086,1,0,1:0:0:0:
448,192,86267,1,0,1:0:0:0:
320,192,86449,1,0,1:0:0:0:
64,192,86631,1,0,1:0:0:0:
192,192,86813,1,0,1:0:0:0:
320,192,86995,1,0,1:0:0:0:
448,192,87176,1,0,1:0:0:0:
192,192,87358,1,2,0:0:0:0:
320,192,87722,1,0,1:0:0:0:
448,192,87722,1,0,3:0:0:0:
64,192,87904,1,0,3:0:0:0:
192,192,87904,1,0,1:0:0:0:
