osu file format v14

[General]
AudioFilename: waiting for the rain TV.mp3
AudioLeadIn: 0
PreviewTime: -1
Countdown: 1
SampleSet: Soft
StackLeniency: 0.7
Mode: 0
LetterboxInBreaks: 0
WidescreenStoryboard: 0

[Editor]
DistanceSpacing: 1.4
BeatDivisor: 2
GridSize: 4
TimelineZoom: 1

[Metadata]
Title:Waiting for the rain
TitleUnicode:Waiting for the rain
Artist:Maaya Sakamoto
ArtistUnicode:坂本真綾
Creator:-_-WwolowW-_-
Version:Insane
Source:学戦都市アスタリスク
Tags:gakusen toshi asterisk ending tv size kawaiwkyik
BeatmapID:842693
BeatmapSetID:385869

[Difficulty]
HPDrainRate:7
CircleSize:5
OverallDifficulty:8
ApproachRate:9.3
SliderMultiplier:0.899999999999999
SliderTickRate:1

[Events]
//Background and Video events
//Break Periods
//Storyboard Layer 0 (Background)
//Storyboard Layer 1 (Fail)
//Storyboard Layer 2 (Pass)
//Storyboard Layer 3 (Foreground)
//Storyboard Sound Samples

[TimingPoints]
748,363.636363636364,4,2,1,25,1,0
6202,-100,4,2,1,5,0,0
6475,-100,4,2,1,25,0,0
33475,-66.6666666666667,4,2,1,25,0,0

[HitObjects]
420,48,748,6,0,L|420:92,1,45
324,172,1111,2,0,L|324:236,1,45
428,288,1475,1,0,0:0:0:0:
360,344,1657,1,0,0:0:0:0:
264,340,1838,1,0,0:0:0:0:
184,280,2020,1,0,0:0:0:0:
80,328,2202,6,0,L|80:280,1,45
176,180,2566,2,0,L|176:116,1,45
84,76,2929,1,0,0:0:0:0:
164,36,3111,1,0,0:0:0:0:
264,28,3293,1,0,0:0:0:0:
352,68,3475,1,0,0:0:0:0:
232,216,3657,6,0,L|296:216,1,45
456,152,4020,2,0,L|404:152,1,45
128,120,4384,1,0,0:0:0:0:
216,76,4566,1,0,0:0:0:0:
112,212,4748,1,0,0:0:0:0:
300,48,4929,1,0,0:0:0:0:
104,260,5111,6,0,L|132:220,1,45
372,56,5475,2,0,L|340:104,1,45
296,324,5838,1,0,0:0:0:0:
288,212,6020,1,0,0:0:0:0:
224,132,6202,1,0,0:0:0:0:
136,76,6384,1,0,0:0:0:0:
136,76,6475,1,0,0:0:0:0:
136,76,6566,6,0,B|196:164|272:144|216:184|228:72|228:72|288:116|296:120,1,281.25
240,48,8020,2,0,P|232:192|252:240,1,180
256,192,8929,12,0,11293,0:0:0:0:
304,168,11838,6,0,B|280:172|280:172|244:152,1,45
408,72,12202,5,0,0:0:0:0:
408,72,12293,1,0,0:0:0:0:
408,72,12384,2,0,B|348:120|348:120|288:64|164:168,1,270
256,192,13838,12,0,17475,0:0:0:0:
264,136,17838,5,0,0:0:0:0:
200,48,18020,5,0,0:0:0:0:
96,64,18202,6,0,L|96:128,1,45
200,220,18566,2,0,L|200:280,1,45
100,244,18929,1,0,0:0:0:0:
168,148,19111,1,0,0:0:0:0:
260,104,19293,1,0,0:0:0:0:
368,144,19475,1,0,0:0:0:0:
324,312,19657,6,0,L|324:260,1,45
440,216,20020,2,0,L|440:164,1,45
448,304,20384,1,0,0:0:0:0:
356,192,20566,1,0,0:0:0:0:
256,132,20748,1,0,0:0:0:0:
168,176,20929,1,0,0:0:0:0:
352,80,21111,5,0,0:0:0:0:
84,220,21293,1,0,0:0:0:0:
224,300,21475,2,0,P|220:348|208:368,1,45
352,252,21838,2,0,P|388:284|400:320,1,45
408,80,22202,2,0,P|452:96|456:116,1,45
438,49,22566,6,0,P|398:81|372:73,1,45
388,280,22929,6,0,P|352:256|356:248,1,45
204,328,23293,2,0,P|204:280|224:264,1,45
64,168,23657,2,0,P|88:120|100:112,1,45
112,96,23929,5,0,0:0:0:0:
148,80,24020,2,0,B|180:48|284:8|424:36|424:36,1,270
272,140,25293,2,0,L|244:144,1,22.5
188,108,25475,2,0,P|264:152|320:144,1,135
392,216,26202,2,0,P|312:240|260:228,1,135
248,212,26838,1,0,0:0:0:0:
256,192,26929,12,0,29475,0:0:0:0:
120,108,29838,6,0,B|128:104|128:104|216:200|296:156,1,180
156,276,31020,1,0,0:0:0:0:
156,276,31202,2,0,B|168:328|212:336|212:336,1,67.4999999999999
200,100,31748,1,0,0:0:0:0:
324,276,32020,2,0,L|396:324,1,67.4999999999999
200,100,32475,1,0,0:0:0:0:
380,128,32748,2,0,P|432:120|388:72,1,135
96,92,33475,6,0,B|56:100|96:88|36:180,1,67.5000025749207
424,152,33838,2,0,B|448:192|432:148|448:232,1,67.5000025749207
88,284,34202,2,0,B|68:232|80:280|92:188,1,67.5000025749207
424,64,34566,2,0,B|436:100|432:64|424:152,1,67.5000025749207
68,80,34929,2,0,B|104:60|104:60|100:88,1,67.5000025749207
412,244,35293,2,0,B|360:236|416:244|424:320,1,67.5000025749207
72,80,35657,6,0,B|124:128|124:128|56:168|56:168|108:164|108:164|104:328,1,337.500012874603
292,52,36929,6,0,B|316:84|316:84|160:68|116:120,1,202.500007724762
290,340,37748,2,0,P|284:228|260:224,1,157.5
268,224,38566,2,0,P|128:80|288:144,1,539.999999999999
300,148,40202,1,0,0:0:0:0:
312,160,40384,1,0,0:0:0:0:
324,172,40566,1,0,0:0:0:0:
312,200,40748,1,0,0:0:0:0:
300,220,40929,1,0,0:0:0:0:
100,320,41111,1,0,0:0:0:0:
272,192,41293,1,0,0:0:0:0:
144,164,41475,2,0,P|192:64|152:80,1,270.000010299683
188,56,42384,1,0,0:0:0:0:
216,44,42566,1,0,0:0:0:0:
228,102,42748,5,0,0:0:0:0:
316,64,42929,1,0,0:0:0:0:
228,102,43111,1,0,0:0:0:0:
352,152,43293,1,0,0:0:0:0:
228,102,43475,1,0,0:0:0:0:
332,244,43657,1,0,0:0:0:0:
228,102,43838,1,0,0:0:0:0:
256,304,44020,1,0,0:0:0:0:
228,102,44202,1,0,0:0:0:0:
128,200,44384,5,0,0:0:0:0:
156,72,44566,1,0,0:0:0:0:
128,200,44748,1,0,0:0:0:0:
256,96,44929,1,0,0:0:0:0:
128,200,45111,1,0,0:0:0:0:
344,160,45293,1,0,0:0:0:0:
128,200,45475,1,0,0:0:0:0:
352,288,45657,1,0,0:0:0:0:
80,124,45838,2,0,L|104:104,3,22.5
128,80,46293,5,0,0:0:0:0:
168,52,46384,1,0,0:0:0:0:
216,36,46475,1,0,0:0:0:0:
264,48,46566,1,0,0:0:0:0:
300,84,46657,1,0,0:0:0:0:
332,132,46748,1,0,0:0:0:0:
368,180,46838,1,0,0:0:0:0:
400,212,46929,2,0,L|432:216,7,22.5
422,214,47384,6,0,B|376:252|396:296|396:296|340:308,1,135
152,112,48111,1,0,0:0:0:0:
336,312,48384,1,0,0:0:0:0:
88,132,48748,6,0,B|124:96|96:48|96:48|144:24,1,135
368,256,49475,1,0,0:0:0:0:
136,32,49838,1,0,0:0:0:0:
136,32,50202,6,0,B|196:64|180:96|180:96|248:80,1,135
344,40,50929,1,0,0:0:0:0:
112,304,51293,5,0,0:0:0:0:
