osu file format v14

[General]
AudioFilename: audio.mp3
AudioLeadIn: 0
PreviewTime: -1
Countdown: 1
SampleSet: Soft
StackLeniency: 0.7
Mode: 3
LetterboxInBreaks: 0
SpecialStyle: 0
WidescreenStoryboard: 1

[Editor]
DistanceSpacing: 0.85
BeatDivisor: 8
GridSize: 32
TimelineZoom: 1

[Metadata]
Title:Waiting For The Rain
TitleUnicode:Waiting For The Rain
Artist:Maaya Sakamoto
ArtistUnicode:Maaya Sakamoto
Creator:HybridLiam
Version:Rain
Source:
Tags:
BeatmapID:1371308
BeatmapSetID:647307

[Difficulty]
HPDrainRate:8
CircleSize:5
OverallDifficulty:7.8
ApproachRate:5
SliderMultiplier:1.4
SliderTickRate:1

[Events]
//Background and Video events
0,0,"background.jpg",0,0
//Break Periods
//Storyboard Layer 0 (Background)
//Storyboard Layer 1 (Fail)
//Storyboard Layer 2 (Pass)
//Storyboard Layer 3 (Foreground)
//Storyboard Sound Samples

[TimingPoints]
653,722.89156626506,4,2,0,20,1,0
18002,750,4,2,0,20,1,0
21002,722.89156626506,4,2,0,20,1,0
23893,731.707317073171,4,2,0,20,1,0
29746,722.89156626506,4,2,0,20,1,0
35529,731.707317073171,4,2,0,20,1,0
41382,722.89156626506,4,2,0,20,1,0
47165,731.707317073171,4,2,0,20,1,0
53018,722.89156626506,4,2,0,20,1,0
58801,731.707317073171,4,2,0,20,1,0
64654,722.89156626506,4,2,0,20,1,0
70437,731.707317073171,4,2,0,20,1,0
76290,722.89156626506,4,2,0,20,1,0
82073,731.707317073171,4,2,0,20,1,0
87925,722.89156626506,4,2,0,20,1,0
92986,731.707317073171,4,2,0,20,1,0
93717,731.707317073171,4,2,0,20,1,0
99561,722.89156626506,4,2,0,20,1,0
105344,731.707317073171,4,2,0,20,1,0
111197,722.89156626506,4,2,0,20,1,0
116980,731.707317073171,4,2,0,20,1,0
122833,722.89156626506,4,2,0,20,1,0
128616,731.707317073171,4,2,0,20,1,0
134469,722.89156626506,4,2,0,20,1,0
140252,731.707317073171,4,2,0,20,1,0
146105,722.89156626506,4,2,0,20,1,0
151888,731.707317073171,4,2,0,20,1,0
157741,722.89156626506,4,2,0,20,1,0
163524,731.707317073171,4,2,0,20,1,0
169377,722.89156626506,4,2,0,20,1,0
175160,731.707317073171,4,2,0,20,1,0
181013,731.707317073171,4,2,0,20,1,0
186134,722.89156626506,4,2,0,20,1,0
189748,731.707317073171,4,2,0,20,1,0
195601,722.89156626506,4,2,0,20,1,0
201384,731.707317073171,4,2,0,20,1,0
207237,722.89156626506,4,2,0,20,1,0
213020,731.707317073171,4,2,0,20,1,0
218873,722.89156626506,4,2,0,20,1,0
224656,731.707317073171,4,2,0,20,1,0
230509,722.89156626506,4,2,0,20,1,0
236292,731.707317073171,4,2,0,20,1,0
242145,722.89156626506,4,2,0,20,1,0
245036,750,4,2,0,20,1,0

[HitObjects]
153,192,653,5,0,0:0:0:0:
460,192,653,1,0,0:0:0:0:
51,192,833,1,0,0:0:0:0:
153,192,1014,1,0,0:0:0:0:
358,192,1014,1,0,0:0:0:0:
51,192,1195,1,0,0:0:0:0:
153,192,1375,1,0,0:0:0:0:
256,192,1375,1,0,0:0:0:0:
51,192,1556,1,0,0:0:0:0:
153,192,1737,1,0,0:0:0:0:
256,192,1918,1,0,0:0:0:0:
153,192,2098,1,0,0:0:0:0:
460,192,2098,1,0,0:0:0:0:
51,192,2279,1,0,0:0:0:0:
153,192,2460,1,0,0:0:0:0:
358,192,2460,1,0,0:0:0:0:
51,192,2640,1,0,0:0:0:0:
153,192,2821,1,0,0:0:0:0:
256,192,2821,1,0,0:0:0:0:
51,192,3002,1,0,0:0:0:0:
153,192,3183,1,0,0:0:0:0:
256,192,3363,1,0,0:0:0:0:
460,192,3544,1,0,0:0:0:0:
51,192,3725,1,0,0:0:0:0:
153,192,3906,1,0,0:0:0:0:
358,192,3906,1,0,0:0:0:0:
51,192,4086,1,0,0:0:0:0:
153,192,4267,1,0,0:0:0:0:
256,192,4267,1,0,0:0:0:0:
51,192,4448,1,0,0:0:0:0:
153,192,4628,1,0,0:0:0:0:
256,192,4809,1,0,0:0:0:0:
460,192,4990,1,0,0:0:0:0:
51,192,5171,1,0,0:0:0:0:
153,192,5351,1,0,0:0:0:0:
358,192,5351,1,0,0:0:0:0:
51,192,5532,1,0,0:0:0:0:
153,192,5713,1,0,0:0:0:0:
256,192,5713,1,0,0:0:0:0:
51,192,5893,1,0,0:0:0:0:
153,192,6074,1,0,0:0:0:0:
256,192,6255,1,0,0:0:0:0:
51,192,6436,1,0,0:0:0:0:
358,192,6436,1,0,0:0:0:0:
460,192,6616,1,0,0:0:0:0:
358,192,6797,1,0,0:0:0:0:
153,192,6797,1,0,0:0:0:0:
460,192,6978,1,0,0:0:0:0:
256,192,7159,1,0,0:0:0:0:
358,192,7159,1,0,0:0:0:0:
460,192,7339,1,0,0:0:0:0:
358,192,7520,1,0,0:0:0:0:
256,192,7701,1,0,0:0:0:0:
358,192,7881,1,0,0:0:0:0:
51,192,7881,1,0,0:0:0:0:
460,192,8062,1,0,0:0:0:0:
153,192,8243,1,0,0:0:0:0:
358,192,8243,1,0,0:0:0:0:
460,192,8424,1,0,0:0:0:0:
256,192,8604,1,0,0:0:0:0:
358,192,8604,1,0,0:0:0:0:
460,192,8785,1,0,0:0:0:0:
358,192,8966,1,0,0:0:0:0:
256,192,9146,1,0,0:0:0:0:
51,192,9327,1,0,0:0:0:0:
460,192,9508,1,0,0:0:0:0:
153,192,9689,1,0,0:0:0:0:
358,192,9689,1,0,0:0:0:0:
460,192,9869,1,0,0:0:0:0:
256,192,10050,1,0,0:0:0:0:
358,192,10050,1,0,0:0:0:0:
460,192,10231,1,0,0:0:0:0:
358,192,10412,1,0,0:0:0:0:
256,192,10592,1,0,0:0:0:0:
51,192,10773,1,0,0:0:0:0:
460,192,10954,1,0,0:0:0:0:
153,192,11134,1,0,0:0:0:0:
358,192,11134,1,0,0:0:0:0:
460,192,11315,1,0,0:0:0:0:
256,192,11496,1,0,0:0:0:0:
358,192,11496,1,0,0:0:0:0:
460,192,11677,1,0,0:0:0:0:
358,192,11857,1,0,0:0:0:0:
256,192,12038,1,0,0:0:0:0:
153,192,12219,1,0,0:0:0:0:
51,192,12219,1,0,0:0:0:0:
460,192,12399,1,0,0:0:0:0:
153,192,12580,1,0,0:0:0:0:
256,192,12580,1,0,0:0:0:0:
460,192,12761,1,0,0:0:0:0:
256,192,12942,1,0,0:0:0:0:
358,192,12942,1,0,0:0:0:0:
460,192,13122,1,0,0:0:0:0:
358,192,13303,1,0,0:0:0:0:
256,192,13484,1,0,0:0:0:0:
153,192,13665,1,0,0:0:0:0:
51,192,13665,1,0,0:0:0:0:
460,192,13845,1,0,0:0:0:0:
153,192,14026,1,0,0:0:0:0:
256,192,14026,1,0,0:0:0:0:
460,192,14207,1,0,0:0:0:0:
256,192,14387,1,0,0:0:0:0:
358,192,14387,1,0,0:0:0:0:
460,192,14568,1,0,0:0:0:0:
358,192,14749,1,0,0:0:0:0:
256,192,14930,1,0,0:0:0:0:
51,192,15110,1,0,0:0:0:0:
460,192,15291,1,0,0:0:0:0:
153,192,15472,1,0,0:0:0:0:
256,192,15472,1,0,0:0:0:0:
460,192,15652,1,0,0:0:0:0:
51,192,15833,1,0,0:0:0:0:
358,192,15833,1,0,0:0:0:0:
460,192,16014,1,0,0:0:0:0:
358,192,16195,1,0,0:0:0:0:
256,192,16375,1,0,0:0:0:0:
51,192,16556,1,0,0:0:0:0:
460,192,16737,1,0,0:0:0:0:
153,192,16918,1,0,0:0:0:0:
256,192,16918,1,0,0:0:0:0:
460,192,17098,1,0,0:0:0:0:
51,192,17279,1,0,0:0:0:0:
358,192,17279,1,0,0:0:0:0:
460,192,17460,1,0,0:0:0:0:
358,192,17640,1,0,0:0:0:0:
256,192,17821,1,0,0:0:0:0:
358,192,18002,1,0,0:0:0:0:
460,192,18002,1,0,0:0:0:0:
51,192,18189,1,0,0:0:0:0:
256,192,18377,1,0,0:0:0:0:
358,192,18377,1,0,0:0:0:0:
51,192,18564,1,0,0:0:0:0:
256,192,18752,1,0,0:0:0:0:
153,192,18752,1,0,0:0:0:0:
51,192,18939,1,0,0:0:0:0:
153,192,19127,1,0,0:0:0:0:
256,192,19314,1,0,0:0:0:0:
460,192,19502,1,0,0:0:0:0:
358,192,19502,1,0,0:0:0:0:
51,192,19689,1,0,0:0:0:0:
358,192,19877,1,0,0:0:0:0:
256,192,19877,1,0,0:0:0:0:
51,192,20064,1,0,0:0:0:0:
256,192,20252,1,0,0:0:0:0:
153,192,20252,1,0,0:0:0:0:
51,192,20439,1,0,0:0:0:0:
153,192,20627,1,0,0:0:0:0:
256,192,20814,1,0,0:0:0:0:
460,192,21002,1,0,0:0:0:0:
51,192,21002,1,0,0:0:0:0:
358,192,21182,1,0,0:0:0:0:
460,192,21363,1,0,0:0:0:0:
358,192,21544,1,0,0:0:0:0:
460,192,21724,1,0,0:0:0:0:
51,192,21724,1,0,0:0:0:0:
153,192,21905,1,0,0:0:0:0:
256,192,22086,1,0,0:0:0:0:
358,192,22267,1,0,0:0:0:0:
460,192,22447,1,0,0:0:0:0:
51,192,22447,1,0,0:0:0:0:
153,192,22628,1,0,0:0:0:0:
51,192,22809,1,0,0:0:0:0:
153,192,22989,1,0,0:0:0:0:
51,192,23170,1,0,0:0:0:0:
460,192,23170,1,0,0:0:0:0:
358,192,23351,1,0,0:0:0:0:
256,192,23532,1,0,0:0:0:0:
153,192,23712,1,0,0:0:0:0:
51,192,23893,128,0,26636:0:0:0:0:
153,192,24075,128,0,26636:0:0:0:0:
256,192,24258,128,0,26636:0:0:0:0:
256,192,26819,128,0,29563:0:0:0:0:
358,192,27002,128,0,29563:0:0:0:0:
460,192,27185,128,0,29563:0:0:0:0:
358,192,29746,128,0,32456:0:0:0:0:
51,192,29926,128,0,32456:0:0:0:0:
153,192,30107,128,0,32456:0:0:0:0:
153,192,32637,128,0,35348:0:0:0:0:
256,192,32818,128,0,35348:0:0:0:0:
358,192,32999,128,0,35348:0:0:0:0:
51,192,35529,128,0,38272:0:0:0:0:
358,192,35711,128,0,38272:0:0:0:0:
460,192,35894,128,0,38272:0:0:0:0:
153,192,38455,128,0,41199:0:0:0:0:
256,192,38638,128,0,41199:0:0:0:0:
460,192,38821,128,0,41199:0:0:0:0:
51,192,41382,128,0,46984:0:0:0:0:
460,192,41382,128,0,46984:0:0:0:0:
153,192,44273,128,0,46984:0:0:0:0:
358,192,44273,128,0,46984:0:0:0:0:
460,192,47165,1,0,0:0:0:0:
153,192,47165,1,0,0:0:0:0:
51,192,47165,128,0,50091:0:0:0:0:
358,192,47347,1,0,0:0:0:0:
256,192,47530,1,0,0:0:0:0:
153,192,47713,1,0,0:0:0:0:
256,192,47896,1,0,0:0:0:0:
358,192,48079,1,0,0:0:0:0:
460,192,48262,128,0,48445:0:0:0:0:
358,192,48445,128,0,48628:0:0:0:0:
153,192,48628,1,0,0:0:0:0:
256,192,48811,1,0,0:0:0:0:
358,192,48994,1,0,0:0:0:0:
460,192,49177,1,0,0:0:0:0:
358,192,49360,1,0,0:0:0:0:
256,192,49543,1,0,0:0:0:0:
153,192,49725,128,0,49908:0:0:0:0:
256,192,49908,128,0,50091:0:0:0:0:
153,192,50091,128,0,53018:0:0:0:0:
460,192,50091,1,0,0:0:0:0:
358,192,50274,1,0,0:0:0:0:
256,192,50457,1,0,0:0:0:0:
51,192,50640,1,0,0:0:0:0:
256,192,50823,1,0,0:0:0:0:
358,192,51006,1,0,0:0:0:0:
460,192,51189,128,0,51372:0:0:0:0:
358,192,51372,128,0,51555:0:0:0:0:
51,192,51555,1,0,0:0:0:0:
256,192,51738,1,0,0:0:0:0:
358,192,51921,1,0,0:0:0:0:
460,192,52104,1,0,0:0:0:0:
358,192,52286,1,0,0:0:0:0:
256,192,52469,1,0,0:0:0:0:
51,192,52652,128,0,52835:0:0:0:0:
256,192,52835,128,0,53018:0:0:0:0:
358,192,53018,128,0,55909:0:0:0:0:
460,192,53018,1,0,0:0:0:0:
256,192,53198,1,0,0:0:0:0:
153,192,53379,1,0,0:0:0:0:
51,192,53560,1,0,0:0:0:0:
153,192,53740,1,0,0:0:0:0:
256,192,53921,1,0,0:0:0:0:
460,192,54102,128,0,54283:0:0:0:0:
256,192,54283,128,0,54463:0:0:0:0:
51,192,54463,1,0,0:0:0:0:
153,192,54644,1,0,0:0:0:0:
256,192,54825,1,0,0:0:0:0:
460,192,55005,1,0,0:0:0:0:
256,192,55186,1,0,0:0:0:0:
153,192,55367,1,0,0:0:0:0:
51,192,55548,128,0,55728:0:0:0:0:
153,192,55728,128,0,55909:0:0:0:0:
460,192,55909,128,0,58801:0:0:0:0:
51,192,55909,1,0,0:0:0:0:
153,192,56090,1,0,0:0:0:0:
256,192,56271,1,0,0:0:0:0:
358,192,56451,1,0,0:0:0:0:
256,192,56632,1,0,0:0:0:0:
153,192,56813,1,0,0:0:0:0:
51,192,56993,128,0,57174:0:0:0:0:
153,192,57174,128,0,57355:0:0:0:0:
358,192,57355,1,0,0:0:0:0:
256,192,57536,1,0,0:0:0:0:
153,192,57716,1,0,0:0:0:0:
51,192,57897,1,0,0:0:0:0:
153,192,58078,1,0,0:0:0:0:
256,192,58258,1,0,0:0:0:0:
358,192,58439,128,0,58620:0:0:0:0:
256,192,58620,128,0,58801:0:0:0:0:
51,192,58801,128,0,61727:0:0:0:0:
153,192,58801,1,0,0:0:0:0:
256,192,58983,1,0,0:0:0:0:
358,192,59166,1,0,0:0:0:0:
460,192,59349,1,0,0:0:0:0:
358,192,59532,1,0,0:0:0:0:
256,192,59715,1,0,0:0:0:0:
153,192,59898,128,0,60081:0:0:0:0:
256,192,60081,128,0,60264:0:0:0:0:
460,192,60264,1,0,0:0:0:0:
358,192,60447,1,0,0:0:0:0:
256,192,60630,1,0,0:0:0:0:
153,192,60813,1,0,0:0:0:0:
256,192,60996,1,0,0:0:0:0:
358,192,61179,1,0,0:0:0:0:
460,192,61361,128,0,61544:0:0:0:0:
358,192,61544,128,0,61727:0:0:0:0:
153,192,61727,128,0,64654:0:0:0:0:
256,192,61727,1,0,0:0:0:0:
51,192,61910,1,0,0:0:0:0:
256,192,62093,1,0,0:0:0:0:
358,192,62276,1,0,0:0:0:0:
460,192,62459,1,0,0:0:0:0:
358,192,62642,1,0,0:0:0:0:
256,192,62825,128,0,63008:0:0:0:0:
51,192,63008,128,0,63191:0:0:0:0:
256,192,63191,1,0,0:0:0:0:
460,192,63374,1,0,0:0:0:0:
358,192,63557,1,0,0:0:0:0:
256,192,63740,1,0,0:0:0:0:
51,192,63922,1,0,0:0:0:0:
256,192,64105,1,0,0:0:0:0:
358,192,64288,128,0,64471:0:0:0:0:
460,192,64471,128,0,64654:0:0:0:0:
256,192,64654,128,0,67545:0:0:0:0:
51,192,64654,1,0,0:0:0:0:
153,192,64834,1,0,0:0:0:0:
358,192,65015,1,0,0:0:0:0:
460,192,65196,1,0,0:0:0:0:
358,192,65376,1,0,0:0:0:0:
153,192,65557,1,0,0:0:0:0:
51,192,65738,128,0,65919:0:0:0:0:
153,192,65919,128,0,66099:0:0:0:0:
460,192,66099,1,0,0:0:0:0:
358,192,66280,1,0,0:0:0:0:
153,192,66461,1,0,0:0:0:0:
51,192,66641,1,0,0:0:0:0:
153,192,66822,1,0,0:0:0:0:
358,192,67003,1,0,0:0:0:0:
460,192,67184,128,0,67364:0:0:0:0:
358,192,67364,128,0,67545:0:0:0:0:
153,192,67545,128,0,67726:0:0:0:0:
51,192,67726,128,0,67907:0:0:0:0:
256,192,67907,128,0,68087:0:0:0:0:
153,192,68087,128,0,68268:0:0:0:0:
358,192,68268,128,0,68449:0:0:0:0:
256,192,68449,128,0,68629:0:0:0:0:
358,192,68629,128,0,68810:0:0:0:0:
460,192,68810,128,0,68991:0:0:0:0:
358,192,68991,128,0,69172:0:0:0:0:
460,192,69172,128,0,69352:0:0:0:0:
256,192,69352,128,0,69533:0:0:0:0:
358,192,69533,128,0,69714:0:0:0:0:
153,192,69714,128,0,69894:0:0:0:0:
256,192,69894,128,0,70075:0:0:0:0:
153,192,70075,128,0,70256:0:0:0:0:
51,192,70256,128,0,70437:0:0:0:0:
460,192,70437,128,0,72997:0:0:0:0:
358,192,70437,128,0,72997:0:0:0:0:
51,192,70802,1,0,0:0:0:0:
153,192,70802,1,0,0:0:0:0:
256,192,71534,1,0,0:0:0:0:
51,192,71534,1,0,0:0:0:0:
153,192,71900,128,0,72997:0:0:0:0:
51,192,71900,128,0,72997:0:0:0:0:
256,192,72997,128,0,73363:0:0:0:0:
153,192,73363,128,0,75924:0:0:0:0:
460,192,73363,128,0,75924:0:0:0:0:
358,192,73729,1,0,0:0:0:0:
256,192,73729,1,0,0:0:0:0:
358,192,74461,1,0,0:0:0:0:
51,192,74461,1,0,0:0:0:0:
256,192,74827,128,0,75924:0:0:0:0:
51,192,74827,128,0,75924:0:0:0:0:
358,192,75924,1,0,0:0:0:0:
460,192,76290,128,0,77735:0:0:0:0:
256,192,76290,1,0,0:0:0:0:
358,192,77012,128,0,77735:0:0:0:0:
153,192,77012,1,0,0:0:0:0:
256,192,77735,128,0,79181:0:0:0:0:
51,192,77735,1,0,0:0:0:0:
358,192,78458,1,0,0:0:0:0:
153,192,78458,128,0,79181:0:0:0:0:
51,192,79181,128,0,81350:0:0:0:0:
460,192,79181,128,0,81350:0:0:0:0:
256,192,81350,128,0,82073:0:0:0:0:
153,192,81350,128,0,82073:0:0:0:0:
358,192,81711,128,0,82804:0:0:0:0:
460,192,82073,128,0,82804:0:0:0:0:
51,192,82804,128,0,84268:0:0:0:0:
153,192,82804,1,0,0:0:0:0:
153,192,84268,128,0,84999:0:0:0:0:
358,192,84268,128,0,84633:0:0:0:0:
460,192,84633,128,0,84999:0:0:0:0:
358,192,84999,128,0,87194:0:0:0:0:
256,192,84999,1,0,0:0:0:0:
51,192,84999,1,0,0:0:0:0:
153,192,87194,128,0,87925:0:0:0:0:
256,192,87560,128,0,87925:0:0:0:0:
51,192,87925,1,0,0:0:0:0:
358,192,87925,1,0,0:0:0:0:
460,192,87925,128,0,92443:0:0:0:0:
51,192,89010,1,0,0:0:0:0:
153,192,89010,1,0,0:0:0:0:
256,192,89055,1,0,0:0:0:0:
358,192,89055,1,0,0:0:0:0:
51,192,89552,1,0,0:0:0:0:
153,192,89552,1,0,0:0:0:0:
256,192,89733,1,0,0:0:0:0:
358,192,89733,1,0,0:0:0:0:
51,192,90094,1,0,0:0:0:0:
153,192,90094,1,0,0:0:0:0:
51,192,90636,1,0,0:0:0:0:
153,192,90696,1,0,0:0:0:0:
256,192,90756,1,0,0:0:0:0:
51,192,90816,1,0,0:0:0:0:
358,192,90816,1,0,0:0:0:0:
256,192,90997,1,0,0:0:0:0:
153,192,90998,1,0,0:0:0:0:
51,192,91358,1,0,0:0:0:0:
153,192,91358,1,0,0:0:0:0:
51,192,91721,1,0,0:0:0:0:
358,192,91721,1,0,0:0:0:0:
51,192,92082,1,0,0:0:0:0:
256,192,92082,1,0,0:0:0:0:
51,192,92263,1,0,0:0:0:0:
153,192,92263,1,0,0:0:0:0:
256,192,92443,1,0,0:0:0:0:
358,192,92443,1,0,0:0:0:0:
153,192,92624,1,0,0:0:0:0:
358,192,92624,1,0,0:0:0:0:
51,192,92805,1,0,0:0:0:0:
256,192,92805,1,0,0:0:0:0:
460,192,92805,128,0,92986:0:0:0:0:
51,192,92986,1,0,0:0:0:0:
153,192,92986,128,0,93168:0:0:0:0:
256,192,93168,1,0,0:0:0:0:
358,192,93168,128,0,93351:0:0:0:0:
153,192,93351,1,0,0:0:0:0:
51,192,93351,128,0,93534:0:0:0:0:
358,192,93534,1,0,0:0:0:0:
256,192,93534,128,0,94449:0:0:0:0:
153,192,93717,1,0,0:0:0:0:
51,192,93717,1,0,0:0:0:0:
460,192,93717,1,0,0:0:0:0:
358,192,93717,1,0,0:0:0:0:
358,192,94449,1,0,0:0:0:0:
460,192,94449,1,0,0:0:0:0:
51,192,94815,128,0,95181:0:0:0:0:
153,192,94815,128,0,95181:0:0:0:0:
256,192,94815,128,0,95181:0:0:0:0:
358,192,94815,128,0,95181:0:0:0:0:
51,192,95729,1,0,0:0:0:0:
460,192,95912,1,0,0:0:0:0:
153,192,95912,1,0,0:0:0:0:
358,192,95912,128,0,96644:0:0:0:0:
256,192,95912,1,0,0:0:0:0:
256,192,96278,128,0,96644:0:0:0:0:
153,192,96644,1,0,0:0:0:0:
51,192,96644,128,0,97010:0:0:0:0:
153,192,97010,128,0,97376:0:0:0:0:
460,192,97010,1,0,0:0:0:0:
256,192,97375,128,0,97558:0:0:0:0:
460,192,97376,1,0,0:0:0:0:
358,192,97376,1,0,0:0:0:0:
153,192,97558,128,0,97741:0:0:0:0:
358,192,97559,1,0,0:0:0:0:
460,192,97742,1,0,0:0:0:0:
51,192,97742,128,0,98473:0:0:0:0:
460,192,98656,1,0,0:0:0:0:
153,192,98656,128,0,98838:0:0:0:0:
460,192,98838,128,0,99021:0:0:0:0:
256,192,98839,1,0,0:0:0:0:
358,192,98839,1,0,0:0:0:0:
153,192,99019,1,0,0:0:0:0:
51,192,99021,128,0,99204:0:0:0:0:
358,192,99204,1,0,0:0:0:0:
256,192,99204,128,0,99387:0:0:0:0:
460,192,99381,128,0,100104:0:0:0:0:
51,192,99381,1,0,0:0:0:0:
51,192,99561,1,0,0:0:0:0:
153,192,99561,1,0,0:0:0:0:
153,192,100104,1,0,0:0:0:0:
358,192,100104,1,0,0:0:0:0:
256,192,100283,1,0,0:0:0:0:
460,192,100284,1,0,0:0:0:0:
51,192,100284,128,0,101007:0:0:0:0:
358,192,100465,1,0,0:0:0:0:
153,192,100465,1,0,0:0:0:0:
153,192,100645,128,0,101006:0:0:0:0:
358,192,100645,128,0,101006:0:0:0:0:
460,192,100645,128,0,101006:0:0:0:0:
256,192,100646,1,0,0:0:0:0:
256,192,101007,128,0,101730:0:0:0:0:
51,192,101730,128,0,102453:0:0:0:0:
153,192,101730,1,0,0:0:0:0:
358,192,101730,1,0,0:0:0:0:
153,192,102453,1,0,0:0:0:0:
358,192,102453,128,0,102814:0:0:0:0:
51,192,102814,1,0,0:0:0:0:
256,192,102814,128,0,102995:0:0:0:0:
153,192,102995,1,0,0:0:0:0:
460,192,102995,128,0,104260:0:0:0:0:
256,192,103176,1,0,0:0:0:0:
51,192,103176,1,0,0:0:0:0:
358,192,103176,1,0,0:0:0:0:
153,192,103537,1,0,0:0:0:0:
51,192,103537,1,0,0:0:0:0:
153,192,104079,1,0,0:0:0:0:
358,192,104079,1,0,0:0:0:0:
358,192,104440,1,0,0:0:0:0:
51,192,104440,128,0,104621:0:0:0:0:
256,192,104621,1,0,0:0:0:0:
153,192,104621,128,0,104801:0:0:0:0:
460,192,104801,128,0,104982:0:0:0:0:
51,192,104802,1,0,0:0:0:0:
358,192,104982,128,0,105344:0:0:0:0:
256,192,104983,1,0,0:0:0:0:
153,192,105164,1,0,0:0:0:0:
51,192,105164,1,0,0:0:0:0:
460,192,105344,1,0,0:0:0:0:
256,192,105344,128,0,106075:0:0:0:0:
51,192,105345,1,0,0:0:0:0:
51,192,106075,1,0,0:0:0:0:
153,192,106075,1,0,0:0:0:0:
358,192,106075,1,0,0:0:0:0:
51,192,106441,128,0,106807:0:0:0:0:
256,192,106441,128,0,106807:0:0:0:0:
358,192,106441,128,0,106807:0:0:0:0:
460,192,106441,128,0,106807:0:0:0:0:
358,192,107539,1,0,0:0:0:0:
153,192,107539,128,0,107904:0:0:0:0:
256,192,107539,1,0,0:0:0:0:
358,192,107904,128,0,108270:0:0:0:0:
153,192,108270,1,0,0:0:0:0:
51,192,108270,128,0,108636:0:0:0:0:
460,192,108636,128,0,109002:0:0:0:0:
256,192,108636,1,0,0:0:0:0:
51,192,109002,1,0,0:0:0:0:
153,192,109002,1,0,0:0:0:0:
358,192,109002,128,0,109185:0:0:0:0:
153,192,109185,1,0,0:0:0:0:
256,192,109185,128,0,109368:0:0:0:0:
51,192,109368,1,0,0:0:0:0:
358,192,109368,1,0,0:0:0:0:
460,192,109368,128,0,109734:0:0:0:0:
51,192,110100,128,0,110283:0:0:0:0:
153,192,110283,128,0,110465:0:0:0:0:
256,192,110465,1,0,0:0:0:0:
460,192,110465,128,0,110648:0:0:0:0:
51,192,110465,1,0,0:0:0:0:
358,192,110648,128,0,110831:0:0:0:0:
153,192,110648,1,0,0:0:0:0:
256,192,110831,128,0,111014:0:0:0:0:
51,192,110831,1,0,0:0:0:0:
153,192,111014,128,0,111919:0:0:0:0:
460,192,111014,1,0,0:0:0:0:
358,192,111197,5,0,0:0:0:0:
256,192,111197,1,0,0:0:0:0:
51,192,111558,1,0,0:0:0:0:
460,192,111558,1,0,0:0:0:0:
358,192,111739,1,0,0:0:0:0:
460,192,111739,1,0,0:0:0:0:
51,192,111919,128,0,112642:0:0:0:0:
256,192,111919,1,0,0:0:0:0:
153,192,112100,1,0,0:0:0:0:
460,192,112100,1,0,0:0:0:0:
460,192,112281,1,0,0:0:0:0:
153,192,112281,128,0,112642:0:0:0:0:
256,192,112281,128,0,112642:0:0:0:0:
358,192,112281,128,0,112642:0:0:0:0:
460,192,112642,128,0,113365:0:0:0:0:
256,192,113365,128,0,113727:0:0:0:0:
51,192,113365,1,0,0:0:0:0:
358,192,113365,1,0,0:0:0:0:
358,192,113727,128,0,116257:0:0:0:0:
153,192,114088,1,0,0:0:0:0:
51,192,114088,1,0,0:0:0:0:
51,192,114811,1,0,0:0:0:0:
256,192,114811,1,0,0:0:0:0:
460,192,114811,1,0,0:0:0:0:
51,192,115534,1,0,0:0:0:0:
153,192,115534,1,0,0:0:0:0:
51,192,116257,1,0,0:0:0:0:
460,192,116257,128,0,116437:0:0:0:0:
153,192,116257,1,0,0:0:0:0:
358,192,116437,128,0,116618:0:0:0:0:
256,192,116437,1,0,0:0:0:0:
153,192,116618,128,0,116980:0:0:0:0:
51,192,116618,1,0,0:0:0:0:
460,192,116980,128,0,119175:0:0:0:0:
51,192,116980,128,0,119175:0:0:0:0:
153,192,119175,128,0,119540:0:0:0:0:
358,192,119175,128,0,119540:0:0:0:0:
256,192,119540,128,0,126447:0:0:0:0:
51,192,123917,128,0,124278:0:0:0:0:
460,192,124278,128,0,125363:0:0:0:0:
358,192,125363,128,0,125724:0:0:0:0:
153,192,125724,128,0,128616:0:0:0:0:
51,192,126447,128,0,127170:0:0:0:0:
358,192,127170,128,0,128616:0:0:0:0:
460,192,127531,128,0,131268:0:0:0:0:
256,192,128616,128,0,130994:0:0:0:0:
51,192,129713,128,0,130079:0:0:0:0:
153,192,130079,128,0,130262:0:0:0:0:
358,192,130262,128,0,130628:0:0:0:0:
153,192,130628,128,0,130811:0:0:0:0:
51,192,130902,1,0,0:0:0:0:
153,192,130994,1,0,0:0:0:0:
358,192,131268,1,0,0:0:0:0:
256,192,131359,128,0,134649:0:0:0:0:
358,192,133006,128,0,142812:0:0:0:0:
51,192,134469,128,0,135011:0:0:0:0:
153,192,134649,128,0,135191:0:0:0:0:
256,192,134830,128,0,142812:0:0:0:0:
460,192,135372,1,0,0:0:0:0:
51,192,135553,1,0,0:0:0:0:
153,192,135734,1,0,0:0:0:0:
460,192,135914,128,0,136456:0:0:0:0:
153,192,136456,1,0,0:0:0:0:
51,192,136637,128,0,137179:0:0:0:0:
460,192,137179,1,0,0:0:0:0:
153,192,137360,128,0,142812:0:0:0:0:
51,192,137902,1,0,0:0:0:0:
460,192,138083,128,0,142812:0:0:0:0:
51,192,142447,1,0,0:0:0:0:
51,192,142812,1,0,0:0:0:0:
460,192,142995,1,0,0:0:0:0:
358,192,143087,1,0,0:0:0:0:
256,192,143178,1,0,0:0:0:0:
51,192,143178,1,0,0:0:0:0:
153,192,143178,128,0,145008:0:0:0:0:
358,192,143910,1,0,0:0:0:0:
460,192,143910,1,0,0:0:0:0:
51,192,143910,1,0,0:0:0:0:
51,192,144276,1,0,0:0:0:0:
256,192,144276,1,0,0:0:0:0:
153,192,145373,1,0,0:0:0:0:
358,192,145373,1,0,0:0:0:0:
460,192,145373,1,0,0:0:0:0:
256,192,146105,128,0,147912:0:0:0:0:
153,192,146105,1,0,0:0:0:0:
51,192,146105,1,0,0:0:0:0:
153,192,146827,1,0,0:0:0:0:
358,192,146827,1,0,0:0:0:0:
460,192,146827,1,0,0:0:0:0:
358,192,147189,1,0,0:0:0:0:
51,192,147189,1,0,0:0:0:0:
153,192,148273,1,0,0:0:0:0:
256,192,148273,1,0,0:0:0:0:
358,192,148273,1,0,0:0:0:0:
358,192,148996,128,0,150803:0:0:0:0:
51,192,148996,1,0,0:0:0:0:
153,192,148996,1,0,0:0:0:0:
51,192,149719,1,0,0:0:0:0:
256,192,149719,1,0,0:0:0:0:
460,192,149719,1,0,0:0:0:0:
51,192,150080,1,0,0:0:0:0:
153,192,150080,1,0,0:0:0:0:
153,192,151165,1,0,0:0:0:0:
358,192,151165,1,0,0:0:0:0:
460,192,151165,1,0,0:0:0:0:
51,192,151888,128,0,153717:0:0:0:0:
153,192,151888,1,0,0:0:0:0:
460,192,151888,1,0,0:0:0:0:
256,192,152619,1,0,0:0:0:0:
358,192,152619,1,0,0:0:0:0:
460,192,152619,1,0,0:0:0:0:
153,192,152985,1,0,0:0:0:0:
460,192,152985,1,0,0:0:0:0:
51,192,154083,1,0,0:0:0:0:
256,192,154083,1,0,0:0:0:0:
358,192,154083,1,0,0:0:0:0:
256,192,154448,1,0,0:0:0:0:
460,192,154448,1,0,0:0:0:0:
153,192,154631,1,0,0:0:0:0:
358,192,154631,1,0,0:0:0:0:
51,192,154814,1,0,0:0:0:0:
460,192,154814,1,0,0:0:0:0:
256,192,154814,128,0,156644:0:0:0:0:
153,192,155546,1,0,0:0:0:0:
460,192,155546,1,0,0:0:0:0:
358,192,155546,1,0,0:0:0:0:
358,192,155912,1,0,0:0:0:0:
51,192,155912,1,0,0:0:0:0:
153,192,157009,1,0,0:0:0:0:
256,192,157009,1,0,0:0:0:0:
460,192,157009,1,0,0:0:0:0:
358,192,157741,128,0,159548:0:0:0:0:
153,192,157741,1,0,0:0:0:0:
51,192,157741,1,0,0:0:0:0:
153,192,158463,1,0,0:0:0:0:
256,192,158463,1,0,0:0:0:0:
460,192,158463,1,0,0:0:0:0:
51,192,158825,1,0,0:0:0:0:
460,192,158825,1,0,0:0:0:0:
153,192,159909,1,0,0:0:0:0:
256,192,159909,1,0,0:0:0:0:
358,192,159909,1,0,0:0:0:0:
51,192,160271,1,0,0:0:0:0:
153,192,160451,1,0,0:0:0:0:
460,192,160632,128,0,162439:0:0:0:0:
51,192,160632,1,0,0:0:0:0:
256,192,160632,1,0,0:0:0:0:
153,192,161355,1,0,0:0:0:0:
256,192,161355,1,0,0:0:0:0:
358,192,161355,1,0,0:0:0:0:
358,192,161716,1,0,0:0:0:0:
51,192,161716,1,0,0:0:0:0:
256,192,162801,1,0,0:0:0:0:
358,192,162801,1,0,0:0:0:0:
460,192,162801,1,0,0:0:0:0:
256,192,163524,128,0,166450:0:0:0:0:
153,192,163524,1,0,0:0:0:0:
51,192,163524,1,0,0:0:0:0:
51,192,164255,1,0,0:0:0:0:
358,192,164255,1,0,0:0:0:0:
460,192,164255,1,0,0:0:0:0:
51,192,164987,1,0,0:0:0:0:
460,192,164987,1,0,0:0:0:0:
358,192,165170,1,0,0:0:0:0:
153,192,165170,1,0,0:0:0:0:
153,192,165536,1,0,0:0:0:0:
358,192,165536,1,0,0:0:0:0:
51,192,165719,1,0,0:0:0:0:
460,192,165719,1,0,0:0:0:0:
358,192,165902,1,0,0:0:0:0:
460,192,165902,1,0,0:0:0:0:
358,192,166084,1,0,0:0:0:0:
153,192,166084,1,0,0:0:0:0:
51,192,166267,1,0,0:0:0:0:
153,192,166267,1,0,0:0:0:0:
358,192,166450,128,0,168463:0:0:0:0:
460,192,166450,128,0,168463:0:0:0:0:
153,192,167182,1,0,0:0:0:0:
256,192,167182,1,0,0:0:0:0:
256,192,167548,1,0,0:0:0:0:
51,192,167548,1,0,0:0:0:0:
51,192,167914,128,0,169011:0:0:0:0:
153,192,167914,128,0,169011:0:0:0:0:
358,192,168645,1,0,0:0:0:0:
460,192,168645,1,0,0:0:0:0:
256,192,169011,128,0,169377:0:0:0:0:
460,192,169377,128,0,171364:0:0:0:0:
153,192,169377,128,0,171907:0:0:0:0:
51,192,170099,1,0,0:0:0:0:
256,192,170099,1,0,0:0:0:0:
358,192,170099,1,0,0:0:0:0:
358,192,170461,1,0,0:0:0:0:
51,192,170461,1,0,0:0:0:0:
51,192,170822,128,0,171907:0:0:0:0:
256,192,170822,128,0,171364:0:0:0:0:
256,192,171545,1,0,0:0:0:0:
460,192,171545,1,0,0:0:0:0:
358,192,171907,128,0,172268:0:0:0:0:
460,192,172268,128,0,173714:0:0:0:0:
256,192,172268,1,0,0:0:0:0:
358,192,172991,128,0,173714:0:0:0:0:
256,192,172991,1,0,0:0:0:0:
51,192,172991,1,0,0:0:0:0:
51,192,173352,1,0,0:0:0:0:
153,192,173352,1,0,0:0:0:0:
256,192,173714,128,0,175160:0:0:0:0:
51,192,173714,1,0,0:0:0:0:
153,192,174437,128,0,175160:0:0:0:0:
358,192,174437,1,0,0:0:0:0:
460,192,174437,1,0,0:0:0:0:
460,192,175160,128,0,177355:0:0:0:0:
51,192,175160,128,0,177355:0:0:0:0:
153,192,175891,1,0,0:0:0:0:
256,192,175891,1,0,0:0:0:0:
358,192,175891,1,0,0:0:0:0:
153,192,176257,1,0,0:0:0:0:
358,192,176257,1,0,0:0:0:0:
256,192,177355,128,0,177720:0:0:0:0:
358,192,177355,1,0,0:0:0:0:
153,192,177355,1,0,0:0:0:0:
358,192,177720,128,0,178818:0:0:0:0:
460,192,178086,128,0,178818:0:0:0:0:
51,192,178086,1,0,0:0:0:0:
256,192,178818,1,0,0:0:0:0:
153,192,178818,1,0,0:0:0:0:
51,192,178818,128,0,180281:0:0:0:0:
153,192,180281,128,0,181013:0:0:0:0:
358,192,180281,128,0,180647:0:0:0:0:
256,192,180281,1,0,0:0:0:0:
460,192,180647,128,0,181013:0:0:0:0:
256,192,181013,1,0,0:0:0:0:
51,192,181013,1,0,0:0:0:0:
358,192,181013,128,0,183208:0:0:0:0:
51,192,181744,1,0,0:0:0:0:
460,192,181744,1,0,0:0:0:0:
153,192,181744,1,0,0:0:0:0:
51,192,182110,1,0,0:0:0:0:
256,192,182110,1,0,0:0:0:0:
51,192,183208,1,0,0:0:0:0:
460,192,183208,1,0,0:0:0:0:
153,192,183208,128,0,183939:0:0:0:0:
256,192,183573,128,0,183939:0:0:0:0:
51,192,183939,1,0,0:0:0:0:
358,192,183939,1,0,0:0:0:0:
460,192,183939,128,0,188302:0:0:0:0:
358,192,184305,1,0,0:0:0:0:
256,192,184488,1,0,0:0:0:0:
51,192,184488,1,0,0:0:0:0:
153,192,184671,1,0,0:0:0:0:
51,192,184671,1,0,0:0:0:0:
358,192,184671,1,0,0:0:0:0:
153,192,185037,1,0,0:0:0:0:
51,192,185037,1,0,0:0:0:0:
256,192,185220,1,0,0:0:0:0:
358,192,185220,1,0,0:0:0:0:
153,192,185266,1,0,0:0:0:0:
51,192,185266,1,0,0:0:0:0:
358,192,185586,1,0,0:0:0:0:
51,192,185586,1,0,0:0:0:0:
153,192,185586,1,0,0:0:0:0:
256,192,185769,1,0,0:0:0:0:
153,192,185769,1,0,0:0:0:0:
153,192,186134,1,0,0:0:0:0:
51,192,186134,1,0,0:0:0:0:
256,192,186134,1,0,0:0:0:0:
358,192,186314,1,0,0:0:0:0:
256,192,186374,1,0,0:0:0:0:
153,192,186495,1,0,0:0:0:0:
51,192,186615,1,0,0:0:0:0:
256,192,186856,1,0,0:0:0:0:
358,192,186856,1,0,0:0:0:0:
51,192,187037,1,0,0:0:0:0:
153,192,187037,1,0,0:0:0:0:
51,192,187399,1,0,0:0:0:0:
358,192,187399,1,0,0:0:0:0:
256,192,187579,1,0,0:0:0:0:
358,192,187579,1,0,0:0:0:0:
51,192,187579,1,0,0:0:0:0:
51,192,187941,1,0,0:0:0:0:
153,192,187941,1,0,0:0:0:0:
256,192,188302,1,0,0:0:0:0:
358,192,188302,1,0,0:0:0:0:
153,192,188362,1,0,0:0:0:0:
51,192,188423,1,0,0:0:0:0:
460,192,188483,1,0,0:0:0:0:
358,192,188543,1,0,0:0:0:0:
256,192,188603,1,0,0:0:0:0:
153,192,188664,1,0,0:0:0:0:
51,192,188724,1,0,0:0:0:0:
358,192,188784,1,0,0:0:0:0:
153,192,188844,1,0,0:0:0:0:
256,192,188844,1,0,0:0:0:0:
51,192,189025,1,0,0:0:0:0:
358,192,189025,1,0,0:0:0:0:
460,192,189025,128,0,189206:0:0:0:0:
153,192,189206,1,0,0:0:0:0:
358,192,189206,128,0,189387:0:0:0:0:
153,192,189387,1,0,0:0:0:0:
256,192,189387,128,0,189748:0:0:0:0:
51,192,189477,1,0,0:0:0:0:
460,192,189567,1,0,0:0:0:0:
153,192,189658,1,0,0:0:0:0:
51,192,189748,128,0,190479:0:0:0:0:
358,192,189748,128,0,190296:0:0:0:0:
460,192,189748,128,0,190296:0:0:0:0:
460,192,190479,1,0,0:0:0:0:
256,192,190479,1,0,0:0:0:0:
51,192,190845,128,0,191211:0:0:0:0:
153,192,190845,128,0,191211:0:0:0:0:
256,192,190845,128,0,191211:0:0:0:0:
358,192,190845,128,0,191211:0:0:0:0:
153,192,191943,1,0,0:0:0:0:
256,192,191943,1,0,0:0:0:0:
460,192,191943,1,0,0:0:0:0:
358,192,191943,128,0,192308:0:0:0:0:
256,192,192308,128,0,192674:0:0:0:0:
51,192,192674,128,0,193040:0:0:0:0:
153,192,192674,1,0,0:0:0:0:
153,192,193040,128,0,193406:0:0:0:0:
460,192,193040,1,0,0:0:0:0:
256,192,193406,128,0,193589:0:0:0:0:
358,192,193406,1,0,0:0:0:0:
460,192,193406,1,0,0:0:0:0:
153,192,193589,128,0,193772:0:0:0:0:
358,192,193589,1,0,0:0:0:0:
460,192,193772,1,0,0:0:0:0:
51,192,193772,128,0,194504:0:0:0:0:
153,192,194687,128,0,194869:0:0:0:0:
256,192,194869,1,0,0:0:0:0:
358,192,194869,1,0,0:0:0:0:
460,192,194869,128,0,195052:0:0:0:0:
153,192,195052,1,0,0:0:0:0:
51,192,195052,128,0,195235:0:0:0:0:
256,192,195235,1,0,0:0:0:0:
358,192,195235,128,0,195418:0:0:0:0:
153,192,195418,1,0,0:0:0:0:
51,192,195418,1,0,0:0:0:0:
460,192,195418,128,0,196323:0:0:0:0:
51,192,195601,1,0,0:0:0:0:
256,192,195601,1,0,0:0:0:0:
153,192,195962,1,0,0:0:0:0:
256,192,195962,1,0,0:0:0:0:
256,192,196323,1,0,0:0:0:0:
51,192,196323,128,0,197046:0:0:0:0:
153,192,196323,1,0,0:0:0:0:
460,192,196504,1,0,0:0:0:0:
358,192,196504,1,0,0:0:0:0:
256,192,196685,1,0,0:0:0:0:
153,192,196685,128,0,197046:0:0:0:0:
358,192,196685,128,0,197046:0:0:0:0:
460,192,196685,128,0,197046:0:0:0:0:
256,192,197046,128,0,197769:0:0:0:0:
51,192,197769,128,0,198492:0:0:0:0:
153,192,197769,1,0,0:0:0:0:
358,192,197769,1,0,0:0:0:0:
153,192,198492,1,0,0:0:0:0:
358,192,198492,128,0,198854:0:0:0:0:
256,192,198854,128,0,199034:0:0:0:0:
51,192,198854,1,0,0:0:0:0:
460,192,199034,128,0,199938:0:0:0:0:
153,192,199034,1,0,0:0:0:0:
256,192,199215,1,0,0:0:0:0:
358,192,199215,1,0,0:0:0:0:
51,192,199215,1,0,0:0:0:0:
51,192,199576,1,0,0:0:0:0:
153,192,199576,1,0,0:0:0:0:
51,192,200480,128,0,200661:0:0:0:0:
153,192,200480,1,0,0:0:0:0:
358,192,200661,1,0,0:0:0:0:
256,192,200661,1,0,0:0:0:0:
460,192,200661,128,0,200841:0:0:0:0:
358,192,200841,128,0,201022:0:0:0:0:
153,192,200841,1,0,0:0:0:0:
51,192,201022,1,0,0:0:0:0:
256,192,201022,128,0,201203:0:0:0:0:
460,192,201022,1,0,0:0:0:0:
51,192,201203,1,0,0:0:0:0:
153,192,201203,128,0,202115:0:0:0:0:
358,192,201203,1,0,0:0:0:0:
358,192,201384,1,0,0:0:0:0:
460,192,201384,1,0,0:0:0:0:
51,192,201932,1,0,0:0:0:0:
256,192,202115,1,0,0:0:0:0:
358,192,202115,1,0,0:0:0:0:
460,192,202115,1,0,0:0:0:0:
51,192,202481,128,0,202847:0:0:0:0:
358,192,202481,128,0,202847:0:0:0:0:
460,192,202481,128,0,202847:0:0:0:0:
256,192,202481,128,0,202847:0:0:0:0:
153,192,203579,128,0,204310:0:0:0:0:
358,192,203579,128,0,203944:0:0:0:0:
51,192,203579,1,0,0:0:0:0:
460,192,203944,128,0,204310:0:0:0:0:
256,192,204310,128,0,204676:0:0:0:0:
51,192,204310,1,0,0:0:0:0:
460,192,204676,128,0,205042:0:0:0:0:
358,192,205042,128,0,205225:0:0:0:0:
153,192,205042,1,0,0:0:0:0:
256,192,205042,1,0,0:0:0:0:
51,192,205225,128,0,205408:0:0:0:0:
256,192,205408,128,0,206140:0:0:0:0:
153,192,205408,1,0,0:0:0:0:
51,192,206140,128,0,206323:0:0:0:0:
460,192,206140,1,0,0:0:0:0:
153,192,206323,128,0,206505:0:0:0:0:
358,192,206323,1,0,0:0:0:0:
460,192,206505,128,0,206688:0:0:0:0:
256,192,206505,1,0,0:0:0:0:
358,192,206505,1,0,0:0:0:0:
358,192,206688,128,0,206871:0:0:0:0:
153,192,206688,1,0,0:0:0:0:
256,192,206871,128,0,207237:0:0:0:0:
51,192,206871,1,0,0:0:0:0:
460,192,207054,1,0,0:0:0:0:
358,192,207146,1,0,0:0:0:0:
153,192,207237,128,0,207779:0:0:0:0:
51,192,207237,1,0,0:0:0:0:
358,192,207598,1,0,0:0:0:0:
460,192,207598,1,0,0:0:0:0:
51,192,207779,1,0,0:0:0:0:
256,192,207779,1,0,0:0:0:0:
460,192,207959,1,0,0:0:0:0:
358,192,207959,1,0,0:0:0:0:
51,192,207959,128,0,208682:0:0:0:0:
256,192,208140,1,0,0:0:0:0:
153,192,208321,128,0,208682:0:0:0:0:
358,192,208321,128,0,208682:0:0:0:0:
460,192,208321,128,0,208682:0:0:0:0:
256,192,208682,128,0,209405:0:0:0:0:
51,192,209405,1,0,0:0:0:0:
153,192,209405,1,0,0:0:0:0:
460,192,209405,128,0,209767:0:0:0:0:
358,192,209767,128,0,212116:0:0:0:0:
51,192,210128,1,0,0:0:0:0:
256,192,210128,1,0,0:0:0:0:
51,192,210851,1,0,0:0:0:0:
256,192,210851,1,0,0:0:0:0:
460,192,210851,1,0,0:0:0:0:
153,192,211032,1,0,0:0:0:0:
51,192,211032,1,0,0:0:0:0:
256,192,211529,1,0,0:0:0:0:
460,192,211574,1,0,0:0:0:0:
153,192,212071,1,0,0:0:0:0:
256,192,212116,1,0,0:0:0:0:
51,192,212297,1,0,0:0:0:0:
460,192,212297,128,0,212477:0:0:0:0:
153,192,212477,1,0,0:0:0:0:
358,192,212477,128,0,212658:0:0:0:0:
51,192,212658,1,0,0:0:0:0:
256,192,212658,128,0,212839:0:0:0:0:
153,192,212839,1,0,0:0:0:0:
460,192,212839,128,0,213751:0:0:0:0:
51,192,213020,128,0,213751:0:0:0:0:
358,192,213020,128,0,213751:0:0:0:0:
153,192,213751,1,0,0:0:0:0:
256,192,213751,1,0,0:0:0:0:
358,192,213934,1,0,0:0:0:0:
460,192,213934,1,0,0:0:0:0:
51,192,214117,128,0,214483:0:0:0:0:
153,192,214117,128,0,214483:0:0:0:0:
256,192,214117,128,0,214483:0:0:0:0:
358,192,214117,128,0,214483:0:0:0:0:
153,192,215032,1,0,0:0:0:0:
358,192,215215,1,0,0:0:0:0:
460,192,215215,1,0,0:0:0:0:
256,192,215215,128,0,215580:0:0:0:0:
358,192,215580,128,0,215946:0:0:0:0:
460,192,215946,128,0,216312:0:0:0:0:
51,192,215946,1,0,0:0:0:0:
256,192,216312,128,0,216678:0:0:0:0:
153,192,216678,128,0,216861:0:0:0:0:
358,192,216678,1,0,0:0:0:0:
460,192,216678,1,0,0:0:0:0:
51,192,216861,128,0,217044:0:0:0:0:
153,192,217044,128,0,217959:0:0:0:0:
358,192,217044,1,0,0:0:0:0:
358,192,217959,128,0,218141:0:0:0:0:
460,192,218141,128,0,218324:0:0:0:0:
51,192,218141,1,0,0:0:0:0:
153,192,218141,1,0,0:0:0:0:
256,192,218324,128,0,218507:0:0:0:0:
153,192,218507,128,0,218690:0:0:0:0:
51,192,218690,128,0,219595:0:0:0:0:
358,192,218873,1,0,0:0:0:0:
460,192,218873,1,0,0:0:0:0:
460,192,219550,1,0,0:0:0:0:
256,192,219595,128,0,220318:0:0:0:0:
153,192,219595,1,0,0:0:0:0:
358,192,219595,1,0,0:0:0:0:
153,192,219776,1,0,0:0:0:0:
358,192,219957,128,0,220318:0:0:0:0:
51,192,219957,128,0,220318:0:0:0:0:
460,192,219957,128,0,220318:0:0:0:0:
153,192,220318,128,0,221041:0:0:0:0:
51,192,221041,128,0,221764:0:0:0:0:
358,192,221041,1,0,0:0:0:0:
460,192,221041,1,0,0:0:0:0:
256,192,221764,128,0,222126:0:0:0:0:
153,192,221764,1,0,0:0:0:0:
358,192,222126,128,0,222306:0:0:0:0:
51,192,222126,1,0,0:0:0:0:
460,192,222306,128,0,223752:0:0:0:0:
153,192,222306,1,0,0:0:0:0:
51,192,222487,1,0,0:0:0:0:
153,192,222487,1,0,0:0:0:0:
256,192,222487,1,0,0:0:0:0:
51,192,222848,1,0,0:0:0:0:
153,192,222848,1,0,0:0:0:0:
256,192,223165,1,0,0:0:0:0:
358,192,223210,1,0,0:0:0:0:
51,192,223752,128,0,223933:0:0:0:0:
358,192,223752,1,0,0:0:0:0:
460,192,223933,128,0,224113:0:0:0:0:
153,192,223933,1,0,0:0:0:0:
256,192,223933,1,0,0:0:0:0:
358,192,224113,128,0,224294:0:0:0:0:
51,192,224113,1,0,0:0:0:0:
256,192,224294,128,0,224656:0:0:0:0:
153,192,224294,1,0,0:0:0:0:
51,192,224475,1,0,0:0:0:0:
460,192,224475,1,0,0:0:0:0:
153,192,224656,128,0,225387:0:0:0:0:
51,192,225387,1,0,0:0:0:0:
256,192,225387,1,0,0:0:0:0:
460,192,225387,1,0,0:0:0:0:
153,192,225753,128,0,226119:0:0:0:0:
256,192,225753,128,0,226119:0:0:0:0:
358,192,225753,128,0,226119:0:0:0:0:
460,192,225753,128,0,226119:0:0:0:0:
51,192,226851,128,0,227216:0:0:0:0:
256,192,226851,1,0,0:0:0:0:
358,192,226851,1,0,0:0:0:0:
153,192,227216,128,0,227582:0:0:0:0:
460,192,227216,1,0,0:0:0:0:
358,192,227582,128,0,227948:0:0:0:0:
51,192,227582,1,0,0:0:0:0:
460,192,227948,128,0,228314:0:0:0:0:
256,192,227948,1,0,0:0:0:0:
153,192,228314,128,0,228497:0:0:0:0:
51,192,228314,1,0,0:0:0:0:
358,192,228314,1,0,0:0:0:0:
256,192,228497,128,0,228680:0:0:0:0:
358,192,228680,128,0,229412:0:0:0:0:
51,192,228680,1,0,0:0:0:0:
51,192,229412,128,0,229595:0:0:0:0:
153,192,229595,128,0,229777:0:0:0:0:
460,192,229777,128,0,229960:0:0:0:0:
256,192,229777,1,0,0:0:0:0:
358,192,229777,1,0,0:0:0:0:
358,192,229960,128,0,230143:0:0:0:0:
153,192,230143,128,0,230509:0:0:0:0:
51,192,230509,128,0,231231:0:0:0:0:
460,192,230509,1,0,0:0:0:0:
460,192,230870,1,0,0:0:0:0:
358,192,231051,1,0,0:0:0:0:
460,192,231231,128,0,231954:0:0:0:0:
256,192,231231,1,0,0:0:0:0:
153,192,231231,1,0,0:0:0:0:
358,192,231593,128,0,231954:0:0:0:0:
51,192,231593,128,0,231954:0:0:0:0:
153,192,231593,128,0,231954:0:0:0:0:
256,192,231954,128,0,232677:0:0:0:0:
153,192,232677,128,0,233039:0:0:0:0:
51,192,232677,1,0,0:0:0:0:
460,192,232677,1,0,0:0:0:0:
358,192,233039,128,0,235569:0:0:0:0:
51,192,233400,1,0,0:0:0:0:
153,192,233400,1,0,0:0:0:0:
51,192,234123,1,0,0:0:0:0:
256,192,234123,1,0,0:0:0:0:
460,192,234123,1,0,0:0:0:0:
51,192,234846,1,0,0:0:0:0:
153,192,234891,1,0,0:0:0:0:
460,192,235388,1,0,0:0:0:0:
51,192,235388,1,0,0:0:0:0:
460,192,235569,128,0,235749:0:0:0:0:
153,192,235569,1,0,0:0:0:0:
256,192,235569,1,0,0:0:0:0:
51,192,235749,128,0,235930:0:0:0:0:
358,192,235749,1,0,0:0:0:0:
153,192,235930,128,0,236292:0:0:0:0:
256,192,235930,1,0,0:0:0:0:
51,192,236292,128,0,238487:0:0:0:0:
460,192,236292,128,0,238304:0:0:0:0:
358,192,236292,1,0,0:0:0:0:
153,192,237023,1,0,0:0:0:0:
256,192,237023,1,0,0:0:0:0:
358,192,237023,1,0,0:0:0:0:
153,192,237389,1,0,0:0:0:0:
256,192,237572,1,0,0:0:0:0:
358,192,237938,1,0,0:0:0:0:
153,192,238121,1,0,0:0:0:0:
256,192,238304,1,0,0:0:0:0:
153,192,238487,128,0,238852:0:0:0:0:
358,192,238487,128,0,243590:0:0:0:0:
460,192,238487,128,0,243229:0:0:0:0:
51,192,238670,1,0,0:0:0:0:
256,192,238852,128,0,243952:0:0:0:0:
153,192,239035,1,0,0:0:0:0:
51,192,239218,128,0,258161:0:0:0:0:
460,192,245036,128,0,248036:0:0:0:0:
153,192,246348,128,0,246536:0:0:0:0:
256,192,246536,128,0,247098:0:0:0:0:
153,192,247098,128,0,247286:0:0:0:0:
358,192,247286,128,0,248036:0:0:0:0:
153,192,248036,128,0,258161:0:0:0:0:
358,192,248317,128,0,258067:0:0:0:0:
