osu file format v14

[General]
AudioFilename: Shikisai.mp3
AudioLeadIn: 0
PreviewTime: 60970
Countdown: 0
SampleSet: Soft
StackLeniency: 0.7
Mode: 0
LetterboxInBreaks: 0
WidescreenStoryboard: 0

[Editor]
DistanceSpacing: 1.2
BeatDivisor: 6
GridSize: 4
TimelineZoom: 3.599998

[Metadata]
Title:Shikisai
TitleUnicode:色彩
Artist:Maaya Sakamoto
ArtistUnicode:坂本真綾
Creator:Setsurei
Version:Easy
Source:Fate/Grand Order
Tags:DELiGHTWORKS Inc. TYPE-MOON FGO ANIPLEX CRIWARE RPG game Bearizm RzHr
BeatmapID:788287
BeatmapSetID:358243

[Difficulty]
HPDrainRate:2
CircleSize:2
OverallDifficulty:2
ApproachRate:2.5
SliderMultiplier:0.8
SliderTickRate:2

[Events]
//Background and Video events
Video,64,"OP.avi"
0,0,"BG.jpg",0,0
//Break Periods
//Storyboard Layer 0 (Background)
//Storyboard Layer 1 (Fail)
//Storyboard Layer 2 (Pass)
//Storyboard Layer 3 (Foreground)
//Storyboard Sound Samples

[TimingPoints]
4601,357.142857142857,4,2,1,70,1,0
13886,-100,4,2,2,70,0,0
13975,-100,4,2,1,70,0,0
18172,-100,4,2,2,70,0,0
18261,-100,4,2,1,70,0,0
22458,-100,4,2,2,70,0,0
22547,-100,4,2,1,70,0,0
23886,-100,4,2,2,70,0,0
23975,-100,4,2,1,70,0,0
28172,-100,4,2,2,70,0,0
28261,-100,4,2,1,70,0,0
31029,-100,4,2,2,70,0,0
31118,-100,4,2,1,70,0,0
36743,-100,4,2,2,70,0,0
36833,-100,4,2,1,70,0,0
38172,-100,4,2,2,70,0,0
38261,-100,4,2,1,70,0,0
39600,-100,4,2,2,70,0,0
39690,-100,4,2,1,70,0,0
42458,-100,4,2,2,70,0,0
42547,-100,4,2,1,70,0,0
44779,-100,4,2,3,70,0,0
44868,-100,4,2,1,70,0,0
45136,-100,4,2,3,70,0,0
45225,-100,4,2,1,70,0,0
46208,-100,4,2,3,70,0,0
46297,-100,4,2,1,70,0,0
46386,-100,4,2,3,70,0,0
46475,-100,4,2,1,70,0,0
46565,-100,4,2,3,70,0,0
46654,-100,4,2,1,70,0,0
50850,-100,4,2,3,70,0,0
50940,-100,4,2,1,70,0,0
52100,-100,4,2,2,70,0,0
52190,-100,4,2,1,70,0,0
52458,-100,4,2,1,40,0,0
52815,-100,4,2,1,60,0,0
53172,-100,4,2,1,70,0,0
53529,-100,4,2,2,70,0,0
53618,-100,4,2,1,70,0,0
54958,-100,4,2,2,70,0,0
55047,-100,4,2,1,70,0,0
56386,-100,4,2,2,70,0,0
56475,-100,4,2,1,70,0,0
56743,-100,4,2,3,70,0,0
56833,-100,4,2,1,70,0,0
57815,-100,4,2,2,70,0,0
57904,-100,4,2,1,70,0,0
58172,-100,4,2,3,70,0,0
58261,-100,4,2,1,70,0,0
58886,-100,4,2,1,50,0,0
61029,-100,4,2,1,70,0,1
66386,-100,4,2,2,70,0,1
66475,-100,4,2,1,70,0,1
72100,-100,4,2,2,70,0,1
72190,-100,4,2,1,70,0,1
77815,-100,4,2,2,70,0,1
77904,-100,4,2,1,70,0,1
78886,-100,4,2,1,70,0,1
80047,-100,4,2,1,70,0,1
82100,-100,4,2,2,70,0,1
82190,-100,4,2,1,70,0,1
83350,-100,4,2,2,70,0,1
83440,-100,4,2,1,70,0,1
83529,-100,4,2,2,70,0,1
83618,-100,4,2,1,70,0,1
84600,-100,4,2,1,70,0,0

[Colours]
Combo1 : 255,220,50
Combo2 : 21,1,147
Combo3 : 192,192,192
Combo4 : 71,200,255

[HitObjects]
48,76,4601,6,0,B|72:120|124:116|124:116|180:56|255:56,1,240,8|0,0:0|0:0,0:0:0:0:
332,116,6029,2,0,B|332:191|272:247|272:247|268:299|312:323,1,240,8|0,0:0|0:0,0:0:0:0:
404,356,7458,2,0,B|416:300|389:267|389:267|432:212|435:130,1,240,8|0,0:0|0:0,0:0:0:0:
368,64,8886,2,0,B|296:40|296:40|216:76|136:41,1,240,8|0,0:0|0:0,0:0:0:0:
48,76,10315,6,0,B|12:96|8:144|8:144|76:196|79:278,1,240,8|0,0:0|0:0,0:0:0:0:
136,356,11743,2,0,B|192:336|192:280|192:280|168:252|176:212|176:212|152:188|153:152,1,240,8|0,0:0|0:0,0:0:0:0:
140,56,13172,5,8,0:0:0:0:
236,72,13529,2,0,P|309:101|387:91,1,160,0|0,0:0|0:0,0:0:0:0:
484,92,14600,6,0,B|488:128|464:168|464:168|432:192|392:204,1,160,8|2,0:0|0:0,0:0:0:0:
300,224,15672,1,0,0:0:0:0:
337,318,16029,2,0,P|258:312|207:253,1,160,8|2,0:0|0:0,0:0:0:0:
164,170,17100,1,0,0:0:0:0:
258,139,17458,2,0,P|169:69|74:129,1,240,8|0,0:0|0:0,0:0:0:0:
27,213,18886,6,0,P|104:221|164:171,1,160,8|2,0:0|0:0,0:0:0:0:
220,92,19958,1,0,0:0:0:0:
316,84,20315,2,0,B|352:84|352:84|408:116|435:173,1,160,8|2,0:0|0:0,0:0:0:0:
436,268,21386,1,0,0:0:0:0:
359,326,21743,6,0,P|242:335|149:264,1,240,8|0,0:0|0:0,0:0:0:0:
164,170,23172,2,0,B|212:174|236:218|236:218|288:270|372:215,1,240,8|0,0:0|0:0,0:0:0:0:
420,132,24600,1,8,0:0:0:0:
353,59,24958,2,0,P|387:40|427:34,2,80,0|2|0,0:0|0:0|0:0,0:0:0:0:
268,104,26029,6,0,P|189:101|123:57,1,160,8|2,0:0|0:0,0:0:0:0:
32,84,27100,1,0,0:0:0:0:
20,180,27458,2,0,B|16:244|48:284|48:284|112:264|174:293,1,240,8|0,0:0|0:0,0:0:0:0:
252,348,28886,5,8,0:0:0:0:
380,207,29600,2,0,P|420:141|407:63,1,160,2|8,0:0|0:0,0:0:0:0:
311,60,30672,2,0,P|232:60|160:27,1,160,0|0,0:0|0:0,0:0:0:0:
68,56,31743,2,0,B|36:80|28:120|28:120|52:148|63:194,1,160,8|2,0:0|0:0,0:0:0:0:
68,292,32815,1,0,0:0:0:0:
156,328,33172,6,0,P|234:340|313:329,2,160,8|2|8,0:0|0:0|0:0,0:0:0:0:
184,140,35315,1,2,0:0:0:0:
364,72,36029,5,12,0:0:0:0:
444,128,36386,2,0,P|472:200|437:269,1,160
374,194,37458,2,0,P|271:151|193:233,1,240,8|0,0:0|0:0,0:0:0:0:
292,248,38886,2,0,P|249:143|136:146,1,240,8|0,0:0|0:0,0:0:0:0:
108,244,40315,6,0,P|156:305|232:327,1,160,8|2,0:0|0:0,0:0:0:0:
328,328,41386,1,0,0:0:0:0:
404,268,41743,5,8,0:0:0:0:
440,179,42100,2,0,P|409:108|335:88,1,160,0|0,0:0|0:0,0:0:0:0:
239,108,43172,2,0,B|176:120|144:72|144:72|92:75,1,160,8|2,0:0|0:0,0:0:0:0:
12,128,44243,1,0,0:0:0:0:
3,224,44600,6,0,P|25:298|93:335,1,160,8|2,0:0|0:0,0:0:0:0:
188,312,45672,1,0,0:0:0:0:
280,340,46029,2,0,P|348:303|369:228,1,160,8|2,0:0|0:0,0:0:0:0:
322,143,47100,1,8,0:0:0:0:
227,160,47458,6,0,P|149:160|100:96,1,160,8|2,0:0|0:0,0:0:0:0:
192,72,48529,1,0,0:0:0:0:
284,44,48886,2,0,B|364:44|364:44|428:91,1,160,8|2,0:0|0:0,0:0:0:0:
492,164,49958,1,0,0:0:0:0:
476,260,50315,6,0,P|464:298|440:329,2,80,8|0|2,0:0|0:0|0:0,0:0:0:0:
380,248,51386,1,2,0:0:0:0:
291,207,51743,2,0,P|212:211|145:253,1,160,8|2,0:0|0:0,0:0:0:0:
72,316,52815,1,2,0:0:0:0:
20,236,53172,6,0,B|8:196|8:196|12:128|53:90,1,160,12|8,0:0|0:0,0:0:0:0:
140,48,54243,1,2,0:0:0:0:
236,64,54600,6,0,P|309:93|386:80,1,160,8|8,0:0|0:0,0:0:0:0:
478,49,55672,1,2,0:0:0:0:
496,144,56029,2,0,P|496:203|465:253,2,120,8|0|2,0:0|0:0|0:0,0:0:0:0:
404,176,57458,2,0,B|356:176|356:176|312:256|212:298,1,240,8|2,0:0|0:0,0:0:0:0:
256,192,58886,12,0,59958,0:0:0:0:
144,56,61029,6,0,P|222:62|288:106,1,160,0|12,0:0|0:0,0:0:0:0:
344,184,62100,1,2,0:0:0:0:
296,268,62458,2,0,P|261:287|221:293,1,80,12|2,0:0|0:0,0:0:0:0:
224,196,63172,2,0,L|144:196,1,80,12|2,0:0|0:0,0:0:0:0:
48,192,63886,2,0,P|58:153|82:121,1,80,12|2,0:0|0:0,0:0:0:0:
172,88,64600,6,0,P|211:85|249:72,2,80,12|2|12,0:0|0:0|0:0,0:0:0:0:
96,32,65672,1,2,0:0:0:0:
31,100,66029,2,0,P|11:176|30:253,1,160,12|12,0:0|0:0,0:0:0:0:
93,325,67100,1,2,0:0:0:0:
164,260,67458,6,0,P|203:252|242:256,1,80,12|2,0:0|0:0,0:0:0:0:
340,264,68172,2,0,P|333:224|313:190,1,80,12|2,0:0|0:0,0:0:0:0:
256,112,68886,2,0,P|275:77|304:49,1,80,12|2,0:0|0:0,0:0:0:0:
400,32,69600,1,12,0:0:0:0:
476,92,69958,6,0,P|483:131|479:170,2,80,2|12|2,0:0|0:0|0:0,0:0:0:0:
392,136,71029,2,0,L|328:184,1,80,12|2,0:0|0:0,0:0:0:0:
375,268,71743,2,0,P|298:273|240:221,1,160,12|12,0:0|0:0,0:0:0:0:
201,132,72815,1,2,0:0:0:0:
127,71,73172,6,0,P|90:59|50:59,2,80,8|2|8,0:0|0:0|0:0,0:0:0:0:
80,156,74243,1,2,0:0:0:0:
96,252,74600,2,0,P|117:285|149:309,2,80,8|2|8,0:0|0:0|0:0,0:0:0:0:
188,224,75672,1,2,0:0:0:0:
280,199,76029,6,0,P|313:178|340:148,2,80,8|2|8,0:0|0:0|0:0,0:0:0:0:
248,108,77100,1,2,0:0:0:0:
325,47,77458,2,0,B|364:36|364:36|436:56|443:114,1,160,8|8,0:0|0:0,0:0:0:0:
455,210,78529,1,2,0:0:0:0:
400,288,78886,6,0,P|371:316|334:327,1,80,12|2,0:0|0:0,0:0:0:0:
323,231,79600,2,0,P|307:195|280:166,2,80,8|2|8,0:0|0:0|0:0,0:0:0:0:
228,248,80672,1,2,0:0:0:0:
172,328,81029,2,0,L|92:328,1,80,8|2,0:0|0:0,0:0:0:0:
27,255,81743,6,0,P|43:179|110:140,1,160,8|8,0:0|0:0,0:0:0:0:
204,156,82815,1,2,0:0:0:0:
292,195,83172,2,0,P|358:154|377:78,1,160,8|8,0:0|0:0,0:0:0:0:
280,96,84243,1,2,0:0:0:0:
192,60,84600,6,0,P|115:54|57:106,1,160,8|2,0:0|0:0,0:0:0:0:
145,145,85672,1,0,0:0:0:0:
98,228,86029,2,0,P|175:234|233:182,1,160,8|2,0:0|0:0,0:0:0:0:
280,96,87100,1,0,0:0:0:0:
376,108,87458,6,0,L|428:119,2,53.3333333333333,8|8|8,0:0|0:0|0:0,0:0:0:0:
352,168,88172,2,0,L|391:230,2,53.3333333333333,8|8|8,0:0|0:0|0:0,0:0:0:0:
296,196,88886,2,0,L|280:268,2,53.3333333333333,8|8|8,0:0|0:0|0:0,0:0:0:0:
233,182,89600,2,0,P|200:161|182:126,1,80,8|8,0:0|0:0,0:0:0:0:
