osu file format v14

[General]
AudioFilename: audio.mp3
AudioLeadIn: 0
PreviewTime: 36548
Countdown: 0
SampleSet: Soft
StackLeniency: 0.7
Mode: 0
LetterboxInBreaks: 0
WidescreenStoryboard: 1

[Editor]
DistanceSpacing: 1
BeatDivisor: 2
GridSize: 4
TimelineZoom: 0.880003

[Metadata]
Title:Shiawase ni Tsuite Watashi ga Shitteiru Itsutsu no Houhou
TitleUnicode:幸せについて私が知っている5つの方法
Artist:Maaya Sakamoto
ArtistUnicode:坂本真綾
Creator:Yohanes
Version:Normal
Source:幸腹グラフィティ
Tags:Koufuku Gourmet Girl Graffiti Anime TV Size Opening yaldo_27
BeatmapID:1235132
BeatmapSetID:582063

[Difficulty]
HPDrainRate:4
CircleSize:3.5
OverallDifficulty:4
ApproachRate:5
SliderMultiplier:1.2
SliderTickRate:1

[Events]
//Background and Video events
0,0,"BG.jpg",0,0
Video,1608,"op.avi"
//Break Periods
//Storyboard Layer 0 (Background)
//Storyboard Layer 1 (Fail)
//Storyboard Layer 2 (Pass)
//Storyboard Layer 3 (Foreground)
//Storyboard Sound Samples

[TimingPoints]
2037,363.636363636364,4,2,1,60,1,0
3400,363.636363636364,4,2,1,60,1,0
5490,363.636363636364,4,2,1,60,1,0
6037,363.636363636364,4,2,1,60,1,0
64218,-100,4,2,1,70,0,1
84582,-100,4,2,1,60,0,0
87491,-100,4,2,1,45,0,0
89673,-100,4,2,1,15,0,0
90400,-100,4,2,1,5,0,0

[Colours]
Combo1 : 255,94,55
Combo2 : 173,255,95
Combo3 : 17,254,176
Combo4 : 255,88,100

[HitObjects]
160,244,2037,6,0,P|104:251|38:199,2,120,6|0|2,0:3|0:0|0:1,0:0:0:0:
352,148,3400,2,0,P|408:141|474:193,2,120,2|0|6,0:3|0:0|0:3,0:0:0:0:
256,320,5490,6,0,L|256:390,2,60,6|2|2,0:3|0:3|0:3,0:0:0:0:
256,260,6037,6,0,L|256:132,1,120,6|2,0:3|0:3,0:0:0:0:
326,42,6764,2,0,P|393:29|454:50,1,120,2|2,0:3|0:3,0:0:0:0:
482,155,7491,2,0,L|501:227,2,60,2|0|2,0:3|0:0|0:3,0:0:0:0:
426,131,8037,1,0,0:0:0:0:
375,162,8218,2,0,P|306:172|248:148,1,120,2|2,0:3|0:3,0:0:0:0:
207,125,8764,1,0,0:0:0:0:
162,84,8946,6,0,L|114:211,1,120,2|2,0:3|0:3,0:0:0:0:
28,275,9673,2,0,P|68:305|144:310,1,120,2|2,0:3|0:3,0:0:0:0:
192,290,10218,1,0,0:0:0:0:
244,318,10400,2,0,P|252:337|250:375,2,60,2|0|2,0:3|0:0|0:3,0:0:0:0:
260,200,11127,2,0,L|283:32,2,120,2|2|2,0:3|0:3|0:3,0:0:0:0:
380,180,12218,6,0,P|427:175|518:186,1,120,2|2,0:3|0:3,0:0:0:0:
502,301,12946,2,0,P|455:296|364:307,1,120,2|2,0:3|0:3,0:0:0:0:
325,318,13491,2,0,L|262:298,1,60,0|2,0:0|0:3,0:0:0:0:
210,281,13855,1,0,0:0:0:0:
210,281,14037,2,0,P|131:311|80:287,1,120,2|8,0:3|0:0,0:0:0:0:
52,265,14582,6,0,P|13:178|93:73,2,240,6|6|2,0:0|0:0|0:0,0:0:0:0:
220,196,16582,1,2,0:0:0:0:
327,249,16946,1,2,0:0:0:0:
319,130,17309,1,2,0:0:0:0:
220,196,17673,6,0,P|164:207|96:192,1,120,2|2,0:0|0:0,0:0:0:0:
56,157,18218,1,0,0:0:0:0:
56,157,18400,2,0,P|49:100|33:12,2,120,2|2|2,0:0|0:0|0:0,0:0:0:0:
140,72,19491,2,0,P|227:74|266:71,1,120,2|2,0:0|0:2,0:0:0:0:
379,63,20218,2,0,P|466:61|505:64,1,120,2|2,0:2|0:0,0:0:0:0:
511,183,20946,5,2,0:0:0:0:
454,201,21127,1,0,0:0:0:0:
398,183,21309,2,0,P|337:185|281:221,2,120,2|2|2,0:0|0:0|0:0,0:0:0:0:
478,271,22400,2,0,P|458:343|390:366,1,120,2|2,0:0|0:0,0:0:0:0:
344,272,23127,2,0,P|314:265|210:273,1,120,2|2,0:0|0:0,0:0:0:0:
177,305,23673,5,0,0:0:0:0:
177,305,23855,2,0,P|173:237|109:177,1,120,2|2,0:0|0:0,0:0:0:0:
60,283,24582,1,6,0:0:0:0:
26,166,24946,2,0,P|23:107|29:27,1,120,2|2,0:0|0:0,0:0:0:0:
79,18,25491,1,0,0:0:0:0:
79,18,25673,2,0,P|138:15|218:21,1,120,2|2,0:0|0:0,0:0:0:0:
237,64,26218,1,0,0:0:0:0:
237,64,26400,6,0,P|292:106|360:86,1,120,2|2,0:0|0:0,0:0:0:0:
381,57,26946,2,0,B|444:37|521:72,1,120,2|0,0:1|0:1,0:0:0:0:
476,181,27673,2,0,P|413:214|366:255,1,120,2|0,0:1|0:0,0:0:0:0:
338,292,28218,1,2,0:0:0:0:
338,292,28400,2,0,L|197:278,1,120,2|0,0:1|0:1,0:0:0:0:
161,301,28946,1,2,0:0:0:0:
161,301,29127,6,0,P|173:268|125:173,1,120,2|0,0:1|0:1,0:0:0:0:
112,141,29673,2,0,L|242:105,1,120,2|2,0:0|0:0,0:0:0:0:
336,164,30400,2,0,L|360:234,1,60,2|0,0:0|0:0,0:0:0:0:
380,275,30764,2,0,P|456:285|497:235,1,120,2|2,0:0|0:0,0:0:0:0:
512,206,31309,1,0,0:0:0:0:
512,206,31491,2,0,L|494:85,1,120,2|2,0:0|0:0,0:0:0:0:
394,20,32218,6,0,P|324:9|306:13,1,60,2|0,0:0|0:0,0:0:0:0:
279,30,32582,1,2,0:0:0:0:
238,74,32764,2,0,P|170:88|116:56,1,120,2|0,0:1|0:0,0:0:0:0:
88,20,33309,1,2,0:0:0:0:
9,110,33673,2,0,P|1:169|8:228,2,120,2|2|2,0:0|0:0|0:0,0:0:0:0:
112,170,34764,6,0,P|174:167|237:168,1,120,2|2,0:0|0:3,0:0:0:0:
288,146,35309,2,0,P|295:210|290:271,1,120,8|2,0:0|0:3,0:0:0:0:
239,297,35855,2,0,P|207:296|165:301,1,60,6|6,0:1|0:1,0:0:0:0:
124,324,36218,1,10,0:1:0:0:
124,324,36400,1,6,0:1:0:0:
73,288,36582,6,0,P|64:229|70:170,2,120,6|8|2,0:0|0:0|0:0,0:0:0:0:
172,358,37673,1,8,0:0:0:0:
227,251,38037,2,0,P|228:196|216:129,2,120,2|8|2,0:0|0:0|0:0,0:0:0:0:
172,358,39127,1,8,0:0:0:0:
283,312,39491,6,0,P|357:307|416:312,1,120,2|8,0:0|0:0,0:0:0:0:
460,328,40037,1,0,0:0:0:0:
460,328,40218,2,0,P|471:253|463:194,1,120,2|8,0:0|0:0,0:0:0:0:
363,147,40946,2,0,B|284:169|224:110,1,120,6|10,0:1|0:1,0:0:0:0:
219,77,41491,1,2,0:1:0:0:
163,53,41673,2,0,L|94:79,2,60,6|2|10,0:1|0:1|0:1,0:0:0:0:
277,9,42400,6,0,P|341:30|400:14,2,120,2|8|2,0:0|0:0|0:0,0:0:0:0:
156,9,43491,1,8,0:0:0:0:
217,112,43855,2,0,P|226:175|193:226,2,120,2|8|2,0:0|0:0|0:0,0:0:0:0:
156,9,44946,1,8,0:0:0:0:
95,110,45309,6,0,P|86:173|119:224,1,120,2|8,0:0|0:0,0:0:0:0:
224,173,46037,2,0,P|287:169|349:173,1,120,2|8,0:0|0:0,0:0:0:0:
432,92,46764,2,0,P|452:151|464:212,1,120,2|8,0:0|0:0,0:0:0:0:
403,315,47491,1,2,0:0:0:0:
297,257,47855,1,8,0:0:0:0:
297,257,48037,1,2,0:1:0:0:
297,257,48218,6,0,P|294:331|305:387,1,120,6|8,0:0|0:0,0:0:0:0:
403,315,48946,2,0,P|406:241|395:185,2,120,2|8|2,0:0|0:0|0:0,0:0:0:0:
297,257,50037,2,0,P|233:251|216:253,1,60,8|0,0:0|0:0,0:0:0:0:
179,266,50400,2,0,P|138:317|49:296,1,120,2|8,0:0|0:0,0:0:0:0:
36,287,50946,1,0,0:0:0:0:
36,287,51127,6,0,L|22:151,1,120,2|8,0:0|0:0,0:0:0:0:
19,107,51673,1,0,0:0:0:0:
19,107,51855,2,0,L|155:93,1,120,2|8,0:0|0:0,0:0:0:0:
198,89,52400,1,0,0:0:0:0:
241,129,52582,2,0,P|305:144|377:125,1,120,2|8,0:0|0:0,0:0:0:0:
458,68,53309,2,0,P|470:101|464:143,2,60,2|0|8,0:0|0:0|0:0,0:0:0:0:
410,31,53855,1,0,0:0:0:0:
410,31,54037,5,2,0:0:0:0:
290,20,54400,1,8,0:0:0:0:
279,140,54764,1,2,0:0:0:0:
399,150,55127,1,8,0:0:0:0:
389,270,55491,2,0,P|306:274|240:239,2,120,2|8|2,0:0|0:0|0:0,0:0:0:0:
502,219,56582,2,0,P|514:281|512:291,1,60,8|0,0:0|0:0,0:0:0:0:
495,334,56946,5,2,0:0:0:0:
389,270,57309,2,0,P|383:218|388:120,1,120,8|2,0:0|0:0,0:0:0:0:
289,75,58037,2,0,P|290:134|284:194,1,120,8|2,0:0|0:0,0:0:0:0:
184,126,58764,6,0,P|82:119|165:198,2,240,8|8|10,0:0|0:0|0:1,0:0:0:0:
284,194,60582,2,0,P|356:200|403:187,1,120,2|8,0:1|0:0,0:0:0:0:
476,93,61309,6,0,L|496:159,1,60,2|2,0:1|0:1,0:0:0:0:
507,209,61673,2,0,P|510:274|473:336,1,120,10|10,0:1|0:1,0:0:0:0:
368,345,62400,1,10,0:1:0:0:
368,345,62582,2,0,P|263:325|225:343,1,120,2|0,0:1|0:0,0:0:0:0:
200,354,63127,1,8,0:0:0:0:
112,270,63491,1,2,0:1:0:0:
146,155,63855,1,8,0:3:0:0:
234,239,64218,6,0,P|287:241|323:227,1,60,6|0,0:0|0:0,0:0:0:0:
340,201,64582,2,0,L|319:350,2,120,8|2|8,0:0|0:0|0:0,0:0:0:0:
252,117,65673,2,0,P|199:115|163:129,1,60,2|0,0:0|0:0,0:0:0:0:
146,155,66037,2,0,L|125:6,2,120,8|2|8,0:0|0:0|0:0,0:0:0:0:
118,208,66946,1,0,0:0:0:0:
118,208,67127,6,0,P|66:205|-7:209,1,120,2|8,0:0|0:0,0:0:0:0:
45,319,67855,2,0,P|97:322|170:318,1,120,2|8,0:0|0:0,0:0:0:0:
249,233,68582,2,0,P|255:180|242:109,2,120,4|8|2,0:1|0:1|0:0,0:0:0:0:
211,280,69491,1,2,0:1:0:0:
211,280,69673,1,8,0:0:0:0:
313,343,70037,6,0,P|375:343|384:340,1,60,2|0,0:0|0:0,0:0:0:0:
411,297,70400,2,0,L|425:163,1,120,8|2,0:0|0:0,0:0:0:0:
446,121,70946,1,0,0:0:0:0:
446,121,71127,2,0,P|363:130|316:103,1,120,8|2,0:0|0:0,0:0:0:0:
284,77,71673,2,0,P|254:72|207:83,1,60,0|8,0:0|0:0,0:0:0:0:
175,111,72037,2,0,L|49:68,1,120
6,48,72582,1,8,0:0:0:0:
6,168,72946,5,2,0:0:0:0:
90,252,73309,1,8,0:0:0:0:
210,252,73673,2,0,P|221:202|205:131,2,120,6|10|6,0:1|0:1|0:1,0:0:0:0:
149,355,74764,1,10,0:1:0:0:
90,252,75127,2,0,P|79:202|95:131,2,120,6|10|6,0:1|0:1|0:0,0:0:0:0:
150,355,76218,6,0,P|198:346|238:352,1,60,8|0,0:0|0:0,0:0:0:0:
267,361,76582,2,0,P|332:360|387:335,2,120,2|8|2,0:0|0:0|0:0,0:0:0:0:
252,302,77491,1,0,0:0:0:0:
252,302,77673,2,0,L|229:164,1,120,8|2,0:0|0:0,0:0:0:0:
228,124,78218,1,0,0:0:0:0:
261,75,78400,1,8,0:0:0:0:
316,55,78582,6,0,P|378:68|447:43,1,120,2|0,0:1|0:0,0:0:0:0:
473,8,79127,2,0,L|508:142,2,120,8|2|8,0:0|0:0|0:0,0:0:0:0:
374,76,80218,1,2,0:0:0:0:
275,9,80582,1,8,0:0:0:0:
176,76,80946,1,2,0:0:0:0:
275,143,81309,2,0,P|281:194|268:226,1,60,8|0,0:0|0:0,0:0:0:0:
250,254,81673,6,0,P|318:241|396:274,1,120,2|8,0:0|0:0,0:0:0:0:
406,298,82218,1,0,0:0:0:0:
406,298,82400,2,0,L|525:284,2,120,2|8|2,0:0|0:0|0:0,0:0:0:0:
296,348,83491,2,0,P|240:337|205:349,1,60,8|0,0:0|0:0,0:0:0:0:
180,354,83855,2,0,L|38:337,2,120,2|8|6,0:0|0:0|0:0,0:0:0:0:
256,191,85127,5,2,0:0:0:0:
256,191,85309,2,0,P|257:244|241:271,1,60,8|0,0:0|0:0,0:0:0:0:
199,274,85673,2,0,L|-14:248,2,180,6|2|8,0:0|0:0|0:0,0:0:0:0:
245,312,86946,1,2,0:0:0:0:
245,312,87127,2,0,P|291:267|365:282,1,120,8|4,0:0|0:0,0:0:0:0:
256,192,87673,12,0,90400,0:0:0:0:
