osu file format v14

[General]
AudioFilename: audio.mp3
AudioLeadIn: 0
PreviewTime: 36548
Countdown: 0
SampleSet: Soft
StackLeniency: 0.7
Mode: 0
LetterboxInBreaks: 0
WidescreenStoryboard: 1

[Editor]
DistanceSpacing: 0.5
BeatDivisor: 4
GridSize: 4
TimelineZoom: 2.080004

[Metadata]
Title:Shiawase ni Tsuite Watashi ga Shitteiru Itsutsu no Houhou
TitleUnicode:幸せについて私が知っている5つの方法
Artist:Maaya Sakamoto
ArtistUnicode:坂本真綾
Creator:Yohanes
Version:Insane
Source:幸腹グラフィティ
Tags:Koufuku Gourmet Girl Graffiti Anime TV Size Opening yaldo_27
BeatmapID:1243496
BeatmapSetID:582063

[Difficulty]
HPDrainRate:6
CircleSize:4.2
OverallDifficulty:7.5
ApproachRate:9
SliderMultiplier:1.6
SliderTickRate:1

[Events]
//Background and Video events
0,0,"BG.jpg",0,0
Video,1608,"op.avi"
//Break Periods
//Storyboard Layer 0 (Background)
//Storyboard Layer 1 (Fail)
//Storyboard Layer 2 (Pass)
//Storyboard Layer 3 (Foreground)
//Storyboard Sound Samples

[TimingPoints]
2037,363.636363636364,4,2,1,60,1,0
3400,363.636363636364,4,2,1,60,1,0
5490,363.636363636364,4,2,1,60,1,0
6037,363.636363636364,4,2,1,60,1,0
64218,-86.9565217391304,4,2,1,70,0,1
84582,-100,4,2,1,60,0,0
87491,-133.333333333333,4,2,1,45,0,0
88400,-133.333333333333,4,2,1,20,0,0
88582,-100,4,2,1,45,0,0
88764,-100,4,2,1,30,0,0
88946,-100,4,2,1,20,0,0
89673,-100,4,2,1,15,0,0
90400,-100,4,2,1,5,0,0

[Colours]
Combo1 : 255,94,55
Combo2 : 173,255,95
Combo3 : 17,254,176
Combo4 : 255,88,100

[HitObjects]
208,96,1764,6,0,L|200:40,2,40,0|0|0,0:0|0:0|0:0,0:0:0:0:
256,152,2037,6,0,B|360:168|412:88,2,160,6|0|2,0:3|0:0|0:1,0:0:0:0:
128,52,2946,1,0,0:0:0:0:
44,192,3127,2,0,P|88:192|132:168,1,80
179,131,3400,6,0,B|215:225|166:306,2,160,2|0|6,0:3|0:0|0:3,0:0:0:0:
256,192,4218,12,0,5309,0:0:0:0:
156,216,5490,5,6,0:3:0:0:
212,84,5671,1,2,0:3:0:0:
317,182,5853,1,2,0:3:0:0:
323,187,5944,1,2,0:3:0:0:
329,192,6037,6,0,B|380:204|424:186,1,80,6|0,0:3|0:0,0:0:0:0:
352,24,6400,2,0,P|364:68|368:108,1,80,2|0,0:3|0:0,0:0:0:0:
204,155,6764,2,0,P|192:111|188:71,1,80,2|0,0:3|0:0,0:0:0:0:
329,192,7127,2,0,P|324:231|313:270,1,80,2|0,0:3|0:0,0:0:0:0:
152,332,7491,6,0,P|208:328|252:332,1,80,2|0,0:3|0:0,0:0:0:0:
132,200,7855,2,0,P|76:204|32:200,1,80,2|0,0:3|0:0,0:0:0:0:
264,44,8218,2,0,B|284:132|256:212,1,160,2|2,0:3|0:3,0:0:0:0:
188,76,8764,1,0,0:0:0:0:
344,216,8946,6,0,P|354:177|355:137,1,80,2|0,0:3|0:0,0:0:0:0:
168,176,9309,2,0,P|169:215|179:254,1,80,2|0,0:3|0:0,0:0:0:0:
264,44,9673,2,0,P|263:83|253:122,1,80,2|0,0:3|0:0,0:0:0:0:
28,96,10037,2,0,P|67:97|106:107,1,80,2|0,0:3|0:0,0:0:0:0:
179,254,10400,6,0,P|140:253|101:243,1,80,2|0,0:3|0:0,0:0:0:0:
252,122,10764,2,0,P|290:111|330:110,1,80,2|0,0:3|0:0,0:0:0:0:
360,336,11127,2,0,B|288:264|312:156,2,160,2|2|2,0:3|0:3|0:3,0:0:0:0:
456,156,12037,5,0,0:0:0:0:
412,284,12218,2,0,P|384:236|380:181,1,80,2|0,0:3|0:0,0:0:0:0:
359,36,12582,2,0,P|348:74|330:110,1,80,2|0,0:3|0:0,0:0:0:0:
217,237,12946,2,0,P|188:208|167:175,1,80,2|0,0:3|0:0,0:0:0:0:
208,20,13309,5,2,0:3:0:0:
252,122,13491,1,0,0:0:0:0:
128,68,13673,1,2,0:3:0:0:
300,40,13855,1,0,0:0:0:0:
112,72,14037,1,2,0:3:0:0:
312,32,14218,1,2,0:1:0:0:
193,183,14400,1,8,0:0:0:0:
324,24,14582,6,0,B|400:88|352:184,1,160,6|0,0:0|0:0,0:0:0:0:
228,288,15127,1,8,0:0:0:0:
127,114,15309,2,0,B|207:54|279:118,1,160,6|0,0:0|0:0,0:0:0:0:
228,288,15855,1,8,0:0:0:0:
48,179,16037,6,0,B|116:240|195:182,1,160,2|0,0:0|0:0,0:0:0:0:
113,36,16582,2,0,P|125:92|129:136,1,80,2|0,0:0|0:0,0:0:0:0:
132,316,16946,2,0,P|120:260|116:216,1,80,2|0,0:0|0:0,0:0:0:0:
222,48,17309,2,0,P|219:87|213:127,1,80,2|0,0:0|0:0,0:0:0:0:
48,179,17673,5,2,0:0:0:0:
127,114,17855,1,0,0:0:0:0:
132,316,18037,1,2,0:0:0:0:
36,188,18218,1,0,0:0:0:0:
220,216,18400,2,0,P|217:255|208:294,1,80,2|0,0:0|0:0,0:0:0:0:
127,114,18764,2,0,P|117:75|114:35,1,80,2|0,0:0|0:0,0:0:0:0:
220,4,19127,5,2,0:0:0:0:
316,168,19309,2,0,B|399:189|476:136,1,160
336,16,19855,2,0,P|325:55|320:95,1,80,2|0,0:2|0:0,0:0:0:0:
412,288,20218,2,0,P|424:242|428:202,1,80,2|0,0:2|0:0,0:0:0:0:
348,48,20582,5,2,0:0:0:0:
445,112,20764,1,0,0:0:0:0:
268,168,20946,1,2,0:0:0:0:
462,111,21127,1,0,0:0:0:0:
228,44,21309,2,0,B|204:124|238:200,1,160,2|2,0:0|0:0,0:0:0:0:
352,144,21855,1,0,0:0:0:0:
186,264,22037,6,0,P|226:276|271:276,1,80,2|0,0:0|0:0,0:0:0:0:
228,44,22400,2,0,P|188:32|143:32,1,80,2|0,0:0|0:0,0:0:0:0:
35,179,22764,2,0,P|23:139|23:94,1,80,2|0,0:0|0:0,0:0:0:0:
200,186,23127,2,0,P|198:225|187:263,1,80,2|0,0:0|0:0,0:0:0:0:
100,88,23491,6,0,P|101:48|112:10,1,80,2|0,0:0|0:0,0:0:0:0:
348,124,23855,1,2,0:0:0:0:
256,80,24037,1,0,0:0:0:0:
424,56,24218,1,2,0:0:0:0:
356,212,24400,1,0,0:0:0:0:
324,0,24582,2,0,P|336:44|344:92,1,80,6|0,0:0|0:0,0:0:0:0:
160,200,24946,6,0,P|166:160|177:122,1,80,2|0,0:0|0:0,0:0:0:0:
356,212,25309,2,0,P|348:251|337:289,1,80,2|0,0:0|0:0,0:0:0:0:
158,304,25673,1,2,0:0:0:0:
248,256,25855,1,0,0:0:0:0:
232,357,26037,1,2,0:0:0:0:
160,200,26218,1,0,0:0:0:0:
52,298,26400,6,0,P|44:250|44:214,1,80,2|0,0:0|0:0,0:0:0:0:
248,168,26764,1,2,0:0:0:0:
136,32,26946,2,0,P|130:75|138:115,1,80,0|2,0:0|0:0,0:0:0:0:
248,256,27309,2,0,P|184:260|148:252,1,80,0|2,0:0|0:0,0:0:0:0:
236,148,27673,1,0,0:0:0:0:
388,240,27855,5,2,0:0:0:0:
396,80,28037,1,0,0:0:0:0:
256,156,28218,1,2,0:0:0:0:
416,256,28400,2,0,P|419:301|408:344,1,80,0|2,0:0|0:0,0:0:0:0:
276,164,28764,1,0,0:0:0:0:
212,272,28946,1,2,0:0:0:0:
132,140,29127,2,0,P|176:116|232:100,1,80,0|2,0:0|0:0,0:0:0:0:
360,221,29491,5,0,0:0:0:0:
440,120,29673,2,0,P|444:80|432:28,1,80,2|0,0:0|0:0,0:0:0:0:
256,176,30037,2,0,P|252:216|264:268,1,80,2|0,0:0|0:0,0:0:0:0:
344,96,30400,1,2,0:0:0:0:
372,236,30582,1,0,0:0:0:0:
440,120,30764,5,2,0:0:0:0:
256,176,30946,1,0,0:0:0:0:
452,208,31127,1,2,0:0:0:0:
328,60,31309,1,0,0:0:0:0:
372,236,31491,2,0,B|380:284|356:336,1,80,2|0,0:0|0:0,0:0:0:0:
188,216,31855,2,0,B|173:186|181:138,1,80,2|0,0:0|0:0,0:0:0:0:
374,59,32218,5,2,0:0:0:0:
372,236,32400,1,0,0:0:0:0:
269,101,32582,1,2,0:0:0:0:
448,168,32764,2,0,P|460:244|456:268,1,80,0|2,0:0|0:0,0:0:0:0:
280,200,33127,1,0,0:0:0:0:
360,136,33309,1,2,0:0:0:0:
308,328,33491,1,0,0:0:0:0:
181,137,33673,6,0,P|124:118|85:123,1,80,2|0,0:0|0:0,0:0:0:0:
252,284,34036,2,0,P|310:271|341:248,1,80,2|0,0:0|0:0,0:0:0:0:
317,46,34400,2,0,P|273:86|257:122,1,80,2|0,0:0|0:0,0:0:0:0:
408,312,34764,2,0,P|426:255|421:216,1,80,2|0,0:0|0:0,0:0:0:0:
400,24,35127,6,0,L|416:132,1,80,2|8,0:3|0:0,0:0:0:0:
395,159,35400,2,0,P|347:163|311:183,1,80,2|8,0:3|0:0,0:0:0:0:
282,222,35673,1,2,0:3:0:0:
104,119,35855,5,6,0:1:0:0:
112,90,35945,1,2,0:1:0:0:
132,68,36036,1,6,0:1:0:0:
160,58,36127,1,2,0:1:0:0:
189,61,36218,1,10,0:1:0:0:
214,78,36309,1,2,0:1:0:0:
229,104,36400,1,6,0:1:0:0:
230,133,36491,1,2,0:1:0:0:
218,161,36582,6,0,P|188:194|155:223,1,80,6|0,0:0|0:0,0:0:0:0:
34,69,36946,2,0,P|77:78|119:92,1,80,8|0,0:0|0:0,0:0:0:0:
47,275,37309,2,0,P|33:232|24:189,1,80,2|0,0:0|0:0,0:0:0:0:
189,61,37673,2,0,P|249:61|301:69,1,80,8|0,0:0|0:0,0:0:0:0:
408,132,38037,5,2,0:0:0:0:
392,228,38218,1,0,0:0:0:0:
202,257,38400,1,8,0:0:0:0:
218,161,38581,1,0,0:0:0:0:
356,328,38764,1,2,0:0:0:0:
259,337,38945,1,0,0:0:0:0:
378,149,39127,2,0,P|387:187|391:227,1,80,8|0,0:0|0:0,0:0:0:0:
218,161,39491,6,0,P|207:122|206:83,1,80,2|0,0:0|0:0,0:0:0:0:
409,124,39855,2,0,P|449:130|487:143,1,80,8|0,0:0|0:0,0:0:0:0:
358,30,40218,2,0,P|328:56|304:88,1,80,2|0,0:0|0:0,0:0:0:0:
453,310,40582,2,0,P|445:270|429:233,1,80,8|0,0:0|0:0,0:0:0:0:
304,212,40946,5,6,0:1:0:0:
280,230,41036,1,2,0:1:0:0:
252,239,41127,1,2,0:1:0:0:
222,239,41218,1,2,0:1:0:0:
194,228,41309,1,10,0:1:0:0:
170,208,41399,1,2,0:1:0:0:
142,200,41490,1,2,0:1:0:0:
112,200,41581,1,2,0:1:0:0:
84,211,41673,6,0,L|26:238,1,40,6|2,0:1|0:1,0:0:0:0:
30,96,41855,2,0,L|88:69,1,40,2|2,0:1|0:1,0:0:0:0:
76,239,42037,2,0,L|40:256,1,40,10|2,0:1|0:1,0:0:0:0:
22,124,42218,2,0,L|80:97,1,40,2|2,0:1|0:1,0:0:0:0:
180,24,42400,6,0,P|197:59|208:97,1,80,2|0,0:0|0:0,0:0:0:0:
168,352,42764,2,0,P|154:325|136:258,1,80,8|0,0:0|0:0,0:0:0:0:
280,48,43127,2,0,P|324:56|356:76,1,80,2|0,0:0|0:0,0:0:0:0:
316,348,43491,2,0,P|272:340|240:320,1,80,8|0,0:0|0:0,0:0:0:0:
5,206,43855,6,0,P|61:198|93:198,1,80,2|0,0:0|0:0,0:0:0:0:
236,248,44218,1,8,0:0:0:0:
139,277,44400,1,0,0:0:0:0:
188,76,44582,1,2,0:0:0:0:
184,172,44764,1,0,0:0:0:0:
40,64,44946,2,0,P|89:36|118:25,1,80,8|0,0:0|0:0,0:0:0:0:
336,104,45309,6,0,P|297:92|261:74,1,80,2|0,0:0|0:0,0:0:0:0:
456,4,45673,2,0,L|471:87,1,80,8|0,0:0|0:0,0:0:0:0:
356,236,46037,2,0,L|341:157,1,80,2|0,0:0|0:0,0:0:0:0:
508,244,46400,2,0,L|493:322,1,80,8|0,0:0|0:0,0:0:0:0:
214,291,46764,6,0,B|265:222|355:236,1,160,2|8,0:0|0:0,0:0:0:0:
316,344,47309,1,0,0:0:0:0:
128,224,47491,2,0,B|94:300|150:376,1,160,2|8,0:0|0:0,0:0:0:0:
307,356,48037,1,2,0:1:0:0:
311,350,48127,1,2,0:1:0:0:
316,344,48218,6,0,L|340:240,1,80,6|0,0:0|0:0,0:0:0:0:
391,35,48582,2,0,P|393:74|389:114,1,80,8|0,0:0|0:0,0:0:0:0:
218,195,48946,2,0,P|215:155|220:116,1,80,2|0,0:0|0:0,0:0:0:0:
412,252,49309,2,0,P|368:264|316:264,1,80,8|0,0:0|0:0,0:0:0:0:
280,40,49673,5,2,0:0:0:0:
376,60,49855,1,0,0:0:0:0:
224,212,50037,1,8,0:0:0:0:
220,116,50218,1,0,0:0:0:0:
408,156,50400,1,2,0:0:0:0:
404,252,50581,1,0,0:0:0:0:
300,132,50764,2,0,P|296:84|308:20,1,80,8|0,0:0|0:0,0:0:0:0:
496,200,51127,6,0,P|500:248|488:312,1,80,2|0,0:0|0:0,0:0:0:0:
400,328,51491,1,8,0:0:0:0:
308,272,51673,1,0,0:0:0:0:
394,77,51855,2,0,P|404:116|408:156,1,80,2|0,0:0|0:0,0:0:0:0:
233,194,52218,2,0,P|222:155|219:115,1,80,8|0,0:0|0:0,0:0:0:0:
436,116,52582,6,0,P|431:163|408:224,1,80,2|0,0:0|0:0,0:0:0:0:
300,48,52946,2,0,P|304:95|327:156,1,80,8|0,0:0|0:0,0:0:0:0:
412,252,53309,1,2,0:0:0:0:
496,200,53491,1,0,0:0:0:0:
409,154,53673,1,8,0:0:0:0:
324,278,53855,1,0,0:0:0:0:
204,104,54037,1,2,0:0:0:0:
204,104,54400,6,0,P|156:100|116:104,1,80,8|0,0:0|0:0,0:0:0:0:
312,193,54764,2,0,P|272:196|233:193,1,80,2|0,0:0|0:0,0:0:0:0:
379,46,55127,2,0,P|339:43|299:47,1,80,8|0,0:0|0:0,0:0:0:0:
476,216,55491,6,0,P|484:176|476:120,1,80,2|0,0:0|0:0,0:0:0:0:
379,46,55855,1,8,0:0:0:0:
396,172,56037,1,0,0:0:0:0:
205,24,56218,2,0,P|201:64|209:132,1,80,2|0,0:0|0:0,0:0:0:0:
244,272,56582,1,8,0:0:0:0:
284,172,56764,1,0,0:0:0:0:
92,232,56946,1,2,0:0:0:0:
92,232,57309,6,0,P|88:184|92:144,1,80,8|0,0:0|0:0,0:0:0:0:
284,172,57673,2,0,P|288:220|284:260,1,80,2|0,0:0|0:0,0:0:0:0:
128,76,58037,2,0,P|167:48|204:32,1,80,8|0,0:0|0:0,0:0:0:0:
360,60,58400,5,2,0:0:0:0:
264,140,58582,1,2,0:1:0:0:
392,280,58764,2,0,L|380:168,1,80,8|0,0:0|0:0,0:0:0:0:
212,256,59127,2,0,L|220:335,1,80,2|0,0:1|0:0,0:0:0:0:
264,140,59491,1,8,0:0:0:0:
412,292,59673,2,0,L|400:180,1,80,2|0,0:1|0:0,0:0:0:0:
264,140,60037,5,0,0:0:0:0:
132,252,60218,2,0,P|88:252|36:240,1,80,10|0,0:1|0:0,0:0:0:0:
132,76,60582,2,0,P|143:118|145:171,1,80,2|0,0:1|0:0,0:0:0:0:
66,323,60946,2,0,P|55:281|53:228,1,80,8|0,0:0|0:0,0:0:0:0:
224,52,61309,5,2,0:1:0:0:
145,154,61491,1,2,0:1:0:0:
284,172,61673,2,0,P|288:216|288:272,1,80,10|0,0:1|0:0,0:0:0:0:
64,128,62037,2,0,L|72:36,1,80,10|8,0:1|0:0,0:0:0:0:
224,52,62400,1,10,0:1:0:0:
52,244,62582,1,8,0:0:0:0:
256,192,62764,12,8,63855,0:3:0:0:
240,256,64037,5,2,0:1:0:0:
244,264,64127,1,2,0:1:0:0:
248,272,64218,2,0,L|236:380,1,92.0000017547608,4|0,0:0|0:0,0:0:0:0:
392,240,64582,2,0,P|392:196|372:136,1,92.0000017547608,8|0,0:0|0:0,0:0:0:0:
141,311,64946,2,0,L|152:220,1,92.0000017547608,2|0,0:0|0:0,0:0:0:0:
283,98,65310,2,0,P|295:142|296:188,1,92.0000017547608,8|0,0:0|0:0,0:0:0:0:
56,168,65673,6,0,L|44:276,1,92.0000017547608,2|0,0:0|0:0,0:0:0:0:
187,46,66037,2,0,P|199:90|200:136,1,92.0000017547608,8|0,0:0|0:0,0:0:0:0:
45,259,66400,1,2,0:0:0:0:
195,146,66582,1,0,0:0:0:0:
197,275,66764,1,8,0:0:0:0:
56,168,66946,1,0,0:0:0:0:
208,280,67127,6,0,P|260:279|303:271,1,92.0000017547608,2|0,0:0|0:0,0:0:0:0:
399,30,67491,2,0,P|354:38|312:56,1,92.0000017547608,8|0,0:0|0:0,0:0:0:0:
465,183,67855,2,0,P|436:148|400:120,1,92.0000017547608,2|0,0:0|0:0,0:0:0:0:
212,100,68218,2,0,P|220:46|243:-4,1,92.0000017547608,8|0,0:0|0:0,0:0:0:0:
199,208,68582,6,0,L|192:268,3,46.0000008773804,4|0|0|0,0:1|0:1|0:1|0:1,0:0:0:0:
304,128,68946,2,0,L|297:68,3,46.0000008773804,8|0|0|0,0:1|0:1|0:1|0:1,0:0:0:0:
308,232,69309,5,2,0:0:0:0:
308,232,69400,1,0,0:0:0:0:
308,232,69491,2,0,L|315:292,1,46.0000008773804,2|0,0:1|0:0,0:0:0:0:
408,160,69673,1,8,0:0:0:0:
408,160,69764,1,0,0:0:0:0:
408,160,69855,2,0,L|401:100,1,46.0000008773804,2|0,0:1|0:0,0:0:0:0:
222,70,70037,6,0,P|265:56|311:55,1,92.0000017547608,2|0,0:0|0:0,0:0:0:0:
193,253,70400,2,0,L|71:231,1,92.0000017547608,8|0,0:0|0:0,0:0:0:0:
296,152,70764,1,2,0:0:0:0:
260,304,70946,1,0,0:0:0:0:
140,156,71127,2,0,P|135:108|140:28,1,92.0000017547608,8|0,0:0|0:0,0:0:0:0:
392,44,71491,5,2,0:0:0:0:
296,152,71673,1,0,0:0:0:0:
280,36,71855,1,8,0:0:0:0:
408,160,72037,2,0,P|407:216|394:263,1,92.0000017547608,0|2,0:0|0:0,0:0:0:0:
288,136,72400,1,0,0:0:0:0:
480,104,72582,2,0,P|489:167|489:215,1,92.0000017547608,8|0,0:0|0:0,0:0:0:0:
280,352,72946,6,0,L|378:340,1,92.0000017547608,2|0,0:0|0:0,0:0:0:0:
248,220,73309,2,0,L|150:232,1,92.0000017547608,8|0,0:0|0:0,0:0:0:0:
4,68,73673,5,6,0:1:0:0:
4,68,73763,1,2,0:1:0:0:
4,68,73855,2,0,L|60:57,1,46.0000008773804,2|2,0:1|0:1,0:0:0:0:
40,200,74037,1,10,0:1:0:0:
40,200,74128,1,2,0:1:0:0:
40,200,74219,2,0,L|76:155,1,46.0000008773804,2|2,0:1|0:1,0:0:0:0:
187,40,74400,5,6,0:1:0:0:
216,61,74490,1,2,0:1:0:0:
252,70,74581,1,2,0:1:0:0:
288,65,74672,1,2,0:1:0:0:
320,48,74764,1,10,0:1:0:0:
356,50,74854,1,2,0:1:0:0:
388,66,74945,1,2,0:1:0:0:
412,95,75036,1,2,0:1:0:0:
421,130,75127,5,6,0:1:0:0:
416,166,75218,1,2,0:1:0:0:
397,197,75309,1,2,0:1:0:0:
367,218,75400,1,10,0:1:0:0:
330,213,75491,1,10,0:1:0:0:
298,194,75581,1,2,0:1:0:0:
262,188,75673,1,10,0:1:0:0:
226,194,75763,1,2,0:1:0:0:
194,212,75855,6,0,L|160:104,1,92.0000017547608,6|0,0:0|0:0,0:0:0:0:
356,50,76218,2,0,P|362:102|348:154,1,92.0000017547608,8|0,0:0|0:0,0:0:0:0:
144,44,76582,2,0,L|260:28,1,92.0000017547608,2|0,0:0|0:0,0:0:0:0:
264,268,76946,2,0,P|196:284|152:284,1,92.0000017547608,8|0,0:0|0:0,0:0:0:0:
48,96,77309,5,2,0:0:0:0:
140,176,77491,1,0,0:0:0:0:
48,256,77673,2,0,P|44:308|52:368,1,92.0000017547608,8|0,0:0|0:0,0:0:0:0:
348,356,78037,1,2,0:0:0:0:
264,268,78218,1,0,0:0:0:0:
363,194,78400,2,0,P|363:150|351:86,1,92.0000017547608,8|0,0:0|0:0,0:0:0:0:
144,44,78764,6,0,L|132:152,1,92.0000017547608,2|0,0:0|0:0,0:0:0:0:
259,315,79127,2,0,L|271:207,1,92.0000017547608,8|0,0:0|0:0,0:0:0:0:
48,124,79491,2,0,L|60:232,1,92.0000017547608,2|0,0:0|0:0,0:0:0:0:
256,120,79855,2,0,L|244:12,1,92.0000017547608,8|0,0:0|0:0,0:0:0:0:
421,130,80218,6,0,B|425:182|407:220,1,92.0000017547608,2|0,0:0|0:0,0:0:0:0:
240,356,80582,2,0,B|206:331|183:284,1,92.0000017547608,8|0,0:0|0:0,0:0:0:0:
303,99,80946,2,0,B|315:151|283:207,1,92.0000017547608,2|0,0:0|0:0,0:0:0:0:
72,143,81309,2,0,B|112:127|188:123,1,92.0000017547608,8|0,0:0|0:0,0:0:0:0:
432,92,81673,6,0,B|336:36|224:84,1,184.000003509522,2|8,0:0|0:0,0:0:0:0:
162,125,82218,1,0,0:0:0:0:
277,278,82400,2,0,P|291:219|289:162,1,92.0000017547608,2|0,0:0|0:0,0:0:0:0:
112,56,82764,2,0,P|172:52|228:64,1,92.0000017547608,8|0,0:0|0:0,0:0:0:0:
109,238,83127,6,0,B|81:150|117:38,1,184.000003509522,2|8,0:0|0:0,0:0:0:0:
312,24,83673,1,0,0:0:0:0:
220,96,83855,1,2,0:0:0:0:
340,208,84037,1,2,3:1:0:0:
340,208,84127,1,2,3:1:0:0:
340,208,84218,2,0,L|316:120,1,92.0000017547608,8|0,0:0|0:0,0:0:0:0:
472,232,84582,6,0,B|552:284|488:392|368:340|406:250,1,240,6|2,0:0|0:0,0:0:0:0:
476,80,85309,1,8,0:0:0:0:
476,80,85673,6,0,B|350:37|378:129|240:84,1,240,6|2,0:0|0:0,0:0:0:0:
420,149,86400,1,2,0:0:0:0:
301,18,86582,1,2,0:1:0:0:
301,18,86673,1,2,0:1:0:0:
301,18,86764,2,0,L|205:11,1,80,8|2,0:0|0:0,0:0:0:0:
64,168,87127,2,0,L|160:161,1,80,8|2,0:0|0:0,0:0:0:0:
420,149,87491,6,0,B|452:141|464:77|332:65|320:185|488:237|396:337,1,300.000011444092,4|0,0:0|0:0,0:0:0:0:
332,280,88582,2,0,L|309:267,4,20,2|2|2|2|2,0:1|0:1|0:1|0:1|0:1,0:0:0:0:
256,192,88787,12,0,90400,0:0:0:0:
