osu file format v14

[General]
AudioFilename: audio.mp3
AudioLeadIn: 0
PreviewTime: 36548
Countdown: 0
SampleSet: Soft
StackLeniency: 0.7
Mode: 0
LetterboxInBreaks: 0
WidescreenStoryboard: 0

[Editor]
DistanceSpacing: 1.2
BeatDivisor: 4
GridSize: 4
TimelineZoom: 1.580003

[Metadata]
Title:Shiawase ni Tsuite Watashi ga Shitteiru Itsutsu no Houhou
TitleUnicode:幸せについて私が知っている5つの方法
Artist:Maaya Sakamoto
ArtistUnicode:坂本真綾
Creator:Yohanes
Version:Hard
Source:幸腹グラフィティ
Tags:Koufuku Gourmet Girl Graffiti Anime TV Size Opening yaldo_27
BeatmapID:1251479
BeatmapSetID:582063

[Difficulty]
HPDrainRate:5
CircleSize:3.8
OverallDifficulty:6
ApproachRate:7.5
SliderMultiplier:1.4
SliderTickRate:1

[Events]
//Background and Video events
0,0,"BG.jpg",0,0
Video,1608,"op.avi"
//Break Periods
//Storyboard Layer 0 (Background)
//Storyboard Layer 1 (Fail)
//Storyboard Layer 2 (Pass)
//Storyboard Layer 3 (Foreground)
//Storyboard Sound Samples

[TimingPoints]
2037,363.636363636364,4,2,1,60,1,0
3400,363.636363636364,4,2,1,60,1,0
5490,363.636363636364,4,2,1,60,1,0
6037,363.636363636364,4,2,1,60,1,0
64218,-100,4,2,1,70,0,1
84582,-133.333333333333,4,2,1,60,0,0
87491,-133.333333333333,4,2,1,45,0,0
89673,-133.333333333333,4,2,1,15,0,0
90400,-100,4,2,1,5,0,0

[Colours]
Combo1 : 255,94,55
Combo2 : 173,255,95
Combo3 : 17,254,176
Combo4 : 255,88,100

[HitObjects]
390,155,2037,6,0,B|426:228|388:298,2,140,6|0|2,0:3|0:0|0:1,0:0:0:0:
122,229,3400,2,0,B|86:156|124:86,2,140,2|0|6,0:3|0:0|0:3,0:0:0:0:
441,317,5491,6,0,L|449:233,1,70,6|0,0:3|0:0,0:0:0:0:
365,208,5853,1,2,0:3:0:0:
365,208,5944,1,2,0:3:0:0:
365,208,6037,6,0,L|347:368,1,140,6|2,0:3|0:3,0:0:0:0:
163,347,6764,2,0,L|145:187,1,140,2|2,0:3|0:3,0:0:0:0:
136,117,7309,1,0,0:0:0:0:
64,172,7491,6,0,P|48:140|49:91,1,70,2|0,0:3|0:0,0:0:0:0:
101,33,7855,2,0,P|135:25|182:39,1,70,2|0,0:3|0:0,0:0:0:0:
237,92,8218,2,0,B|265:179|213:251,1,140,2|2,0:3|0:3,0:0:0:0:
165,295,8764,1,0,0:0:0:0:
240,348,8945,6,0,P|274:338|317:340,1,70,2|0,0:3|0:0,0:0:0:0:
397,358,9309,2,0,P|424:325|430:268,1,70,2|0,0:3|0:0,0:0:0:0:
364,236,9673,2,0,P|353:200|361:161,1,70,2|0,0:3|0:0,0:0:0:0:
427,109,10037,1,2,0:3:0:0:
341,67,10218,6,0,B|269:46|204:80,1,140
128,133,10764,2,0,P|114:88|126:39,1,70,2|0,0:3|0:0,0:0:0:0:
206,80,11127,1,2,0:3:0:0:
228,169,11309,1,0,0:0:0:0:
249,257,11491,2,0,B|292:244|337:197|307:122,1,140,2|2,0:3|0:3,0:0:0:0:
228,169,12037,5,0,0:0:0:0:
162,231,12218,2,0,P|118:235|82:227,1,70,2|0,0:3|0:0,0:0:0:0:
71,319,12582,2,0,P|112:315|148:323,1,70,2|0,0:3|0:0,0:0:0:0:
227,347,12946,2,0,P|271:351|307:343,1,70,2|0,0:3|0:0,0:0:0:0:
360,281,13309,5,2,0:3:0:0:
443,317,13491,2,0,P|450:351|432:399,2,70,0|2|0,0:0|0:3|0:0,0:0:0:0:
360,281,14037,1,2,0:3:0:0:
273,306,14218,1,2,0:1:0:0:
193,262,14400,1,8,0:0:0:0:
93,311,14582,6,0,B|64:236|124:168,1,140,6|0,0:0|0:0,0:0:0:0:
240,142,15127,1,8,0:0:0:0:
325,237,15309,2,0,B|268:284|188:261,1,140,6|0,0:0|0:0,0:0:0:0:
240,142,15855,1,8,0:0:0:0:
356,121,16037,6,0,B|432:97|432:141|500:121,1,140,2|0,0:0|0:0,0:0:0:0:
460,37,16582,2,0,P|419:27|380:30,1,70,2|0,0:0|0:0,0:0:0:0:
303,55,16946,2,0,P|268:55|234:45,1,70,2|0,0:0|0:0,0:0:0:0:
146,23,17309,2,0,L|72:44,1,70,2|0,0:0|0:0,0:0:0:0:
2,93,17673,6,0,P|-6:135|12:190,1,70,2|0,0:0|0:0,0:0:0:0:
85,132,18037,1,2,0:0:0:0:
144,200,18218,1,0,0:0:0:0:
225,158,18400,2,0,B|287:137|302:178|365:153,1,140,2|2,0:0|0:0,0:0:0:0:
434,97,18946,1,0,0:0:0:0:
448,186,19127,6,0,L|471:350,2,140,2|2|2,0:0|0:0|0:0,0:0:0:0:
362,153,20037,1,0,0:0:0:0:
327,236,20218,2,0,P|291:261|243:254,1,70,2|0,0:0|0:0,0:0:0:0:
193,318,20582,6,0,P|177:268|190:220,1,70,2|0,0:0|0:0,0:0:0:0:
243,186,20946,1,2,0:0:0:0:
183,117,21127,1,0,0:0:0:0:
103,159,21309,2,0,B|47:103|79:9,1,140,2|2,0:0|0:0,0:0:0:0:
163,16,21855,1,0,0:0:0:0:
256,17,22037,6,0,L|353:18,1,70,2|0,0:0|0:0,0:0:0:0:
410,52,22400,2,0,P|418:96|404:137,1,70,2|0,0:0|0:0,0:0:0:0:
488,170,22764,2,0,P|453:198|411:207,1,70,2|0,0:0|0:0,0:0:0:0:
425,296,23127,2,0,P|382:280|354:248,1,70,2|0,0:0|0:0,0:0:0:0:
284,304,23491,6,0,P|276:260|290:219,1,70,2|0,0:0|0:0,0:0:0:0:
339,165,23855,2,0,P|344:130|336:96,1,70,2|0,0:0|0:0,0:0:0:0:
255,138,24218,1,2,0:0:0:0:
173,96,24400,1,0,0:0:0:0:
91,54,24582,2,0,P|83:88|89:123,1,70,6|0,0:0|0:0,0:0:0:0:
155,186,24946,6,0,B|189:262|149:330,1,140,2|2,0:0|0:0,0:0:0:0:
86,382,25491,1,0,0:0:0:0:
18,321,25673,2,0,B|-12:249|26:176,1,140,2|2,0:0|0:0,0:0:0:0:
89,123,26218,1,0,0:0:0:0:
155,186,26400,6,0,B|238:217|311:168,1,140,2|2,0:0|0:0,0:0:0:0:
362,123,26946,1,0,0:0:0:0:
378,212,27127,2,0,L|407:370,1,140,2|2,0:0|0:0,0:0:0:0:
480,300,27673,1,0,0:0:0:0:
464,210,27855,6,0,L|450:132,1,70,2|0,0:0|0:0,0:0:0:0:
362,123,28218,1,2,0:0:0:0:
290,180,28400,2,0,B|229:213|154:185,1,140
111,104,28946,2,0,P|112:65|142:25,1,70,2|0,0:0|0:0,0:0:0:0:
205,92,29309,6,0,L|293:92,1,70,2|0,0:0|0:0,0:0:0:0:
362,123,29673,2,0,P|396:84|404:56,1,70,2|0,0:0|0:0,0:0:0:0:
490,91,30037,2,0,B|523:172|480:236,1,140,2|2,0:0|0:0,0:0:0:0:
398,250,30582,1,0,0:0:0:0:
333,313,30764,6,0,P|359:335|393:343,1,70,2|0,0:0|0:0,0:0:0:0:
398,250,31127,1,2,0:0:0:0:
322,199,31309,1,0,0:0:0:0:
246,249,31491,2,0,P|207:254|152:232,1,70,2|0,0:0|0:0,0:0:0:0:
86,253,31855,2,0,L|64:164,1,70,2|0,0:0|0:0,0:0:0:0:
52,95,32218,5,2,0:0:0:0:
133,135,32400,2,0,P|167:140|204:127,1,70,0|2,0:0|0:0,0:0:0:0:
277,79,32764,2,0,B|350:51|428:88,1,140
479,145,33309,1,2,0:0:0:0:
451,232,33491,1,0,0:0:0:0:
360,233,33673,6,0,B|330:311|382:378,2,140,2|2|2,0:0|0:0|0:0,0:0:0:0:
451,75,34764,2,0,B|385:36|301:62,1,140,2|2,0:0|0:3,0:0:0:0:
235,102,35309,6,0,P|223:67|226:34,1,70,2|0,0:0|0:0,0:0:0:0:
315,57,35673,2,0,P|325:90|322:123,1,70,2|6,0:3|0:1,0:0:0:0:
259,191,36037,2,0,L|202:197,2,35,6|2|10,0:1|0:1|0:1,0:0:0:0:
334,241,36400,1,6,0:1:0:0:
422,196,36582,6,0,B|467:264|428:342,1,140,6|8,0:0|0:0,0:0:0:0:
354,374,37127,1,0,0:0:0:0:
278,323,37309,2,0,B|209:293|135:325,1,140,2|8,0:0|0:0,0:0:0:0:
61,366,37855,1,0,0:0:0:0:
61,366,38037,6,0,L|-2:295,1,70,2|0,0:0|0:0,0:0:0:0:
82,252,38400,2,0,L|46:163,1,70,8|0,0:0|0:0,0:0:0:0:
140,152,38764,2,0,L|136:56,1,70,2|0,0:0|0:0,0:0:0:0:
228,77,39127,2,0,L|257:-13,1,70,8|0,0:0|0:0,0:0:0:0:
329,55,39491,6,0,P|395:67|474:41,1,140,2|8,0:0|0:0,0:0:0:0:
505,128,40037,1,0,0:0:0:0:
432,182,40218,2,0,P|427:226|439:264,1,70,2|0,0:0|0:0,0:0:0:0:
462,337,40582,2,0,L|378:333,1,70,8|0,0:0|0:0,0:0:0:0:
279,359,40946,6,0,L|235:384,3,35,6|2|2|2,0:1|0:1|0:1|0:1,0:0:0:0:
223,306,41309,2,0,L|174:292,3,35,10|2|2|2,0:1|0:1|0:1|0:1,0:0:0:0:
220,228,41673,2,0,L|195:184,3,35,6|2|2|2,0:1|0:1|0:1|0:1,0:0:0:0:
273,170,42037,2,0,L|286:121,3,35,10|2|2|2,0:1|0:1|0:1|0:1,0:0:0:0:
207,123,42400,6,0,L|159:42,1,70,2|0,0:0|0:0,0:0:0:0:
85,31,42764,2,0,P|38:31|-4:42,1,70,8|0,0:0|0:0,0:0:0:0:
31,125,43127,2,0,P|78:125|120:114,1,70,2|0,0:0|0:0,0:0:0:0:
171,62,43491,2,0,P|205:60|240:66,1,70,8|0,0:0|0:0,0:0:0:0:
275,150,43855,6,0,L|305:237,1,70,2|0,0:0|0:0,0:0:0:0:
229,276,44218,2,0,L|198:188,1,70,8|0,0:0|0:0,0:0:0:0:
298,216,44582,2,0,L|328:303,1,70,2|0,0:0|0:0,0:0:0:0:
251,341,44946,2,0,L|220:253,1,70,8|0,0:0|0:0,0:0:0:0:
320,282,45309,6,0,P|374:285|409:271,1,70,2|0,0:0|0:0,0:0:0:0:
445,209,45673,2,0,L|423:123,1,70,8|0,0:0|0:0,0:0:0:0:
372,68,46037,2,0,P|318:65|283:79,1,70,2|0,0:0|0:0,0:0:0:0:
268,153,46400,2,0,P|303:159|337:154,1,70,8|0,0:0|0:0,0:0:0:0:
215,74,46764,6,0,B|142:108|151:209,1,140,2|8,0:0|0:0,0:0:0:0:
183,273,47309,1,0,0:0:0:0:
264,231,47491,2,0,B|345:210|422:267,1,140,2|8,0:0|0:0,0:0:0:0:
474,303,48037,1,2,0:1:0:0:
484,309,48127,1,2,0:1:0:0:
493,316,48218,6,0,B|542:244|504:155,1,140,6|8,0:0|0:0,0:0:0:0:
477,98,48764,1,0,0:0:0:0:
386,89,48946,2,0,B|295:102|278:195,1,140,2|8,0:0|0:0,0:0:0:0:
266,263,49491,1,0,0:0:0:0:
266,263,49673,6,0,L|283:360,1,70,2|0,0:0|0:0,0:0:0:0:
188,310,50037,2,0,P|175:264|188:216,1,70,8|0,0:0|0:0,0:0:0:0:
239,176,50400,2,0,P|240:141|228:108,1,70,2|0,0:0|0:0,0:0:0:0:
149,155,50764,2,0,P|102:158|54:142,1,70,8|0,0:0|0:0,0:0:0:0:
31,75,51127,6,0,B|92:21|181:49,1,140,2|8,0:0|0:0,0:0:0:0:
228,108,51673,1,0,0:0:0:0:
184,187,51855,2,0,B|185:273|266:291,1,140,2|8,0:0|0:0,0:0:0:0:
341,246,52400,1,0,0:0:0:0:
341,246,52582,6,0,L|356:325,1,70,2|0,0:0|0:0,0:0:0:0:
428,262,52946,2,0,L|412:182,1,70,8|0,0:0|0:0,0:0:0:0:
327,176,53309,2,0,L|342:255,1,70,2|0,0:0|0:0,0:0:0:0:
415,194,53673,2,0,L|399:114,1,70,8|0,0:0|0:0,0:0:0:0:
310,62,54037,1,2,0:0:0:0:
310,62,54400,6,0,P|251:70|223:63,1,70,8|0,0:0|0:0,0:0:0:0:
172,7,54764,2,0,P|150:56|154:97,1,70,2|0,0:0|0:0,0:0:0:0:
198,148,55127,2,0,P|208:178|196:224,1,70,8|0,0:0|0:0,0:0:0:0:
148,289,55491,6,0,B|153:338|204:369|252:363,1,140,2|8,0:0|0:0,0:0:0:0:
326,313,56037,1,0,0:0:0:0:
366,232,56218,2,0,B|408:247|431:311|408:351,1,140,2|8,0:0|0:0,0:0:0:0:
326,313,56764,1,0,0:0:0:0:
250,364,56946,1,2,0:0:0:0:
250,364,57309,6,0,L|172:356,1,70,8|0,0:0|0:0,0:0:0:0:
92,384,57673,2,0,L|100:306,1,70,2|0,0:0|0:0,0:0:0:0:
72,226,58037,2,0,L|150:234,1,70,8|0,0:0|0:0,0:0:0:0:
230,206,58400,6,0,L|222:284,1,70,2|2,0:0|0:1,0:0:0:0:
307,241,58764,2,0,B|321:208|306:164,1,70,8|0,0:0|0:0,0:0:0:0:
245,106,59127,2,0,B|288:38|384:45,1,140,2|8,0:1|0:0,0:0:0:0:
446,84,59673,2,0,B|464:49|445:7,2,70,2|0|0,0:1|0:1|0:0,0:0:0:0:
376,132,60218,6,0,L|390:220,1,70,10|0,0:1|0:0,0:0:0:0:
433,277,60582,2,0,L|365:288,1,70,2|0,0:1|0:0,0:0:0:0:
283,332,60946,2,0,L|269:244,1,70,10|0,0:1|0:0,0:0:0:0:
297,175,61309,6,0,L|209:185,1,70,2|2,0:1|0:1,0:0:0:0:
157,241,61673,2,0,B|68:237|43:141,1,140,10|10,0:1|0:1,0:0:0:0:
75,76,62218,2,0,L|155:39,1,70,8|10,0:0|0:1,0:0:0:0:
220,88,62582,1,10,0:1:0:0:
256,192,62764,12,8,63855,0:3:0:0:
209,32,64218,6,0,P|265:16|309:24,1,70,4|0,0:0|0:0,0:0:0:0:
334,95,64582,2,0,P|278:111|234:103,1,70,8|0,0:0|0:0,0:0:0:0:
169,125,64946,2,0,P|165:167|188:210,1,70,2|0,0:0|0:0,0:0:0:0:
271,208,65309,2,0,P|275:242|265:275,1,70,8|0,0:0|0:0,0:0:0:0:
180,324,65673,6,0,L|92:294,1,70,2|0,0:0|0:0,0:0:0:0:
30,249,66037,2,0,P|17:279|22:334,2,70,8|0|2,0:0|0:0|0:0,0:0:0:0:
91,172,66582,1,0,0:0:0:0:
181,212,66764,2,0,P|202:171|199:135,1,70,8|0,0:0|0:0,0:0:0:0:
153,62,67127,6,0,P|188:42|224:38,1,70,2|0,0:0|0:0,0:0:0:0:
265,123,67491,2,0,P|230:143|194:147,1,70,8|0,0:0|0:0,0:0:0:0:
104,152,67855,2,0,P|70:144|24:151,1,70,2|0,0:0|0:0,0:0:0:0:
63,241,68218,2,0,L|92:328,1,70,8|0,0:0|0:0,0:0:0:0:
165,250,68582,6,0,B|240:220|321:258,1,140,4|8,0:1|0:1,0:0:0:0:
382,304,69127,1,0,0:1:0:0:
430,218,69309,2,0,L|426:184,2,35,2|0|2,0:0|0:0|0:1,0:0:0:0:
480,302,69673,2,0,L|484:336,2,35,8|0|2,0:0|0:0|0:1,0:0:0:0:
382,304,70037,6,0,P|345:306|290:278,1,70,2|0,0:0|0:0,0:0:0:0:
300,198,70400,2,0,L|289:105,1,70,8|0,0:0|0:0,0:0:0:0:
256,36,70764,1,2,0:0:0:0:
256,36,70946,1,0,0:0:0:0:
186,105,71127,2,0,P|149:109|102:96,1,70,8|0,0:0|0:0,0:0:0:0:
27,62,71491,6,0,P|17:95|21:130,2,70,2|0|8,0:0|0:0|0:0,0:0:0:0:
117,102,72037,2,0,B|150:179|100:246,1,140,0|0,0:0|0:0,0:0:0:0:
26,291,72582,2,0,P|59:322|102:333,1,70,8|0,0:0|0:0,0:0:0:0:
177,305,72946,6,0,B|252:274|326:297,1,140,2|8,0:0|0:0,0:0:0:0:
404,332,73491,1,0,0:0:0:0:
472,252,73673,2,0,L|469:204,3,35,6|2|2|2,0:1|0:1|0:1|0:1,0:0:0:0:
396,228,74037,2,0,L|394:194,3,35,10|2|2|2,0:1|0:1|0:1|0:1,0:0:0:0:
321,205,74400,6,0,L|271:220,3,35,6|2|2|2,0:1|0:1|0:1|0:1,0:0:0:0:
269,286,74764,2,0,L|222:261,3,35,10|2|2|2,0:1|0:1|0:1|0:1,0:0:0:0:
174,306,75127,2,0,L|159:255,3,35,6|2|2|2,0:1|0:1|0:1|0:1,0:0:0:0:
92,252,75491,2,0,L|116:205,3,35,10|2|2|2,0:1|0:1|0:1|0:1,0:0:0:0:
180,199,75855,6,0,P|186:160|174:117,1,70,6|0,0:0|0:0,0:0:0:0:
82,138,76218,2,0,P|76:99|88:56,1,70,8|0,0:0|0:0,0:0:0:0:
166,19,76582,2,0,L|252:14,1,70,2|0,0:0|0:0,0:0:0:0:
318,69,76946,2,0,P|333:103|331:150,1,70,8|0,0:0|0:0,0:0:0:0:
273,212,77309,6,0,P|274:246|289:278,2,70,2|0|8,0:0|0:0|0:0,0:0:0:0:
366,244,77855,2,0,B|438:272|514:212,1,140,0|0,0:0|0:0,0:0:0:0:
510,125,78400,2,0,L|482:35,1,70,8|0,0:0|0:0,0:0:0:0:
412,120,78764,6,0,B|347:142|275:104,1,140,2|8,0:0|0:0,0:0:0:0:
223,21,79309,1,0,0:0:0:0:
141,75,79491,2,0,L|56:59,1,70,2|0,0:0|0:0,0:0:0:0:
14,142,79855,2,0,L|99:158,1,70,8|0,0:0|0:0,0:0:0:0:
141,234,80218,6,0,L|56:250,1,70,2|0,0:0|0:0,0:0:0:0:
14,326,80582,2,0,P|46:341|99:342,1,70,8|0,0:0|0:0,0:0:0:0:
172,308,80946,2,0,P|214:299|250:302,1,70,2|0,0:0|0:0,0:0:0:0:
322,355,81309,2,0,P|355:346|386:329,1,70,8|0,0:0|0:0,0:0:0:0:
327,258,81673,6,0,B|296:182|332:103,1,140,2|8,0:0|0:0,0:0:0:0:
385,50,82218,1,0,0:0:0:0:
290,25,82400,2,0,B|220:7|221:47|132:24,2,140,2|8|2,0:0|0:0|0:0,0:0:0:0:
385,50,83309,5,0,0:0:0:0:
445,127,83491,2,0,P|452:166|431:215,1,70,8|0,0:0|0:0,0:0:0:0:
385,267,83855,1,2,0:0:0:0:
302,213,84037,1,2,3:1:0:0:
302,213,84127,1,2,3:1:0:0:
302,213,84218,2,0,P|255:216|228:232,1,70,8|0,0:0|0:0,0:0:0:0:
181,300,84582,6,0,B|123:337|63:326|31:284,1,157.500006008148,6|2,0:0|0:0,0:0:0:0:
113,235,85309,1,8,0:0:0:0:
113,235,85673,6,0,B|153:155|100:83,2,157.500006008148,6|2|8,0:0|0:0|0:0,0:0:0:0:
36,290,86946,1,2,0:0:0:0:
108,349,87127,2,0,B|160:366|160:336|216:355,1,105.000004005432,8|4,0:0|0:0,0:0:0:0:
256,192,87582,12,0,90400,0:0:0:0:
