osu file format v14

[General]
AudioFilename: audio.mp3
AudioLeadIn: 0
PreviewTime: 36548
Countdown: 0
SampleSet: Soft
StackLeniency: 0.7
Mode: 0
LetterboxInBreaks: 0
WidescreenStoryboard: 0

[Editor]
Bookmarks: 15309,48946
DistanceSpacing: 1
BeatDivisor: 4
GridSize: 4
TimelineZoom: 1.080003

[Metadata]
Title:Shiawase ni Tsuite Watashi ga Shitteiru Itsutsu no Houhou
TitleUnicode:幸せについて私が知っている5つの方法
Artist:Maaya Sakamoto
ArtistUnicode:坂本真綾
Creator:Yohanes
Version:Easy
Source:幸腹グラフィティ
Tags:Koufuku Gourmet Girl Graffiti Anime TV Size Opening yaldo_27
BeatmapID:1252288
BeatmapSetID:582063

[Difficulty]
HPDrainRate:2
CircleSize:3
OverallDifficulty:2
ApproachRate:3
SliderMultiplier:0.9
SliderTickRate:1

[Events]
//Background and Video events
0,0,"BG.jpg",0,0
Video,1608,"op.avi"
//Break Periods
//Storyboard Layer 0 (Background)
//Storyboard Layer 1 (Fail)
//Storyboard Layer 2 (Pass)
//Storyboard Layer 3 (Foreground)
//Storyboard Sound Samples

[TimingPoints]
2037,363.636363636364,4,2,1,60,1,0
3400,363.636363636364,4,2,1,60,1,0
5490,363.636363636364,4,2,1,60,1,0
6037,363.636363636364,4,2,1,60,1,0
64218,-100,4,2,1,70,0,1
84582,-100,4,2,1,60,0,0
87491,-100,4,2,1,45,0,0
89673,-100,4,2,1,15,0,0
90400,-100,4,2,1,5,0,0

[Colours]
Combo1 : 255,94,55
Combo2 : 173,255,95
Combo3 : 17,254,176
Combo4 : 255,88,100

[HitObjects]
149,144,2037,6,0,B|193:226|129:247|178:316,1,180,6|2,0:3|1:0,0:0:0:0:
333,316,3400,2,0,B|382:247|318:226|363:144,1,180,2|6,0:3|0:3,0:0:0:0:
256,32,6037,6,0,P|180:48|75:20,1,180,6|2,0:3|0:3,0:0:0:0:
0,184,7491,2,0,P|76:168|181:196,1,180,2|2,0:3|0:3,0:0:0:0:
248,243,8582,1,2,0:3:0:0:
313,181,8946,2,0,B|375:115|314:86|390:14,2,180,2|2|2,0:3|0:3|0:3,0:0:0:0:
248,243,10764,5,2,0:3:0:0:
319,297,11127,2,0,P|372:304|415:290,1,90,2|2,0:3|0:3,0:0:0:0:
465,226,11855,2,0,L|501:29,2,180,2|2|2,0:3|0:3|0:3,0:0:0:0:
347,89,14037,6,0,P|253:83|194:95,1,135,2|6,0:3|0:0,0:0:0:0:
95,226,15309,2,0,P|108:294|213:295,1,180,6|2,0:0|0:0,0:0:0:0:
327,242,16582,6,0,P|371:236|430:246,1,90,2|2,0:0|0:0,0:0:0:0:
487,187,17309,2,0,P|496:144|478:93,1,90,2|2,0:0|0:0,0:0:0:0:
410,46,18037,1,2,0:0:0:0:
332,92,18400,2,0,P|283:100|236:83,1,90,2|2,0:0|0:0,0:0:0:0:
170,38,19127,6,0,P|126:88|128:207,1,180,2|2,0:0|0:0,0:0:0:0:
170,273,20218,1,2,0:0:0:0:
230,206,20582,2,0,L|337:189,1,90,2|2,0:0|0:0,0:0:0:0:
401,155,21309,2,0,P|442:150|500:170,1,90,2|2,0:0|0:0,0:0:0:0:
509,253,22037,6,0,P|511:291|483:351,1,90,2|2,0:0|0:0,0:0:0:0:
403,351,22764,2,0,P|316:326|223:342,1,180,2|2,0:0|0:0,0:0:0:0:
145,372,23855,1,2,0:0:0:0:
157,282,24218,2,0,L|132:188,1,90,2|6,0:0|0:0,0:0:0:0:
45,174,24946,6,0,P|18:81|77:19,2,180,2|2|2,0:0|0:0|0:0,0:0:0:0:
106,107,26764,1,2,0:0:0:0:
191,134,27127,2,0,P|245:136|281:119,1,90,2|2,0:0|0:0,0:0:0:0:
338,55,27855,6,0,P|428:47|510:97,2,180,2|2|2,0:0|0:0|0:0,0:0:0:0:
369,139,29673,2,0,P|377:189|351:240,1,90,2|2,0:0|0:0,0:0:0:0:
297,285,30400,1,2,0:0:0:0:
221,235,30764,6,0,P|146:217|44:250,2,180,2|2|2,0:0|0:0|0:0,0:0:0:0:
297,285,32582,2,0,P|308:334|294:375,1,90,2|2,0:0|0:0,0:0:0:0:
216,325,33309,1,2,0:0:0:0:
221,235,33673,6,0,P|290:194|375:237,2,180,2|2|2,0:0|0:0|0:3,0:0:0:0:
141,276,35491,2,0,P|107:235|111:184,2,90,0|6|10,0:0|0:1|0:1,0:0:0:0:
216,325,36582,6,0,P|279:309|397:329,1,180,6|2,0:0|0:0,0:0:0:0:
456,264,37673,1,8,0:0:0:0:
396,196,38037,2,0,P|382:149|393:102,1,90,2|8,0:0|0:0,0:0:0:0:
463,59,38764,2,0,P|477:101|471:146,1,90,2|8,0:0|0:0,0:0:0:0:
389,109,39491,6,0,P|305:91|205:99,1,180,2|2,0:0|0:0,0:0:0:0:
137,148,40582,1,8,0:0:0:0:
206,208,40946,2,0,P|293:225|383:218,1,180,6|6,0:1|0:1,0:0:0:0:
458,168,42037,1,10,0:1:0:0:
466,257,42400,6,0,L|475:351,2,90,2|8|2,0:0|0:0|0:0,0:0:0:0:
383,218,43491,1,8,0:0:0:0:
458,168,43855,2,0,L|467:74,2,90,2|8|2,0:0|0:0|0:0,0:0:0:0:
383,218,44946,1,8,0:0:0:0:
309,166,45309,6,0,P|225:137|118:157,1,180,2|2,0:0|0:0,0:0:0:0:
63,201,46400,1,8,0:0:0:0:
120,270,46764,2,0,L|108:364,1,90,2|8,0:0|0:0,0:0:0:0:
196,337,47491,2,0,L|208:243,1,90,2|8,0:0|0:0,0:0:0:0:
281,195,48218,6,0,P|309:129|281:11,2,180,6|2|2,0:0|0:0|0:0,0:0:0:0:
207,247,50037,1,8,0:0:0:0:
136,196,50400,2,0,L|122:106,1,90,2|8,0:0|0:0,0:0:0:0:
34,87,51127,6,0,L|62:269,2,180,2|2|2,0:0|0:0|0:0,0:0:0:0:
96,21,52946,2,0,P|138:19|190:46,2,90,8|2|8,0:0|0:0|0:0,0:0:0:0:
122,107,54037,1,2,0:0:0:0:
147,192,54400,2,0,P|205:198|245:188,1,90,8|2,0:0|0:0,0:0:0:0:
311,142,55127,1,8,0:0:0:0:
373,205,55491,6,0,P|457:181|495:93,2,180,2|2|2,0:0|0:0|0:0,0:0:0:0:
300,257,57309,2,0,P|292:317|310:357,2,90,8|2|8,0:0|0:0|0:0,0:0:0:0:
373,205,58400,5,2,0:0:0:0:
309,141,58764,2,0,B|214:121|239:179|124:154,2,180,8|8|10,0:0|0:0|0:1,0:0:0:0:
393,172,60582,2,0,P|416:216|412:272,1,90,0|8,0:0|0:0,0:0:0:0:
396,343,61309,5,0,0:0:0:0:
307,360,61673,2,0,P|250:311|278:213,1,180,10|10,0:1|0:1,0:0:0:0:
359,195,62764,2,0,L|365:289,2,90,0|0|0,0:0|0:0|0:0,0:0:0:0:
353,105,63855,1,8,0:3:0:0:
285,45,64218,6,0,L|193:31,1,90,4|8,0:0|0:0,0:0:0:0:
121,82,64946,2,0,P|115:138|134:183,1,90,2|8,0:0|0:0,0:0:0:0:
204,213,65673,2,0,P|204:257|185:298,1,90,2|8,0:0|0:0,0:0:0:0:
104,258,66400,2,0,P|49:247|11:262,2,90,2|8|2,0:0|0:0|0:0,0:0:0:0:
185,298,67491,6,0,P|275:315|360:273,1,180,8|8,0:0|0:0,0:0:0:0:
397,201,68582,2,0,L|383:104,1,90,4|8,0:1|0:1,0:0:0:0:
294,110,69309,2,0,L|308:207,1,90,2|8,0:0|0:0,0:0:0:0:
315,288,70037,6,0,P|260:290|217:312,1,90,2|8,0:0|0:0,0:0:0:0:
154,355,70764,2,0,P|96:361|56:343,1,90,2|8,0:0|0:0,0:0:0:0:
8,281,71491,1,0,0:0:0:0:
31,194,71855,2,0,L|53:95,1,90,8|2,0:0|0:0,0:0:0:0:
113,42,72582,1,8,0:0:0:0:
191,86,72946,6,0,P|273:95|361:52,2,180,2|6|6,0:0|0:1|0:1,0:0:0:0:
113,42,74764,1,10,0:1:0:0:
41,96,75127,2,0,P|21:144|23:183,1,90,6|8,0:1|0:0,0:0:0:0:
43,269,75855,6,0,L|135:288,1,90,6|8,0:0|0:0,0:0:0:0:
214,252,76582,2,0,P|264:235|309:236,1,90,2|8,0:0|0:0,0:0:0:0:
384,267,77309,2,0,P|402:238|400:174,1,90,2|8,0:0|0:0,0:0:0:0:
358,104,78037,1,2,0:0:0:0:
277,143,78400,2,0,L|183:120,1,90,8|2,0:0|0:0,0:0:0:0:
107,85,79127,6,0,P|61:106|30:148,1,90,8|2,0:0|0:0,0:0:0:0:
14,223,79855,2,0,L|28:313,1,90,8|2,0:0|0:0,0:0:0:0:
109,272,80582,2,0,P|166:262|212:283,1,90,8|2,0:0|0:0,0:0:0:0:
268,323,81309,1,8,0:0:0:0:
344,275,81673,6,0,P|372:218|356:102,2,180,2|2|2,0:0|0:0|0:0,0:0:0:0:
268,323,83491,1,8,0:0:0:0:
195,271,83855,2,0,B|94:230|119:296|3:251,1,180,2|6,0:0|0:0,0:0:0:0:
97,95,85309,5,8,0:0:0:0:
169,148,85673,2,0,P|235:166|351:119,1,180,6|2,0:0|0:0,0:0:0:0:
400,66,86764,2,0,P|434:49|487:57,2,90,8|8|4,0:0|0:0|0:0,0:0:0:0:
256,192,87673,12,0,90400,0:0:0:0:
