osu file format v14

[General]
AudioFilename: audio.mp3
AudioLeadIn: 0
PreviewTime: 119686
Countdown: 0
SampleSet: Soft
StackLeniency: 0.7
Mode: 0
LetterboxInBreaks: 0
WidescreenStoryboard: 0

[Editor]
Bookmarks: 35368,92095,96459,143004,198277,246277
DistanceSpacing: 1
BeatDivisor: 2
GridSize: 4
TimelineZoom: 0.6999999

[Metadata]
Title:Shiawase ni Tsuite Watashi ga Shitteiru Itsutsu no Houhou
TitleUnicode:幸せについて私が知っている5つの方法
Artist:Maaya Sakamoto
ArtistUnicode:坂本真綾
Creator:Yohanes
Version:Simple
Source:幸腹グラフィティ
Tags:Delis Seikatu Trust Koufuku Gourmet Girl Graffiti Anime Opening yaldo_27
BeatmapID:1274446
BeatmapSetID:590125

[Difficulty]
HPDrainRate:2
CircleSize:3
OverallDifficulty:2
ApproachRate:3
SliderMultiplier:0.799999999999999
SliderTickRate:1

[Events]
//Background and Video events
0,0,"BG.jpg",0,0
//Break Periods
2,63004,68110
2,145913,153201
2,192459,208473
//Storyboard Layer 0 (Background)
//Storyboard Layer 1 (Fail)
//Storyboard Layer 2 (Pass)
//Storyboard Layer 3 (Foreground)
//Storyboard Sound Samples

[TimingPoints]
823,363.636363636364,4,2,1,70,1,0
2186,363.636363636364,4,2,1,70,1,0
4276,363.636363636364,4,2,1,70,1,0
4823,363.636363636364,4,2,1,60,1,0
6095,-100,4,2,2,50,0,0
12913,-100,4,2,1,60,0,0
13186,-100,4,2,1,60,0,0
14459,-100,4,2,2,60,0,0
14641,-100,4,2,1,60,0,0
24913,-100,4,2,2,60,0,0
25186,-100,4,2,1,60,0,0
25368,-100,4,2,2,60,0,0
25550,-100,4,2,1,60,0,0
25732,-100,4,2,2,60,0,0
25913,-100,4,2,1,60,0,0
26095,-100,4,2,2,60,0,0
26277,-100,4,2,1,60,0,0
26459,-100,4,2,2,60,0,0
26550,-100,4,2,1,60,0,0
27095,-100,4,2,2,60,0,0
27368,-100,4,2,1,60,0,0
27823,-100,4,2,2,60,0,0
28368,-100,4,2,1,60,0,0
28550,-100,4,2,2,60,0,0
28732,-100,4,2,1,60,0,0
28913,-100,4,2,2,60,0,0
29095,-100,4,2,1,60,0,0
29277,-100,4,2,2,60,0,0
29459,-100,4,2,1,60,0,0
30004,-100,4,2,2,60,0,0
30550,-100,4,2,1,60,0,0
31459,-100,4,2,2,60,0,0
31641,-100,4,2,1,60,0,0
31823,-100,4,2,2,60,0,0
32095,-100,4,2,1,60,0,0
32186,-100,4,2,2,60,0,0
32368,-100,4,2,1,60,0,0
61550,-100,4,2,1,60,0,0
69913,-100,4,2,1,60,0,0
71186,-100,4,2,1,60,0,0
96459,-100,4,2,1,45,0,0
96823,-100,4,2,1,50,0,0
97186,-100,4,2,1,55,0,0
97550,-100,4,2,1,60,0,0
97913,-100,4,2,1,60,0,0
113913,-100,4,2,2,60,0,0
118277,-100,4,2,1,70,0,0
119368,-100,4,2,1,70,0,0
140095,-100,4,2,1,65,0,0
154641,-100,4,2,1,60,0,0
191732,-100,4,2,1,60,0,0
209913,-100,4,2,2,50,0,0
216095,-100,4,2,2,60,0,0
222368,-100,4,2,1,60,0,0
225550,-100,4,1,0,60,0,0
225913,-100,4,2,1,70,0,0
226095,-100,4,2,2,70,0,0
227823,-100,4,2,1,70,0,0
228186,-100,4,2,2,70,0,0
229641,-100,4,2,1,70,0,0
230095,-100,4,2,2,70,0,0
231186,-100,4,2,1,70,0,0
231459,-100,4,2,2,70,0,0
231641,-100,4,2,1,70,0,0
231823,-100,4,2,2,70,0,0
233641,-100,4,2,0,70,0,0
233823,-100,4,2,1,70,0,0
234004,-100,4,2,2,70,0,0
235368,-100,4,2,1,70,0,0
237550,-100,4,2,1,70,0,0
237641,-100,4,2,2,70,0,0
239459,-100,4,2,0,70,0,0
239732,-100,4,2,2,70,0,0
240368,-100,4,2,1,70,0,0
240641,-100,4,2,2,70,0,0
241277,-100,4,2,1,70,0,0
241732,-100,4,2,2,70,0,0
245913,-100,4,2,2,70,0,0
246277,-100,4,2,1,70,0,0
257913,-100,4,2,3,70,0,0
258277,-100,4,2,2,70,0,0
260095,-100,4,2,1,70,0,0
260277,-100,4,2,2,70,0,0
260732,-100,4,2,1,70,0,0
261186,-100,4,2,2,70,0,0
261550,-100,4,2,1,70,0,0
266459,-100,4,2,1,70,0,0
266641,-100,4,2,1,60,0,0
269550,-100,4,2,1,50,0,0
273913,-100,4,2,1,5,0,0

[Colours]
Combo1 : 255,94,55
Combo2 : 173,255,95
Combo3 : 17,254,176
Combo4 : 255,88,100

[HitObjects]
216,76,823,6,0,B|164:159|183:234,1,160,8|12,0:2|0:2,0:0:0:0:
296,308,2186,2,0,B|347:224|328:149,1,160,8|12,0:2|0:2,0:0:0:0:
256,192,3095,12,4,4823,0:2:0:0:
257,81,6277,6,0,B|282:115|266:175,1,79.9999999999999,2|0,0:0|0:0,0:0:0:0:
232,227,7004,2,0,B|220:269|245:303,1,79.9999999999999,0|0,0:0|0:0,0:0:0:0:
319,271,7732,2,0,B|405:249|481:292,2,160,2|2|2,0:0|0:0|0:0,0:0:0:0:
245,303,9550,5,2,0:0:0:0:
169,276,9913,2,0,L|76:294,1,79.9999999999999,2|2,0:0|0:0,0:0:0:0:
34,348,10641,2,0,B|70:314|56:225|3:194,1,160,2|2,0:0|0:0,0:0:0:0:
55,133,11732,2,0,B|100:117|149:129,1,79.9999999999999,0|0,0:0|0:0,0:0:0:0:
205,161,12459,5,2,0:0:0:0:
270,114,12823,2,0,B|288:44|354:26,1,120,2|12,0:0|0:0,0:0:0:0:
448,151,14095,2,0,P|402:126|410:203,1,160,12|6,0:0|0:0,0:0:0:0:
472,297,15368,6,0,B|431:290|388:296,1,79.9999999999999,2|2,0:0|0:0,0:0:0:0:
326,340,16095,1,2,0:0:0:0:
246,330,16459,2,0,B|204:310|185:256,1,79.9999999999999,2|2,0:0|0:0,0:0:0:0:
111,271,17186,2,0,B|95:227|120:175,1,79.9999999999999,2|2,0:0|0:0,0:0:0:0:
179,148,17913,6,0,B|268:158|338:144,1,160,2|2,0:0|0:0,0:0:0:0:
371,70,19004,1,2,3:2:0:0:
308,19,19368,2,0,P|268:24|202:24,1,79.9999999999999,2|2,0:0|0:0,0:0:0:0:
148,24,20095,2,0,B|51:24|51:127,1,160,2|2,0:0|0:0,0:0:0:0:
126,151,21186,6,0,B|140:199|127:239,1,79.9999999999999,2|2,0:0|0:0,0:0:0:0:
57,265,21913,2,0,B|46:295|60:343,1,79.9999999999999,2|2,0:0|0:0,0:0:0:0:
133,375,22641,1,2,0:0:0:0:
199,330,23004,2,0,B|257:313|305:336,1,79.9999999999999,2|4,0:0|3:2,0:0:0:0:
351,357,23732,6,0,B|450:378|500:288,2,160,2|2|2,0:0|0:0|0:0,0:0:0:0:
278,326,25550,1,2,0:0:0:0:
316,256,25913,2,0,B|331:207|299:145,1,79.9999999999999,2|2,0:0|0:0,0:0:0:0:
254,121,26641,6,0,B|167:159|82:77,1,160,2|2,0:0|0:0,0:0:0:0:
48,38,27732,1,2,0:0:0:0:
0,104,28095,2,0,B|-10:160|22:203,1,79.9999999999999,2|2,0:0|0:0,0:0:0:0:
49,251,28823,1,2,0:0:0:0:
122,218,29186,1,2,0:0:0:0:
188,263,29550,6,0,B|279:286|357:240,2,160,2|2|2,0:0|0:0|3:2,0:0:0:0:
122,218,31368,2,0,B|118:175|128:115,1,79.9999999999999,2|2,0:0|0:0,0:0:0:0:
144,60,32095,1,2,0:0:0:0:
220,83,32459,6,0,B|269:92|306:82,1,79.9999999999999,2|2,0:0|0:0,0:0:0:0:
376,63,33186,2,0,B|385:112|375:149,1,79.9999999999999,2|2,0:0|0:0,0:0:0:0:
325,204,33913,2,0,B|247:160|159:209,1,160,8|8,0:0|0:0,0:0:0:0:
103,243,35004,1,8,0:0:0:0:
44,188,35368,6,0,B|10:96|70:26,2,160,6|2|2,0:0|0:0|0:0,0:0:0:0:
103,243,37186,1,8,0:0:0:0:
159,299,37550,2,0,B|201:286|244:297,1,79.9999999999999,2|8,0:0|0:0,0:0:0:0:
304,340,38277,6,0,B|346:267|315:164,1,160,2|2,0:0|0:0,0:0:0:0:
264,128,39368,1,8,0:0:0:0:
188,155,39732,2,0,B|152:168|90:152,1,79.9999999999999,2|8,0:0|0:0,0:0:0:0:
124,77,40459,2,0,B|160:64|222:80,1,79.9999999999999,6|8,0:1|0:1,0:0:0:0:
264,128,41186,6,0,B|323:61|449:98,1,160,6|2,0:0|0:0,0:0:0:0:
481,127,42277,1,8,0:0:0:0:
467,208,42641,1,2,0:0:0:0:
387,217,43004,2,0,B|351:246|352:296,1,79.9999999999999,8|2,0:0|0:0,0:0:0:0:
391,356,43732,1,8,0:0:0:0:
311,357,44095,6,0,L|134:374,1,160,2|2,0:0|0:0,0:0:0:0:
88,323,45186,1,8,0:0:0:0:
128,253,45550,2,0,L|305:236,1,160,2|2,0:0|0:0,0:0:0:0:
367,230,46641,1,8,3:2:0:0:
434,186,47004,6,0,B|478:269|420:354,2,160,6|2|2,0:0|0:0|0:0,0:0:0:0:
388,119,48823,1,8,0:0:0:0:
313,148,49186,2,0,B|267:157|230:146,1,79.9999999999999,2|8,0:0|0:0,0:0:0:0:
166,104,49913,6,0,B|68:91|39:187,1,160,2|2,0:0|0:0,0:0:0:0:
48,258,51004,1,8,0:0:0:0:
115,214,51368,2,0,B|193:202|283:215,1,160,2|2,0:0|0:0,0:0:0:0:
345,251,52459,1,8,0:0:0:0:
417,217,52823,5,2,0:0:0:0:
478,267,53186,2,0,B|490:318|479:363,1,79.9999999999999,8|2,0:0|0:0,0:0:0:0:
405,368,53913,1,8,0:0:0:0:
327,346,54277,2,0,B|246:334|154:363,2,160,2|2|2,0:0|0:0|0:0,0:0:0:0:
405,368,56095,5,8,0:0:0:0:
450,301,56459,1,2,0:0:0:0:
400,237,56823,1,8,0:0:0:0:
323,264,57186,2,0,B|244:286|160:256,1,160,2|2,0:0|0:0,0:0:0:0:
125,188,58277,1,8,0:0:0:0:
158,115,58641,6,0,B|166:69|142:16,1,79.9999999999999,2|8,0:0|0:0,0:0:0:0:
73,11,59368,2,0,B|8:8|-30:65|5:143,2,160,2|2|2,0:0|0:0|0:0,0:0:0:0:
150,36,61186,2,0,B|200:47|255:29,1,79.9999999999999,8|2,0:0|0:0,0:0:0:0:
301,68,69550,6,0,B|247:68|223:143|270:179,1,120,2|4,0:0|0:0,0:0:0:0:
336,292,70823,2,0,B|268:247|173:275,1,160,4|6,0:0|0:0,0:0:0:0:
78,332,72095,6,0,B|30:338|-14:292,1,79.9999999999999,8|2,0:0|0:0,0:0:0:0:
0,228,72823,1,8,0:0:0:0:
44,161,73186,2,0,B|92:155|136:201,1,79.9999999999999,2|8,0:0|0:0,0:0:0:0:
167,247,73913,2,0,B|211:269|265:250,1,79.9999999999999,2|8,0:0|0:0,0:0:0:0:
306,203,74641,6,0,B|330:121|285:41,1,160,2|2,0:0|0:0,0:0:0:0:
214,76,75732,1,8,0:0:0:0:
143,38,76095,2,0,B|100:28|26:42,1,79.9999999999999,2|8,0:0|0:0,0:0:0:0:
0,86,76823,2,0,B|-25:146|30:200|82:182,1,160,2|2,0:0|0:0,0:0:0:0:
150,139,77913,6,0,B|197:132|248:142,1,79.9999999999999,8|2,0:0|0:0,0:0:0:0:
300,175,78641,2,0,B|332:181|379:174,1,79.9999999999999,8|2,0:0|0:0,0:0:0:0:
450,137,79368,2,0,B|478:151|511:186,1,79.9999999999999,8|2,0:0|0:0,0:0:0:0:
488,263,80095,1,12,0:0:0:0:
445,331,80459,6,0,B|386:388|264:375,1,160,6|2,0:0|0:0,0:0:0:0:
217,363,81550,1,8,0:0:0:0:
251,291,81913,2,0,B|202:220|105:229,1,160,2|2,0:0|0:0,0:0:0:0:
36,255,83004,1,8,0:0:0:0:
2,182,83368,6,0,B|-20:84|51:26,1,160,2|2,0:0|0:0,0:0:0:0:
119,17,84459,1,8,0:0:0:0:
191,49,84823,2,0,B|239:58|286:46,1,79.9999999999999,2|8,0:0|0:0,0:0:0:0:
346,25,85550,2,0,B|377:16|425:25,1,79.9999999999999,2|8,0:0|0:0,0:0:0:0:
504,12,86277,6,0,B|539:96|483:174,1,160,2|2,0:0|0:0,0:0:0:0:
413,139,87368,1,8,0:0:0:0:
339,171,87732,2,0,B|298:260|382:340,1,160,2|2,0:0|0:0,0:0:0:0:
435,351,88823,1,8,0:0:0:0:
493,297,89186,6,0,L|473:132,1,160,2|2,3:2|0:0,0:0:0:0:
353,36,90641,2,0,L|188:56,1,160,2|8,0:0|0:0,0:0:0:0:
125,97,91732,1,8,0:0:0:0:
48,72,92095,6,0,B|-3:144|46:236,1,160,6|2,0:0|0:0,0:0:0:0:
92,284,93186,1,8,0:0:0:0:
165,252,93550,2,0,B|209:250|238:278,1,79.9999999999999,2|8,0:0|0:0,0:0:0:0:
290,338,94277,2,0,B|339:349|397:312,1,79.9999999999999,2|8,0:0|0:0,0:0:0:0:
428,275,95004,6,0,B|342:234|346:123,1,160,6|2,0:0|0:0,0:0:0:0:
373,71,96095,1,8,0:0:0:0:
428,13,96459,2,0,B|350:27|256:9,1,160,2|6,0:0|0:1,0:0:0:0:
191,33,97550,1,10,0:1:0:0:
139,94,97913,6,0,B|122:132|139:172,2,79.9999999999999,6|8|2,0:0|0:0|0:0,0:0:0:0:
191,33,99004,1,8,0:0:0:0:
257,77,99368,2,0,L|357:67,1,79.9999999999999,2|8,0:0|0:0,0:0:0:0:
408,33,100095,2,0,B|460:39|488:75,1,79.9999999999999,2|8,0:0|0:0,0:0:0:0:
442,136,100823,6,0,B|382:179|276:162,1,160,6|2,0:0|3:2,0:0:0:0:
212,139,101913,1,8,0:0:0:0:
176,211,102277,2,0,B|216:302|337:285,1,160,2|6,0:0|0:1,0:0:0:0:
373,246,103368,1,8,0:0:0:0:
429,188,103732,6,0,B|412:95|445:2,2,160,12|2|2,0:0|3:2|0:0,0:0:0:0:
487,243,105550,1,8,0:0:0:0:
441,308,105913,2,0,B|421:347|363:354,1,79.9999999999999,2|8,0:0|0:0,0:0:0:0:
297,341,106641,6,0,B|224:315|114:342,1,160,6|2,0:0|3:2,0:0:0:0:
60,354,107732,1,8,0:0:0:0:
0,300,108095,2,0,B|-32:208|28:135,1,160,2|2,0:0|0:0,0:0:0:0:
78,94,109186,2,0,B|132:90|175:119,1,79.9999999999999,8|6,0:0|3:2,0:0:0:0:
214,163,109913,5,8,0:0:0:0:
273,112,110277,1,2,0:0:0:0:
351,118,110641,1,8,0:0:0:0:
402,178,111004,2,0,B|437:265|387:353,2,160,2|2|6,0:0|0:0|0:0,0:0:0:0:
351,118,112823,5,8,0:0:0:0:
285,165,113186,1,2,0:0:0:0:
219,118,113550,2,0,B|168:111|125:129,1,79.9999999999999,8|4,0:0|0:0,0:0:0:0:
73,168,114277,2,0,B|6:165|-14:72|37:32,2,160,2|2|2,1:2|1:2|1:2,0:0:0:0:
144,203,116095,6,0,B|157:250|143:312,1,79.9999999999999,2|2,0:2|1:2,0:0:0:0:
104,349,116823,1,2,0:0:0:0:
178,378,117186,2,0,L|343:357,1,160,2|10,1:2|0:2,0:0:0:0:
341,277,118277,2,0,B|368:312|433:324,2,79.9999999999999,0|4|0,3:0|3:2|0:0,0:0:0:0:
367,201,119368,1,12,0:0:0:0:
401,128,119732,6,0,B|408:89|386:47,1,79.9999999999999,4|8,0:0|0:0,0:0:0:0:
320,8,120459,1,2,0:0:0:0:
255,55,120823,1,8,0:0:0:0:
177,37,121186,2,0,B|150:27|95:32,1,79.9999999999999,2|8,0:0|0:0,0:0:0:0:
27,69,121913,1,2,0:0:0:0:
69,136,122277,1,8,0:0:0:0:
24,200,122641,6,0,B|28:311|131:327,1,160,2|2,0:0|0:0,0:0:0:0:
183,293,123732,1,8,0:0:0:0:
259,321,124095,2,0,B|332:278|434:293,1,160,2|2,0:0|0:0,0:0:0:0:
491,309,125186,1,8,3:2:0:0:
477,230,125550,6,0,L|489:132,1,79.9999999999999,6|8,0:0|0:0,0:0:0:0:
486,70,126277,1,2,0:0:0:0:
416,30,126641,1,8,0:0:0:0:
357,84,127004,2,0,B|307:99|267:69,1,79.9999999999999,2|8,0:0|0:0,0:0:0:0:
215,29,127732,1,2,0:0:0:0:
145,67,128095,1,8,0:0:0:0:
210,113,128459,6,0,B|249:196|200:277|200:278,1,160,6|6,3:2|0:1,0:0:0:0:
136,309,129550,1,10,0:1:0:0:
71,262,129913,2,0,B|32:179|81:98|81:97,1,160,6|6,0:1|0:1,0:0:0:0:
145,67,131004,1,10,0:1:0:0:
211,112,131368,6,0,L|312:101,1,79.9999999999999,6|8,0:0|0:0,0:0:0:0:
369,115,132095,2,0,B|411:81|410:26,1,79.9999999999999,2|8,0:0|0:0,0:0:0:0:
340,5,132823,1,2,0:0:0:0:
262,23,133186,2,0,B|197:11|154:13,1,79.9999999999999,8|2,0:0|0:0,0:0:0:0:
102,18,133913,1,8,0:0:0:0:
37,67,134277,6,0,B|29:152|40:226,1,160,2|2,0:0|0:0,0:0:0:0:
108,268,135368,1,8,0:0:0:0:
178,230,135732,2,0,B|228:222|278:231,1,79.9999999999999,2|8,0:0|0:0,0:0:0:0:
320,277,136459,1,2,0:0:0:0:
292,352,136823,1,8,0:0:0:0:
213,349,137186,6,0,B|142:321|37:346,2,160,6|2|2,0:0|0:0|0:0,0:0:0:0:
292,352,139004,1,8,3:2:0:0:
355,303,139368,2,0,B|454:277|511:355,1,160,2|4,0:0|0:0,0:0:0:0:
497,182,140823,5,12,0:0:0:0:
423,213,141186,2,0,B|338:234|241:164,1,160,2|2,0:1|0:1,0:0:0:0:
201,141,142277,2,0,B|152:135|96:161,2,79.9999999999999,12|12|4,3:2|0:0|0:0,0:0:0:0:
172,179,154641,6,0,B|140:120|171:43,2,120,4|2|2,0:0|0:1|0:1,0:0:0:0:
258,262,156277,1,2,0:1:0:0:
348,183,156823,2,0,B|391:167|455:186,1,79.9999999999999,2|0,0:1|0:0,0:0:0:0:
503,204,157550,6,0,B|531:141|499:55,2,120,2|2|2,0:1|0:1|0:1,0:0:0:0:
430,299,159186,1,2,0:1:0:0:
317,255,159732,2,0,B|275:243|226:258,1,79.9999999999999,2|2,0:1|0:1,0:0:0:0:
170,297,160459,6,0,B|98:307|52:248,2,120,2|2|2,0:1|0:1|0:1,0:0:0:0:
151,178,162095,1,2,0:1:0:0:
222,81,162641,2,0,B|256:64|321:71,1,79.9999999999999,2|2,0:1|0:1,0:0:0:0:
375,95,163368,6,0,B|448:110|510:80,2,120,2|2|2,0:1|0:1|0:1,0:0:0:0:
302,190,165004,1,2,0:1:0:0:
200,124,165550,2,0,B|161:110|117:116,1,79.9999999999999,8|0,0:0|0:0,0:0:0:0:
94,190,166277,6,0,P|40:103|136:36,1,240,4|2,0:0|0:1,0:0:0:0:
255,40,167913,1,2,0:1:0:0:
355,106,168459,2,0,L|435:96,1,79.9999999999999,8|0,0:0|0:0,0:0:0:0:
493,150,169186,6,0,L|508:270,2,120,2|2|2,0:1|0:1|0:1,0:0:0:0:
395,220,170823,1,2,0:1:0:0:
283,176,171368,2,0,P|237:167|174:190,1,79.9999999999999,8|2,0:0|0:1,0:0:0:0:
214,256,172095,6,0,P|126:189|183:95,1,240,2|2,0:1|0:1,0:0:0:0:
303,99,173732,1,2,0:1:0:0:
368,199,174277,2,0,L|378:297,1,79.9999999999999,8|0,0:0|0:0,0:0:0:0:
427,340,175004,6,0,B|507:331|518:240,2,120,2|2|2,0:1|0:1|0:1,0:0:0:0:
308,320,176641,1,2,0:1:0:0:
188,340,177186,2,0,L|93:323,1,79.9999999999999,8|2,0:0|0:1,0:0:0:0:
31,343,177913,6,0,B|115:305|138:194|64:119,1,240,2|2,0:1|0:1,0:0:0:0:
13,40,179550,1,2,0:1:0:0:
132,29,180095,2,0,B|191:28|223:29,1,79.9999999999999,8|2,0:0|0:1,0:0:0:0:
278,73,180823,6,0,B|301:131|275:217,2,120,2|2|2,0:1|0:1|0:1,0:0:0:0:
165,115,182459,1,2,0:1:0:0:
128,229,183004,2,0,B|117:278|139:321,1,79.9999999999999,8|2,0:0|0:1,0:0:0:0:
202,348,183732,6,0,B|292:309|374:342,1,160,2|8,0:1|0:0,0:0:0:0:
435,357,184823,2,0,B|481:311|454:224,2,120,2|2|8,0:1|0:1|0:0,0:0:0:0:
357,335,186277,2,0,L|262:348,1,79.9999999999999,2|4,0:1|0:0,0:0:0:0:
256,192,186823,12,0,191732,0:0:0:0:
156,137,209913,6,0,B|68:112|88:168|0:137,2,160,2|2|2,0:0|0:0|0:0,0:0:0:0:
256,261,212095,1,2,0:0:0:0:
356,137,212823,2,0,B|444:112|424:168|512:137,2,160,2|2|2,0:0|0:0|0:0,0:0:0:0:
256,261,215004,1,0,0:0:0:0:
108,199,215732,6,0,B|59:267|86:377,2,160,2|2|2,0:0|0:0|0:0,0:0:0:0:
256,261,217913,1,2,0:0:0:0:
404,199,218641,2,0,B|453:267|426:377,2,160,2|2|2,0:0|0:0|0:0,0:0:0:0:
256,192,220277,12,0,223004,0:0:0:0:
256,132,224459,6,0,L|256:40,2,79.9999999999999,0|0|0,0:0|0:0|0:0,0:0:0:0:
256,212,225550,1,4,1:0:0:0:
187,170,225913,6,0,B|145:152|74:178,1,79.9999999999999,6|10,0:0|0:1,0:0:0:0:
37,206,226641,1,6,0:1:0:0:
53,286,227004,1,10,0:1:0:0:
134,295,227368,2,0,B|183:282|246:298,1,79.9999999999999,6|10,0:1|0:1,0:0:0:0:
280,334,228095,2,0,B|333:314|348:255,1,79.9999999999999,2|10,3:2|0:0,0:0:0:0:
307,207,228823,6,0,B|279:119|353:55,1,160,4|4,3:2|0:1,0:0:0:0:
420,34,229913,1,8,0:0:0:0:
480,84,230277,2,0,L|502:248,1,160,4|4,0:1|0:1,0:0:0:0:
481,320,231368,1,8,3:2:0:0:
408,286,231732,6,0,B|369:273|299:288,1,79.9999999999999,6|10,0:0|0:1,0:0:0:0:
258,320,232459,1,6,0:1:0:0:
186,283,232823,1,10,0:1:0:0:
110,309,233186,2,0,B|58:300|46:231,1,79.9999999999999,6|10,0:1|0:1,0:0:0:0:
72,180,233913,2,0,L|97:80,1,79.9999999999999,2|10,3:2|0:1,0:0:0:0:
49,34,234641,6,0,B|103:99|210:73,1,160,6|6,0:0|0:1,0:0:0:0:
267,41,235732,1,10,0:1:0:0:
337,77,236095,2,0,B|366:156|290:235,1,160,6|2,0:1|0:2,0:0:0:0:
220,212,237186,1,10,0:1:0:0:
232,291,237550,6,0,L|244:383,1,79.9999999999999,6|10,0:0|0:1,0:0:0:0:
321,360,238277,1,6,0:1:0:0:
400,350,238641,1,10,0:1:0:0:
479,339,239004,2,0,B|499:289|474:240,1,79.9999999999999,6|10,0:1|0:1,0:0:0:0:
441,191,239732,2,0,B|421:141|446:92,1,79.9999999999999,2|10,3:2|0:0,0:0:0:0:
488,51,240459,6,0,L|314:87,1,160,6|4,0:1|0:1,0:0:0:0:
256,112,241550,1,8,3:2:0:0:
180,83,241913,2,0,L|24:51,1,160,4|4,0:1|0:1,0:0:0:0:
0,128,243004,1,8,0:0:0:0:
45,194,243368,6,0,B|76:280|11:368,1,160,4|2,0:0|0:2,0:0:0:0:
163,266,244823,2,0,B|249:235|337:300,1,160,2|2,0:2|0:2,0:0:0:0:
371,343,245913,1,4,0:0:0:0:
432,291,246277,6,0,B|458:248|442:180,1,79.9999999999999,6|8,0:0|0:0,0:0:0:0:
409,143,247004,2,0,L|292:156,1,79.9999999999999,2|8,0:0|0:0,0:0:0:0:
258,189,247732,1,2,0:0:0:0:
181,165,248095,1,8,0:0:0:0:
105,192,248459,2,0,B|48:165|60:94,1,79.9999999999999,2|8,0:0|0:0,0:0:0:0:
57,51,249186,6,0,B|144:70|244:50,1,160,2|2,0:0|0:0,0:0:0:0:
289,22,250277,1,8,0:0:0:0:
343,81,250641,2,0,B|362:168|342:268,1,160,2|2,0:0|0:0,0:0:0:0:
315,313,251732,1,8,0:0:0:0:
243,276,252095,6,0,B|176:324|89:299,2,160,6|2|2,0:0|0:0|0:0,0:0:0:0:
275,202,253913,1,8,0:0:0:0:
244,128,254277,2,0,B|239:86|248:20,1,79.9999999999999,2|8,0:0|0:0,0:0:0:0:
324,38,255004,6,0,B|394:3|447:76|399:142,1,160,2|6,0:0|0:1,0:0:0:0:
345,162,256095,1,10,0:1:0:0:
275,202,256459,2,0,B|196:189|109:201,1,160,6|6,0:1|0:1,0:0:0:0:
37,217,257550,1,10,0:1:0:0:
4,144,257913,6,0,B|12:85|76:69,1,79.9999999999999,6|10,0:0|0:1,0:0:0:0:
120,48,258641,1,6,0:1:0:0:
193,80,259004,1,10,0:1:0:0:
266,48,259368,2,0,B|312:36|357:55,1,79.9999999999999,6|8,0:1|0:0,0:0:0:0:
337,130,260095,2,0,B|291:142|246:123,1,79.9999999999999,2|8,0:0|0:0,0:0:0:0:
193,80,260823,6,0,B|86:104|119:233,1,160,2|2,0:0|0:0,0:0:0:0:
132,274,261913,2,0,B|140:319|127:357,1,79.9999999999999,8|2,0:0|0:0,0:0:0:0:
50,333,262641,2,0,B|42:288|55:250,2,79.9999999999999,8|2|8,0:0|0:0|0:0,0:0:0:0:
128,353,263732,6,0,B|198:308|288:328,1,160,6|2,0:0|0:0,0:0:0:0:
356,354,264823,1,8,0:0:0:0:
423,311,265186,2,0,B|467:232|425:146,1,160,2|2,0:0|0:0,0:0:0:0:
375,98,266277,1,8,0:0:0:0:
301,129,266641,5,6,0:0:0:0:
180,23,267368,1,8,0:0:0:0:
118,73,267732,2,0,B|52:91|-9:54,2,120,4|2|8,0:0|0:0|0:0,0:0:0:0:
168,135,269186,2,0,L|154:245,1,79.9999999999999,8|4,3:2|0:0,0:0:0:0:
256,192,269732,12,0,273913,0:0:0:0:
