osu file format v14

[General]
AudioFilename: audio.mp3
AudioLeadIn: 0
PreviewTime: 203173
Countdown: 0
SampleSet: Soft
StackLeniency: 0.7
Mode: 0
LetterboxInBreaks: 0
WidescreenStoryboard: 1

[Editor]
DistanceSpacing: 1
BeatDivisor: 2
GridSize: 4
TimelineZoom: 0.5000057

[Metadata]
Title:Sanagi
TitleUnicode:さなぎ
Artist:Maaya Sakamoto
ArtistUnicode:坂本真綾
Creator:Yohanes
Version:Frostmourne's Normal
Source:
Tags:FOLLOW ME UP 北川勝利 Katsutoshi Kitagawa Flying Dog Pupa Chrysalis Delis avmidfvurtrtdrk Frostmourne FrostxE GhostFY yaldo_27
BeatmapID:1299084
BeatmapSetID:615921

[Difficulty]
HPDrainRate:3
CircleSize:3.5
OverallDifficulty:4
ApproachRate:5
SliderMultiplier:0.8
SliderTickRate:1

[Events]
//Background and Video events
0,0,"BG.jpg",0,0
//Break Periods
2,79154,87129
2,177029,187629
2,230829,231504
2,236829,238629
//Storyboard Layer 0 (Background)
//Storyboard Layer 1 (Fail)
//Storyboard Layer 2 (Pass)
//Storyboard Layer 3 (Foreground)
//Storyboard Sound Samples

[TimingPoints]
1329,375,4,2,1,60,1,0
52329,-100,4,2,1,70,0,1
76329,-100,4,2,1,60,0,0
127329,-100,4,2,1,70,0,1
151329,-100,4,2,1,60,0,0
203266,-100,4,2,2,60,0,0
203829,-100,4,2,1,70,0,1
227829,-100,4,2,1,60,0,0
251829,-100,4,2,1,60,0,0
254829,-100,4,2,1,55,0,0
255579,-100,4,2,1,45,0,0
256329,-100,4,2,1,35,0,0
257079,-100,4,2,1,25,0,0
257829,-100,4,2,1,15,0,0
258579,-100,4,2,1,5,0,0

[Colours]
Combo1 : 255,94,55
Combo2 : 173,255,95
Combo3 : 17,254,176
Combo4 : 255,88,100

[HitObjects]
61,247,579,6,0,B|100:231|142:249,1,80,8|8,0:0|0:0,0:0:0:0:
172,269,1141,1,8,0:0:0:0:
205,291,1329,2,0,B|268:232,1,80,6|8,0:0|0:0,0:0:0:0:
338,208,2079,5,2,0:0:0:0:
391,148,2454,1,8,0:0:0:0:
465,177,2829,2,0,L|491:264,2,80,2|8|2,0:0|0:0|0:0,0:0:0:0:
484,99,3954,2,0,B|453:65|398:71,1,80,8|4,0:0|0:0,0:0:0:0:
333,84,4704,6,0,B|288:87|243:96,1,80,8|2,0:0|0:0,0:0:0:0:
176,73,5454,1,8,0:0:0:0:
104,36,5829,1,2,0:0:0:0:
35,77,6204,2,0,B|-12:156|44:229|44:229,1,160,8|8,0:0|0:0,0:0:0:0:
118,256,7329,6,0,L|90:333,1,80,4|8,0:0|0:0,0:0:0:0:
167,352,8079,2,0,L|195:275,1,80,2|8,0:0|0:0,0:0:0:0:
266,242,8829,2,0,B|336:200|420:240|420:240,1,160,2|2,0:0|0:0,0:0:0:0:
447,315,9954,1,8,0:0:0:0:
376,353,10329,6,0,B|306:395|222:355|222:355,1,160,2|2,0:0|0:0,0:0:0:0:
158,305,11454,1,8,0:0:0:0:
78,311,11829,2,0,L|59:366,2,40,2|8|8,0:0|0:0|0:0,0:0:0:0:
103,235,12579,2,0,P|74:75|74:75,1,160,8|6,0:0|0:0,0:0:0:0:
186,35,13891,6,0,P|244:58|314:55,1,120,2|2,0:0|0:0,0:0:0:0:
420,54,15016,2,0,L|452:184,1,120,2|2,0:0|0:0,0:0:0:0:
488,240,15954,1,2,0:0:0:0:
465,317,16329,6,0,P|413:354|346:351,2,120,2|2|2,0:0|0:0|0:0,0:0:0:0:
506,204,18016,1,2,0:0:0:0:
470,89,18579,2,0,L|448:25,2,40,2|8|8,0:0|0:0|0:3,0:0:0:0:
434,160,19329,5,4,0:0:0:0:
354,161,19704,1,8,0:0:0:0:
285,202,20079,1,2,0:0:0:0:
208,225,20454,2,0,P|167:227|126:212,1,80,8|2,0:0|0:0,0:0:0:0:
117,309,21204,2,0,P|158:307|199:322,1,80,8|2,0:0|0:0,0:0:0:0:
266,354,21954,2,0,P|307:356|348:341,1,80,8|2,0:0|0:0,0:0:0:0:
417,314,22704,5,8,0:0:0:0:
449,240,23079,2,0,L|476:156,1,80,2|8,0:0|0:0,0:0:0:0:
396,141,23829,2,0,L|369:225,1,80,2|8,0:0|0:0,0:0:0:0:
299,253,24579,1,2,0:0:0:0:
220,266,24954,2,0,P|181:268|135:253,1,80,8|4,0:0|0:0,0:0:0:0:
85,150,25891,6,0,P|67:88|39:30,2,120,2|2|2,0:0|0:0|0:0,0:0:0:0:
204,137,27579,2,0,P|206:97|219:60,1,80,2|2,0:0|0:0,0:0:0:0:
299,59,28329,2,0,P|307:142|315:184,2,120,2|2|2,0:0|0:0|0:0,0:0:0:0:
204,137,30016,2,0,P|170:129|116:90,1,80,2|8,0:0|0:3,0:0:0:0:
138,65,30579,2,0,P|180:60|235:56,1,80,2|12,0:0|0:0,0:0:0:0:
299,59,31329,6,0,P|379:78|452:125,1,160,4|2,0:0|0:0,0:0:0:0:
472,193,32454,1,8,0:0:0:0:
392,186,32829,2,0,P|334:194|282:218,1,80,2|8,0:0|0:0,0:0:0:0:
243,239,33579,1,2,0:0:0:0:
199,306,33954,1,8,0:0:0:0:
277,323,34329,6,0,L|357:330,2,80,2|8|2,0:0|0:0|0:0,0:0:0:0:
199,306,35454,2,0,L|119:299,2,80,8|2|8,0:0|0:0|0:0,0:0:0:0:
253,247,36579,2,0,L|281:166,1,80,2|8,0:0|0:0,0:0:0:0:
204,141,37329,6,0,L|176:222,2,80,6|8|0,0:0|0:0|0:0,0:0:0:0:
227,64,38454,1,8,0:0:0:0:
150,41,38829,2,0,L|122:122,2,80,2|8|0,0:0|0:0|0:0,0:0:0:0:
227,64,39954,1,8,0:0:0:0:
301,92,40329,2,0,L|382:120,2,80,2|8|0,0:0|0:0|0:0,0:0:0:0:
227,64,41454,2,0,B|219:97|222:118|235:153|282:168|282:168|389:204,1,240,8|2,0:0|0:0,0:0:0:0:
461,224,42954,1,8,0:0:0:0:
437,300,43329,6,0,P|399:318|316:308,2,120,2|0|8,0:0|0:0|0:0,0:0:0:0:
461,224,44829,2,0,L|469:103,2,120,2|0|8,0:0|0:0|0:0,0:0:0:0:
381,224,46329,2,0,L|293:140,2,120,2|0|8,0:0|0:0|0:0,0:0:0:0:
333,288,47829,5,2,0:0:0:0:
256,311,48204,1,8,0:0:0:0:
178,291,48579,1,2,0:0:0:0:
119,236,48954,1,12,0:0:0:0:
82,164,49329,6,0,L|48:82,1,80,8|8,0:0|0:0,0:0:0:0:
124,57,50079,2,0,L|158:139,1,80,8|8,0:0|0:0,0:0:0:0:
233,143,50829,2,0,L|242:94,2,40,10|8|12,0:0|0:0|0:0,0:0:0:0:
254,220,51579,2,0,L|245:269,2,40,8|8|8,0:3|0:0|0:3,0:0:0:0:
326,185,52329,6,0,P|362:168|409:175,1,80,6|8,0:0|0:0,0:0:0:0:
474,139,53079,2,0,L|446:53,1,80,2|8,0:0|0:0,0:0:0:0:
412,48,53641,2,0,L|320:48,1,80,2|2,0:1|0:1,0:0:0:0:
252,48,54391,2,0,P|240:84|252:173,1,120,2|8,0:1|0:0,0:0:0:0:
204,231,55329,6,0,P|217:266|256:307,1,80,2|8,0:0|0:0,0:0:0:0:
274,324,55891,1,0,0:0:0:0:
313,329,56079,2,0,L|401:326,1,80,2|8,0:0|0:0,0:0:0:0:
427,305,56641,2,0,L|451:220,1,80,2|2,0:1|0:1,0:0:0:0:
389,173,57391,1,2,0:1:0:0:
313,199,57766,6,0,L|302:252,2,40,0|8|0,0:0|0:0|0:0,0:0:0:0:
261,137,58516,2,0,L|272:84,2,40,0|8|0,0:0|0:0|0:0,0:0:0:0:
201,191,59266,1,0,0:0:0:0:
163,205,59454,1,8,0:0:0:0:
123,206,59641,1,0,0:0:0:0:
47,232,60016,1,0,0:0:0:0:
33,270,60204,1,8,0:0:0:0:
32,310,60391,2,0,P|51:331|142:337,1,120,0|8,0:0|0:0,0:0:0:0:
215,356,61329,6,0,L|302:332,1,80,2|8,0:0|0:0,0:0:0:0:
295,254,62079,2,0,P|254:233|226:195,1,80,2|8,0:0|0:0,0:0:0:0:
217,171,62641,2,0,P|230:131|267:99,2,80,0|0|0,0:0|0:0|0:0,0:0:0:0:
152,218,63766,1,0,0:0:0:0:
111,220,63954,2,0,L|24:208,1,80,8|4,0:0|0:0,0:0:0:0:
26,129,64704,5,8,0:0:0:0:
46,94,64891,1,0,0:0:0:0:
83,79,65079,2,0,L|170:91,1,80,2|8,0:0|0:0,0:0:0:0:
200,100,65641,2,0,P|239:105|285:95,1,80,2|2,0:1|0:1,0:0:0:0:
348,58,66391,2,0,P|429:52|478:77,1,120,2|8,0:1|0:0,0:0:0:0:
473,146,67329,6,0,L|489:239,1,80,2|8,0:0|0:0,0:0:0:0:
482,264,67891,1,0,0:0:0:0:
462,299,68079,2,0,P|391:328|383:327,1,80,2|8,0:0|0:0,0:0:0:0:
372,292,68641,2,0,P|301:263|293:264,2,80,2|2|2,0:1|0:1|0:1,0:0:0:0:
310,343,69766,5,0,0:0:0:0:
270,347,69954,1,8,0:0:0:0:
230,343,70141,2,0,P|176:321|148:309,1,80,0|0,0:0|0:0,0:0:0:0:
116,303,70704,1,8,0:0:0:0:
78,316,70891,1,0,0:0:0:0:
43,243,71266,1,0,0:0:0:0:
67,210,71454,1,8,0:0:0:0:
85,174,71641,6,0,P|93:136|83:93,1,80,0|0,0:0|0:0,0:0:0:0:
67,59,72204,1,8,0:0:0:0:
106,52,72391,2,0,L|235:49,1,120,0|8,0:0|0:0,0:0:0:0:
263,119,73329,5,2,0:0:0:0:
276,156,73516,1,0,0:0:0:0:
272,195,73704,2,0,L|260:245,2,40,8|0|2,0:0|0:0|0:0,0:0:0:0:
351,201,74454,1,8,0:0:0:0:
370,235,74641,2,0,P|427:251|499:223,1,120,0|8,0:0|0:0,0:0:0:0:
496,155,75579,2,0,L|507:70,1,80,2|10,0:0|0:0,0:0:0:0:
434,39,76329,5,6,0:0:0:0:
256,192,76516,12,8,78954,0:0:0:0:
65,126,88329,6,0,L|77:262,2,120,2|2|2,0:0|0:0|0:0,0:0:0:0:
162,195,90016,2,0,L|150:59,1,120,2|2,0:0|0:0,0:0:0:0:
219,32,90954,1,2,0:0:0:0:
296,51,91329,2,0,P|371:32|424:37,2,120,2|2|2,0:0|0:0|0:0,0:0:0:0:
214,138,93016,2,0,P|213:188|235:231,1,80,2|0,0:0|0:0,0:0:0:0:
258,236,93579,1,2,0:0:0:0:
297,166,93954,1,12,0:0:0:0:
364,209,94329,6,0,L|340:295,1,80,4|8,0:0|0:0,0:0:0:0:
393,347,95079,1,2,0:0:0:0:
468,320,95454,2,0,L|492:234,1,80,8|2,0:0|0:0,0:0:0:0:
482,163,96204,2,0,P|428:96|349:86,1,160,8|8,0:0|0:0,0:0:0:0:
321,155,97329,6,0,P|267:222|188:232,1,160,2|2,0:0|0:0,0:0:0:0:
123,264,98454,2,0,L|90:341,2,80,8|2|8,0:0|0:0|0:0,0:0:0:0:
107,185,99579,2,0,P|130:143|160:121,1,80,2|8,0:0|0:3,0:0:0:0:
235,140,100329,6,0,P|253:80|237:25,1,120,6|2,0:0|0:0,0:0:0:0:
134,87,101454,2,0,L|144:216,2,120,2|2|2,0:0|0:0|0:0,0:0:0:0:
60,55,102954,1,2,0:0:0:0:
20,124,103329,5,2,0:0:0:0:
48,240,103891,1,2,0:0:0:0:
124,332,104454,2,0,P|178:344|299:329,1,160,2|2,0:0|0:0,0:0:0:0:
317,317,105391,2,0,L|329:232,1,80,8|8,0:3|0:3,0:0:0:0:
334,198,105954,1,12,0:0:0:0:
253,205,106329,6,0,P|258:165|283:135,1,80,6|8,0:0|0:0,0:0:0:0:
235,70,107079,2,0,P|271:55|310:60,2,80,2|8|2,0:0|0:0|0:0,0:0:0:0:
170,118,108204,2,0,P|155:81|160:42,2,80,8|2|8,0:0|0:0|0:0,0:0:0:0:
104,163,109329,6,0,L|131:335,1,160,2|2,0:0|0:0,0:0:0:0:
206,341,110454,2,0,P|261:354|330:334,1,120,8|8,0:0|0:0,0:0:0:0:
377,281,111391,2,0,L|397:196,1,80,8|8,0:0|0:0,0:0:0:0:
401,163,111954,2,0,P|431:143|485:147,1,80,2|6,0:0|0:0,0:0:0:0:
470,62,112704,5,8,0:0:0:0:
430,57,112891,2,0,L|295:40,1,120,0|8,0:0|0:0,0:0:0:0:
230,44,113829,2,0,P|216:96|229:167,2,120,2|0|8,0:0|0:0|0:0,0:0:0:0:
150,32,115329,2,0,L|19:39,2,120,2|0|8,0:0|0:0|0:0,0:0:0:0:
230,44,116829,5,2,0:0:0:0:
304,72,117204,2,0,L|285:166,1,80,8|2,0:0|0:0,0:0:0:0:
273,229,117954,1,8,0:0:0:0:
352,221,118329,6,0,L|480:208,2,120,6|0|8,0:0|0:0|0:0,0:0:0:0:
273,229,119829,2,0,L|145:216,2,120,2|0|8,0:0|0:0|0:0,0:0:0:0:
327,287,121329,2,0,P|289:308|247:304,1,80,2|8,0:0|0:0,0:0:0:0:
213,304,121891,1,0,0:0:0:0:
133,292,122266,1,0,0:0:0:0:
93,283,122454,2,0,P|59:243|72:64,1,240,8|2,0:0|0:0,0:0:0:0:
145,41,123954,1,12,0:0:0:0:
256,192,124329,12,12,126204,0:0:0:0:
343,193,127329,5,4,0:0:0:0:
297,258,127704,1,8,0:0:0:0:
225,221,128079,2,0,P|184:216|144:226,1,80,2|8,0:0|0:0,0:0:0:0:
120,254,128641,2,0,L|78:345,1,80,2|2,0:1|0:1,0:0:0:0:
14,291,129391,2,0,P|6:227|38:166,1,120,2|8,0:1|0:0,0:0:0:0:
100,142,130329,5,2,0:0:0:0:
120,65,130704,2,0,L|131:11,2,40,8|0|2,0:0|0:0|0:0,0:0:0:0:
189,104,131454,1,8,0:0:0:0:
224,121,131641,2,0,P|264:127|311:119,1,80,2|2,0:1|0:1,0:0:0:0:
377,91,132391,1,2,0:1:0:0:
456,90,132766,6,0,L|473:48,2,40,0|8|0,0:0|0:0|0:0,0:0:0:0:
449,169,133516,2,0,L|502:180,2,40,0|8|0,0:0|0:0|0:0,0:0:0:0:
411,239,134266,2,0,L|429:289,2,40,0|8|0,0:0|0:0|0:0,0:0:0:0:
344,194,135016,1,0,0:0:0:0:
306,208,135204,1,8,0:0:0:0:
275,233,135391,2,0,P|251:274|247:352,1,120,0|8,0:0|0:0,0:0:0:0:
325,352,136329,6,0,L|414:357,1,80,2|8,0:0|0:0,0:0:0:0:
478,324,137079,2,0,P|490:280|484:235,1,80,2|8,0:0|0:0,0:0:0:0:
473,208,137641,2,0,L|447:116,2,80,0|0|8,0:0|0:0|0:0,0:0:0:0:
394,224,138766,1,8,0:0:0:0:
354,219,138954,2,0,L|267:207,1,80,8|4,0:0|0:0,0:0:0:0:
210,255,139704,5,8,0:0:0:0:
170,251,139891,1,0,0:0:0:0:
142,222,140079,2,0,L|119:137,1,80,2|8,0:0|0:0,0:0:0:0:
116,106,140641,2,0,P|150:83|192:84,1,80,2|2,0:1|0:1,0:0:0:0:
265,100,141391,2,0,P|346:106|395:81,1,120,2|8,0:1|0:0,0:0:0:0:
417,162,142329,6,0,L|433:255,1,80,2|8,0:0|0:0,0:0:0:0:
426,280,142891,1,0,0:0:0:0:
406,315,143079,2,0,P|335:344|327:343,1,80,2|8,0:0|0:0,0:0:0:0:
294,341,143641,2,0,L|210:335,2,80,2|2|2,0:1|0:1|0:1,0:0:0:0:
325,267,144766,6,0,L|342:225,2,40,0|8|0,0:0|0:0|0:0,0:0:0:0:
259,221,145516,2,0,L|255:179,2,40,0|8|0,0:0|0:0|0:0,0:0:0:0:
180,206,146266,1,0,0:0:0:0:
139,206,146454,1,8,0:0:0:0:
108,232,146641,1,0,0:0:0:0:
112,312,147016,1,0,0:0:0:0:
132,345,147204,1,8,0:0:0:0:
169,364,147391,2,0,P|210:371|288:359,1,120,0|8,0:0|0:0,0:0:0:0:
366,353,148329,5,2,0:0:0:0:
379,316,148516,1,0,0:0:0:0:
375,277,148704,2,0,L|363:227,2,40,8|0|2,0:0|0:0|0:0,0:0:0:0:
458,300,149454,1,2,0:0:0:0:
480,268,149641,2,0,P|498:212|489:134,1,120,12|8,0:0|0:3,0:0:0:0:
427,96,150579,2,0,L|356:50,1,80,8|10,0:0|0:0,0:0:0:0:
280,64,151329,5,4,0:0:0:0:
256,192,151516,12,8,154329,0:0:0:0:
387,45,157329,6,0,P|312:47|240:105,1,160,6|2,0:0|0:0,0:0:0:0:
241,176,158454,1,8,0:0:0:0:
240,255,158829,2,0,P|207:322|124:364,1,160,2|2,0:0|0:0,0:0:0:0:
86,299,159954,1,8,0:0:0:0:
70,220,160329,6,0,L|60:166,1,40,8|0,0:0|0:0,0:0:0:0:
142,184,160891,2,0,L|132:130,1,40,8|8,0:0|0:0,0:0:0:0:
214,153,161454,2,0,L|204:99,1,40,8|8,0:0|0:0,0:0:0:0:
286,108,162016,2,0,L|293:68,1,40,8|10,0:0|0:0,0:0:0:0:
368,95,162579,2,0,L|401:60,1,40,10|8,0:0|0:0,0:0:0:0:
456,118,163141,6,0,L|423:153,1,40,0|4,0:0|0:0,0:0:0:0:
478,209,163704,2,0,P|491:253|469:368,1,160,8|8,0:0|0:0,0:0:0:0:
391,356,164829,1,2,0:0:0:0:
311,358,165204,2,0,P|239:351|141:351,1,160,8|8,0:0|0:0,0:0:0:0:
71,349,166329,6,0,P|64:277|64:179,2,160,2|2|2,0:0|0:0|0:0,0:0:0:0:
151,350,168204,1,8,0:0:0:0:
217,204,168954,1,8,0:0:0:0:
295,190,169329,5,6,0:0:0:0:
334,259,169704,2,0,P|381:276|499:263,2,160,8|8|8,0:0|0:0|0:0,0:0:0:0:
391,109,171954,2,0,P|435:86|506:-8,2,160,8|8|8,0:0|0:0|0:0,0:0:0:0:
312,126,173829,6,0,L|222:113,1,80,6|8,0:0|0:0,0:0:0:0:
153,102,174579,2,0,L|63:89,1,80,2|8,0:0|0:0,0:0:0:0:
38,162,175329,2,0,P|17:200|22:250,2,80,8|8|8,0:0|0:0|0:0,0:0:0:0:
95,217,176454,1,10,0:0:0:0:
115,139,176829,1,4,0:0:0:0:
409,304,188829,5,2,0:0:0:0:
250,280,189579,1,2,0:0:0:0:
394,210,190329,1,2,0:0:0:0:
313,348,191079,1,2,0:0:0:0:
278,191,191829,6,0,P|190:169|124:200,1,160,2|2,0:0|0:0,0:0:0:0:
53,336,193329,2,0,P|141:358|207:327,1,160,2|2,0:0|0:0,0:0:0:0:
303,207,194829,2,0,P|391:185|457:216,1,160,2|2,0:0|0:0,0:0:0:0:
369,348,196329,2,0,P|281:370|215:339,1,160,2|2,0:0|0:0,0:0:0:0:
172,279,197454,1,2,0:0:0:0:
154,200,197829,6,0,L|131:36,1,160,2|2,0:0|0:0,0:0:0:0:
271,118,199329,2,0,L|294:282,1,160,2|2,0:0|0:0,0:0:0:0:
432,197,200829,2,0,L|409:33,1,160,12|2,0:0|0:0,0:0:0:0:
331,21,201954,1,12,0:0:0:0:
252,37,202329,1,12,0:0:0:0:
173,52,202704,2,0,P|151:53|133:49,1,40,8|12,0:0|0:0,0:0:0:0:
107,124,203266,2,0,P|86:116|71:105,1,40,2|2,0:0|0:0,0:0:0:0:
51,183,203829,6,0,P|63:265|109:336,1,160,4|2,0:0|0:0,0:0:0:0:
182,340,204954,1,8,0:0:0:0:
221,334,205141,1,2,0:1:0:0:
299,347,205516,2,0,L|385:353,1,80,2|2,0:1|0:1,0:0:0:0:
458,342,206266,2,0,L|467:292,1,40,0|8,0:0|0:0,0:0:0:0:
480,224,206829,6,0,P|472:177|454:145,1,80,2|8,0:0|0:0,0:0:0:0:
433,115,207391,1,0,0:0:0:0:
395,100,207579,2,0,P|335:90|302:96,1,80,2|8,0:0|0:0,0:0:0:0:
279,107,208141,5,2,0:1:0:0:
208,69,208516,1,2,0:1:0:0:
145,118,208891,1,2,0:1:0:0:
83,67,209266,6,0,P|66:50|58:33,2,40,0|8|0,0:0|0:0|0:0,0:0:0:0:
50,140,210016,2,0,P|27:133|11:123,2,40,0|8|0,0:0|0:0|0:0,0:0:0:0:
54,219,210766,2,0,P|31:225|12:225,2,40,0|8|0,0:0|0:0|0:0,0:0:0:0:
98,285,211516,2,0,P|82:301|65:311,2,40,0|8|0,0:0|0:0|0:0,0:0:0:0:
158,232,212266,1,0,0:0:0:0:
189,206,212454,1,8,0:0:0:0:
251,255,212829,6,0,P|289:263|339:251,1,80,2|8,0:0|0:0,0:0:0:0:
366,241,213391,1,0,0:0:0:0:
396,215,213579,2,0,L|418:135,1,80,2|8,0:0|0:0,0:0:0:0:
428,99,214141,2,0,P|421:51|402:14,2,80,0|6|6,0:0|0:1|0:1,0:0:0:0:
500,133,215266,2,0,L|487:186,1,40,6|8,0:1|0:0,0:0:0:0:
484,251,215829,6,0,P|470:294|444:334,1,80,4|8,0:1|0:0,0:0:0:0:
426,354,216391,1,0,0:0:0:0:
385,354,216579,2,0,L|288:350,1,80,2|8,0:0|0:0,0:0:0:0:
265,346,217141,2,0,P|226:341|180:351,1,80,2|2,0:1|0:1,0:0:0:0:
106,349,217891,2,0,P|100:268|125:219,1,120,2|8,0:1|0:0,0:0:0:0:
38,207,218829,6,0,L|22:114,1,80,2|8,0:0|0:0,0:0:0:0:
29,89,219391,1,0,0:0:0:0:
49,54,219579,2,0,P|120:25|128:26,1,80,2|8,0:0|0:0,0:0:0:0:
146,55,220141,2,0,L|161:137,2,80,2|2|2,0:1|0:1|0:1,0:0:0:0:
225,49,221266,6,0,P|240:32|257:22,2,40,0|8|0,0:0|0:0|0:0,0:0:0:0:
247,125,222016,2,0,P|269:131|288:131,2,40,0|8|0,0:0|0:0|0:0,0:0:0:0:
230,203,222766,2,0,P|214:219|197:229,2,40,0|8|0,0:0|0:0|0:0,0:0:0:0:
307,224,223516,1,0,0:0:0:0:
347,222,223704,1,8,0:0:0:0:
386,215,223891,2,0,P|407:159|395:91,1,120,0|8,0:0|0:0,0:0:0:0:
334,53,224829,5,2,0:0:0:0:
296,66,225016,1,0,0:0:0:0:
263,89,225204,2,0,L|246:133,2,40,8|0|2,0:0|0:0|0:0,0:0:0:0:
196,43,225954,1,8,0:0:0:0:
170,73,226141,2,0,P|113:89|41:61,1,120,4|8,0:0|0:0,0:0:0:0:
38,150,227079,2,0,L|27:235,1,80,8|8,0:0|0:0,0:0:0:0:
86,283,227829,5,4,0:0:0:0:
256,192,228016,12,0,230454,0:0:0:0:
272,160,232704,6,0,L|265:246,1,80,8|2,0:0|0:0,0:0:0:0:
253,318,233454,1,8,0:0:0:0:
328,290,233829,1,4,0:0:0:0:
256,192,234016,12,0,236454,0:0:0:0:
70,324,239829,6,0,P|68:284|130:171,1,160,6|2,0:0|0:0,0:0:0:0:
182,128,240954,1,8,0:0:0:0:
261,137,241329,2,0,L|434:142,1,160,2|2,0:0|0:0,0:0:0:0:
473,202,242454,1,8,0:0:0:0:
410,251,242829,6,0,L|430:331,1,80,2|8,0:0|0:0,0:0:0:0:
350,344,243579,2,0,L|330:264,1,80,2|8,0:0|0:0,0:0:0:0:
255,239,244329,1,2,0:0:0:0:
206,302,244704,1,8,0:0:0:0:
148,246,245079,2,0,P|130:274|129:325,2,80,2|8|2,0:0|0:0|0:0,0:0:0:0:
156,166,246204,6,0,P|109:86|42:38,1,160,8|8,0:0|0:0,0:0:0:0:
0,101,247329,2,0,P|47:181|114:229,1,160,2|2,0:0|0:0,0:0:0:0:
178,232,248454,1,8,0:0:0:0:
257,226,248829,2,0,L|347:222,1,80,2|8,0:0|0:0,0:0:0:0:
376,223,249391,2,0,P|394:260|379:338,2,120,12|8|8,0:0|0:3|0:0,0:0:0:0:
355,143,250891,6,0,P|413:153|452:197,1,120,8|8,0:0|0:3,0:0:0:0:
477,273,251829,1,4,0:0:0:0:
256,192,252016,12,0,258579,0:0:0:0:
