osu file format v14

[General]
AudioFilename: audio.mp3
AudioLeadIn: 0
PreviewTime: 203173
Countdown: 0
SampleSet: Soft
StackLeniency: 0.4
Mode: 0
LetterboxInBreaks: 0
WidescreenStoryboard: 1

[Editor]
DistanceSpacing: 0.8
BeatDivisor: 4
GridSize: 8
TimelineZoom: 1.200006

[Metadata]
Title:Sanagi
TitleUnicode:さなぎ
Artist:Maaya Sakamoto
ArtistUnicode:坂本真綾
Creator:Yohanes
Version:Delis' Insane
Source:
Tags:FOLLOW ME UP 北川勝利 Katsutoshi Kitagawa Flying Dog Pupa Chrysalis Delis avmidfvurtrtdrk Frostmourne FrostxE GhostFY yaldo_27
BeatmapID:1299082
BeatmapSetID:615921

[Difficulty]
HPDrainRate:6
CircleSize:4
OverallDifficulty:7
ApproachRate:8
SliderMultiplier:1.8
SliderTickRate:1

[Events]
//Background and Video events
0,0,"BG.jpg",0,0
//Break Periods
2,157529,162392
2,177029,188079
//Storyboard Layer 0 (Background)
//Storyboard Layer 1 (Fail)
//Storyboard Layer 2 (Pass)
//Storyboard Layer 3 (Foreground)
//Storyboard Sound Samples

[TimingPoints]
1329.62892752399,375,4,2,1,60,1,0
13798,-100,4,2,0,60,0,0
13985,-100,4,2,1,60,0,0
14360,-100,4,2,0,60,0,0
14548,-100,4,2,1,60,0,0
14923,-100,4,2,0,60,0,0
15110,-100,4,2,1,60,0,0
15485,-100,4,2,0,60,0,0
16048,-100,4,2,1,60,0,0
16235,-125,4,2,0,60,0,0
16423,-125,4,2,1,60,0,0
16798,-125,4,2,0,60,0,0
16985,-125,4,2,1,60,0,0
17360,-125,4,2,0,60,0,0
17548,-125,4,2,1,60,0,0
17923,-125,4,2,0,60,0,0
18110,-125,4,2,1,60,0,0
18485,-125,4,2,0,60,0,0
18673,-125,4,2,1,60,0,0
19329,-100,4,2,1,60,0,0
25329,-125,4,2,1,60,0,0
25798,-125,4,2,0,60,0,0
25985,-125,4,2,1,60,0,0
26360,-125,4,2,0,60,0,0
26548,-125,4,2,1,60,0,0
26923,-125,4,2,0,60,0,0
27110,-125,4,2,1,60,0,0
27485,-125,4,2,0,60,0,0
27673,-125,4,2,1,60,0,0
27860,-125,4,2,0,60,0,0
28048,-125,4,2,1,60,0,0
28235,-125,4,2,0,60,0,0
28423,-125,4,2,1,60,0,0
28798,-125,4,2,0,60,0,0
28985,-125,4,2,1,60,0,0
29454,-125,4,2,0,60,0,0
29735,-125,4,2,1,60,0,0
29923,-125,4,2,0,60,0,0
30110,-125,4,2,1,60,0,0
30485,-125,4,2,0,60,0,0
30673,-125,4,2,1,60,0,0
31329,-100,4,2,1,60,0,0
49235,-100,4,2,1,40,0,0
49610,-100,4,2,1,50,0,0
49985,-100,4,2,1,60,0,0
50360,-100,4,2,1,70,0,0
52329,-100,4,2,1,70,0,1
76329,-100,4,2,1,60,0,0
88798,-100,4,2,0,60,0,0
88985,-100,4,2,1,60,0,0
89360,-100,4,2,0,60,0,0
89548,-100,4,2,1,60,0,0
89923,-100,4,2,0,60,0,0
90485,-100,4,2,1,60,0,0
91329,-125,4,2,0,60,0,0
91423,-125,4,2,1,60,0,0
91798,-125,4,2,0,60,0,0
91985,-125,4,2,1,60,0,0
92360,-125,4,2,0,60,0,0
92548,-125,4,2,1,60,0,0
92923,-125,4,2,0,60,0,0
93110,-125,4,2,1,60,0,0
93673,-125,4,2,0,60,0,0
93954,-100,4,2,1,60,0,0
100798,-100,4,2,0,60,0,0
100985,-100,4,2,1,60,0,0
101360,-100,4,2,0,60,0,0
101548,-100,4,2,1,60,0,0
101923,-100,4,2,0,60,0,0
102110,-100,4,2,1,60,0,0
102579,-125,4,2,1,60,0,0
103235,-125,4,2,0,60,0,0
103423,-125,4,2,1,60,0,0
103798,-125,4,2,0,60,0,0
103985,-125,4,2,1,60,0,0
104454,-125,4,2,0,60,0,0
104642,-125,4,2,1,60,0,0
106329,-100,4,2,1,60,0,0
124329,-100,4,2,1,40,0,0
124704,-100,4,2,1,50,0,0
125079,-100,4,2,1,60,0,0
125454,-100,4,2,1,70,0,0
127329,-100,4,2,1,70,0,1
151329,-100,4,2,1,60,0,0
188829,-125,4,2,1,40,0,0
198485,-125,4,2,1,45,0,0
199235,-125,4,2,1,50,0,0
199985,-125,4,2,1,55,0,0
200735,-125,4,2,1,70,0,0
203173,-125,4,2,0,70,0,0
203454,-100,4,2,0,70,0,0
203829,-100,4,2,1,70,0,1
227829,-100,4,2,1,60,0,0
249579,-100,4,2,1,70,0,0
258579,-100,4,2,1,8,0,0

[Colours]
Combo1 : 255,94,55
Combo2 : 173,255,95
Combo3 : 17,254,176
Combo4 : 255,88,100

[HitObjects]
224,176,579,5,8,0:0:0:0:
224,176,673,1,8,0:0:0:0:
308,136,860,1,8,0:0:0:0:
324,168,954,1,8,0:0:0:0:
328,204,1048,1,8,0:0:0:0:
324,240,1142,1,8,0:0:0:0:
312,272,1235,1,8,0:0:0:0:
284,292,1329,2,0,B|192:288|96:304,1,180,4|8,0:0|0:0,0:0:0:0:
48,216,1892,6,0,B|48:168|40:120,1,90,0|2,0:0|0:0,0:0:0:0:
150,167,2267,2,0,B|198:167|246:159,1,90,0|8,0:0|0:0,0:0:0:0:
336,168,2642,2,0,B|328:112|336:72,1,90,0|2,0:0|0:0,0:0:0:0:
184,248,3017,2,0,B|192:296|184:344,1,90,0|8,0:0|0:0,0:0:0:0:
240,160,3392,1,0,0:0:0:0:
176,80,3579,1,2,0:0:0:0:
168,88,3673,1,8,0:0:0:0:
160,96,3767,2,0,B|112:104|72:64,1,90,0|8,0:0|0:0,0:0:0:0:
24,144,4142,1,0,0:0:0:0:
128,200,4329,6,0,B|160:304|48:360,1,180,2|8,0:0|0:0,0:0:0:0:
200,328,4892,1,0,0:0:0:0:
200,328,4985,1,0,0:0:0:0:
200,328,5079,2,0,B|248:312|312:320,1,90,2|0,0:0|0:0,0:0:0:0:
448,264,5454,2,0,B|400:256|352:272,1,90,8|0,0:0|0:0,0:0:0:0:
208,192,5829,2,0,L|352:176,1,135,2|0,0:0|0:0,0:0:0:0:
368,168,6204,1,8,0:0:0:0:
208,104,6392,1,0,0:0:0:0:
128,152,6579,1,2,0:0:0:0:
128,152,6673,2,0,B|72:168|32:128,1,90,8|0,0:0|0:0,0:0:0:0:
16,104,6954,2,0,L|24:200,1,90,8|0,0:0|0:0,0:0:0:0:
112,336,7329,6,0,L|320:312,1,180,4|8,0:0|0:0,0:0:0:0:
352,240,7892,2,0,B|392:264|424:304,1,90,0|2,0:0|0:0,0:0:0:0:
256,224,8267,1,0,0:0:0:0:
240,80,8454,1,8,0:0:0:0:
360,136,8642,1,0,0:0:0:0:
160,160,8830,1,2,0:0:0:0:
160,160,8923,1,8,0:0:0:0:
160,160,9017,2,0,B|112:160|56:168,1,90,0|8,0:0|0:0,0:0:0:0:
120,64,9392,1,0,0:0:0:0:
128,240,9579,2,0,B|184:248|224:232,1,90,2|0,0:0|0:0,0:0:0:0:
368,304,9954,2,0,B|312:296|272:312,1,90,8|0,0:0|0:0,0:0:0:0:
464,152,10329,6,0,B|416:168|384:208,1,90,2|0,0:0|0:0,0:0:0:0:
384,88,10704,2,0,B|304:128|200:88,1,180,8|2,0:0|0:0,0:0:0:0:
128,56,11267,1,0,0:0:0:0:
48,192,11454,1,8,0:0:0:0:
160,304,11642,1,0,0:0:0:0:
136,144,11829,5,2,0:0:0:0:
192,224,12017,1,8,0:0:0:0:
192,224,12110,1,8,0:0:0:0:
192,224,12204,1,8,0:0:0:0:
192,224,12298,1,8,0:0:0:0:
192,224,12392,1,8,0:0:0:0:
232,104,12579,1,8,0:0:0:0:
296,240,12767,1,8,0:0:0:0:
296,240,12860,1,8,0:0:0:0:
296,240,12954,1,8,0:0:0:0:
360,88,13142,1,0,0:0:0:0:
408,256,13329,5,4,0:0:0:0:
416,264,13704,1,2,0:0:0:0:
264,312,13892,1,2,0:0:0:0:
264,320,14267,1,0,0:0:0:0:
120,264,14454,1,2,0:0:0:0:
128,272,14829,1,2,0:0:0:0:
120,120,15017,1,2,0:0:0:0:
112,128,15392,1,0,0:0:0:0:
256,40,15579,5,2,0:0:0:0:
256,336,15954,1,2,0:0:0:0:
432,184,16329,2,0,B|418:139|349:115|305:151,1,144,2|2,0:0|0:0,0:0:0:0:
232,184,16892,2,0,B|246:229|315:253|359:217,1,144,2|0,0:0|0:0,0:0:0:0:
224,88,17454,2,0,B|176:64|116:88|104:152,1,144,2|2,0:0|0:0,0:0:0:0:
64,216,18017,2,0,B|72:272|72:312,1,72,2|2,0:0|0:0,0:0:0:0:
128,352,18392,1,0,0:0:0:0:
128,352,18579,1,2,0:0:0:0:
216,304,18767,1,8,0:3:0:0:
216,304,18860,1,8,0:3:0:0:
216,304,18954,1,4,0:3:0:0:
144,240,19142,1,4,0:3:0:0:
352,272,19329,6,0,B|360:200|352:144,1,90,4|0,0:0|0:0,0:0:0:0:
272,112,19704,2,0,B|264:176|264:224,1,90,8|0,0:0|0:0,0:0:0:0:
432,336,20079,2,0,B|456:240|432:128,1,180,2|8,0:0|0:0,0:0:0:0:
352,32,20642,2,0,B|344:80|352:128,1,90,2|2,0:3|0:0,0:0:0:0:
280,208,21017,1,2,0:3:0:0:
280,208,21204,2,0,B|216:248|144:208|144:128,1,180,8|2,0:0|0:0,0:0:0:0:
160,56,21767,1,0,0:0:0:0:
64,88,21954,1,8,0:0:0:0:
240,128,22142,5,0,0:0:0:0:
296,56,22329,2,0,B|352:48|400:56,1,90,2|0,0:0|0:0,0:0:0:0:
448,136,22704,2,0,B|400:152|352:144,1,90,8|0,0:0|0:0,0:0:0:0:
288,248,23079,2,0,B|376:208|488:240,1,180,2|8,0:0|0:0,0:0:0:0:
368,304,23642,2,0,L|272:336,1,90,2|2,0:3|0:0,0:0:0:0:
160,360,24017,1,2,0:3:0:0:
160,360,24204,2,0,L|144:160,1,180,8|2,0:0|0:0,0:0:0:0:
256,240,24767,1,2,3:3:0:0:
289,251,24860,1,0,0:0:0:0:
324,243,24954,1,8,0:0:0:0:
351,219,25048,1,8,0:0:0:0:
359,183,25142,1,8,0:0:0:0:
296,112,25329,6,0,B|384:112|464:104,1,144,4|2,0:0|0:0,0:0:0:0:
472,32,25892,1,2,0:0:0:0:
480,240,26267,1,0,0:0:0:0:
408,168,26454,1,2,0:0:0:0:
312,320,26829,1,2,0:0:0:0:
392,272,27017,1,2,0:0:0:0:
208,176,27392,1,0,0:0:0:0:
288,224,27579,6,0,B|288:160|280:104,1,108,2|0,0:0|0:0,0:0:0:0:
281,116,27954,2,0,B|351:111|399:111,1,108,2|0,0:0|0:0,0:0:0:0:
400,144,28329,2,0,B|488:128|536:216|480:288,2,216,2|2|2,0:0|0:0|0:0,0:0:0:0:
400,144,29829,1,2,0:0:0:0:
352,224,30017,1,2,0:0:0:0:
400,144,30204,1,2,0:0:0:0:
256,136,30392,1,8,0:3:0:0:
344,80,30579,1,2,0:0:0:0:
256,224,30767,1,4,0:3:0:0:
168,80,30954,1,4,0:0:0:0:
176,344,31329,6,0,L|152:232,1,90,4|0,0:0|0:0,0:0:0:0:
248,280,31704,2,0,L|340:294,1,90,8|0,0:0|0:0,0:0:0:0:
248,280,32079,2,0,L|212:96,1,180,2|8,0:0|0:0,0:0:0:0:
288,40,32642,1,0,0:0:0:0:
288,40,32735,1,0,0:0:0:0:
288,40,32829,2,0,B|312:80|304:144,1,90,2|0,0:0|0:0,0:0:0:0:
168,248,33204,2,0,B|64:280|16:184,1,180,8|2,0:0|0:0,0:0:0:0:
24,96,33767,1,2,0:3:0:0:
104,144,33954,1,8,0:0:0:0:
248,48,34142,5,2,0:3:0:0:
304,120,34329,1,2,0:0:0:0:
232,176,34517,1,0,0:0:0:0:
176,104,34704,1,8,0:0:0:0:
352,48,34892,1,0,0:0:0:0:
432,96,35079,2,0,B|432:168|424:272,1,135,2|0,0:0|0:0,0:0:0:0:
424,248,35454,1,8,0:0:0:0:
360,376,35642,2,0,B|312:384|256:376,1,90,0|2,0:0|0:0,0:0:0:0:
96,344,36017,2,0,B|144:336|200:344,1,90,0|8,0:0|0:0,0:0:0:0:
344,288,36392,1,0,0:0:0:0:
360,184,36579,2,0,L|352:136,2,45,2|0|8,0:0|0:0|0:3,0:0:0:0:
272,240,36954,2,0,L|264:304,2,45,0|8|4,0:0|0:0|0:3,0:0:0:0:
184,104,37329,6,0,B|104:48|0:96,1,180,4|8,0:0|0:0,0:0:0:0:
16,224,37892,2,0,B|107:266|187:210,1,180
256,136,38454,2,0,B|264:88|256:24,1,90,8|0,0:0|0:0,0:0:0:0:
280,224,38829,2,0,B|368:240|472:232,1,180,2|8,0:0|0:0,0:0:0:0:
512,160,39392,2,0,B|424:144|320:152,1,180
216,304,39954,2,0,B|264:312|320:304,1,90,8|0,0:0|0:0,0:0:0:0:
184,144,40329,6,0,B|136:104|49:133|40:200,1,180,2|8,0:0|0:0,0:0:0:0:
136,240,40892,2,0,B|184:280|271:251|280:184,1,180
272,104,41454,1,8,0:0:0:0:
416,192,41642,2,0,B|400:288|384:376,1,180
288,248,42204,2,0,L|304:344,1,90,8|0,0:0|0:0,0:0:0:0:
136,272,42579,2,0,L|224:208,1,90,2|0,0:0|0:0,0:0:0:0:
232,384,42954,2,0,L|128:352,1,90,8|0,0:0|0:0,0:0:0:0:
112,112,43329,6,0,B|216:88|320:80,1,180,2|8,0:0|0:0,0:0:0:0:
456,184,43892,2,0,B|368:168|256:160,1,180
96,216,44454,2,0,B|128:256|184:248,1,90,8|0,0:0|0:0,0:0:0:0:
456,312,44829,2,0,B|376:272|264:280,1,180,2|8,0:0|0:0,0:0:0:0:
80,368,45392,2,0,B|168:336|264:352,1,180
280,200,45954,6,0,B|232:184|176:192,1,90,8|0,0:0|0:0,0:0:0:0:
72,120,46329,2,0,B|160:72|256:96,1,180,2|8,0:0|0:0,0:0:0:0:
336,128,46892,2,0,B|424:176|512:128,1,180
432,40,47454,1,8,0:0:0:0:
432,40,47642,1,0,0:0:0:0:
336,32,47829,2,0,L|240:48,1,90,2|0,0:0|0:0,0:0:0:0:
152,120,48204,2,0,L|168:24,1,90,8|0,0:0|0:0,0:0:0:0:
248,144,48579,2,0,L|229:266,1,90,2|0,0:0|0:0,0:0:0:0:
56,224,48954,2,0,L|160:208,1,90,8|0,3:2|0:0,0:0:0:0:
184,368,49329,5,8,0:0:0:0:
184,368,49517,1,8,0:0:0:0:
344,352,49704,1,8,0:0:0:0:
344,352,49892,1,8,0:0:0:0:
328,192,50079,1,8,0:0:0:0:
328,192,50267,1,8,0:0:0:0:
168,208,50454,1,8,0:0:0:0:
168,208,50642,1,8,0:0:0:0:
256,352,50829,5,8,0:0:0:0:
256,328,50923,1,8,0:0:0:0:
256,304,51017,1,8,0:0:0:0:
256,280,51110,1,8,0:0:0:0:
256,256,51204,2,0,L|256:72,1,180,8|8,0:0|0:3,0:0:0:0:
168,136,51767,1,0,0:0:0:0:
168,136,51860,1,8,0:0:0:0:
168,136,51954,2,0,B|128:152|80:144,1,90,8|0,0:0|0:0,0:0:0:0:
24,72,52329,5,4,0:0:0:0:
136,216,52517,1,0,0:0:0:0:
120,64,52704,1,8,0:0:0:0:
40,232,52892,1,0,0:0:0:0:
80,144,53079,2,0,B|168:120|272:120,1,180,2|8,0:0|0:0,0:0:0:0:
352,152,53642,2,0,B|400:152|448:144,1,90,2|2,0:1|0:0,0:0:0:0:
480,56,54017,2,0,B|432:56|384:64,1,90,2|8,0:1|0:0,0:0:0:0:
312,40,54392,1,2,0:1:0:0:
224,40,54579,1,2,0:0:0:0:
224,40,54673,1,8,0:0:0:0:
224,40,54767,1,0,0:0:0:0:
256,208,54954,1,8,0:0:0:0:
96,168,55142,1,0,0:0:0:0:
200,136,55329,6,0,B|216:208|208:328,1,180,2|8,0:0|0:0,0:0:0:0:
128,280,55892,1,0,0:0:0:0:
296,272,56079,2,0,B|352:280|400:272,1,90,2|0,0:0|0:0,0:0:0:0:
480,120,56454,1,8,0:0:0:0:
384,80,56642,2,0,L|288:72,1,90,2|2,0:1|0:0,0:0:0:0:
112,144,57017,2,0,L|234:160,1,90,2|8,0:1|0:0,0:0:0:0:
296,272,57392,2,0,L|191:258,1,90,2|2,0:1|0:0,0:0:0:0:
32,256,57767,5,2,0:3:0:0:
48,352,57954,1,8,0:0:0:0:
126,284,58142,1,2,3:0:0:0:
126,284,58235,1,0,3:0:0:0:
126,284,58329,1,2,3:2:0:0:
224,72,58517,5,2,0:3:0:0:
200,160,58704,1,8,0:0:0:0:
128,96,58892,1,2,3:0:0:0:
128,96,58985,1,0,3:0:0:0:
128,96,59079,1,2,3:2:0:0:
264,272,59267,5,2,0:3:0:0:
288,168,59454,1,8,0:0:0:0:
360,240,59642,1,2,3:0:0:0:
360,240,59735,1,0,3:0:0:0:
360,240,59829,1,2,3:2:0:0:
448,32,60017,5,2,0:3:0:0:
464,128,60204,1,8,0:0:0:0:
376,96,60392,1,2,3:0:0:0:
376,96,60485,1,0,3:0:0:0:
376,96,60579,1,2,3:2:0:0:
376,96,60673,1,8,3:2:0:0:
376,96,60767,1,2,3:0:0:0:
272,40,60954,2,0,B|216:32|176:48,1,90,8|0,0:0|0:0,0:0:0:0:
80,104,61329,5,2,0:0:0:0:
80,104,61517,1,0,0:0:0:0:
120,264,61704,1,8,0:0:0:0:
120,264,61892,1,0,0:0:0:0:
288,224,62079,2,0,B|392:200|472:272,1,180,2|8,0:0|0:0,0:0:0:0:
368,312,62642,1,0,0:0:0:0:
424,160,62829,6,0,L|408:48,1,90,2|0,0:0|0:0,0:0:0:0:
280,184,63204,2,0,L|296:88,1,90,8|0,0:0|0:0,0:0:0:0:
192,232,63579,1,2,0:0:0:0:
192,232,63673,1,8,0:0:0:0:
192,232,63767,1,0,0:0:0:0:
112,40,63954,2,0,L|120:144,1,90,8|8,0:0|0:0,0:0:0:0:
119,130,64235,5,8,0:0:0:0:
119,130,64329,2,0,B|105:179|137:235,1,90,4|0,0:0|0:0,0:0:0:0:
96,320,64704,2,0,B|145:334|201:302,1,90,8|0,0:0|0:0,0:0:0:0:
304,344,65079,2,0,B|232:256|304:176,1,180,2|8,0:0|0:0,0:0:0:0:
299,181,65642,2,0,B|360:168|400:216,1,90,2|2,0:1|0:0,0:0:0:0:
208,352,66017,2,0,B|147:357|115:309,1,90,2|8,0:1|0:0,0:0:0:0:
104,208,66392,2,0,L|144:80,1,135,2|8,0:1|0:0,0:0:0:0:
144,79,66767,1,0,0:0:0:0:
208,144,66954,2,0,B|248:136|312:144,1,90,8|0,0:0|0:0,0:0:0:0:
368,72,67329,5,2,0:0:0:0:
456,120,67517,1,0,0:0:0:0:
440,216,67704,1,8,0:0:0:0:
344,232,67892,1,0,0:0:0:0:
297,142,68079,2,0,B|240:136|196:147,1,90,2|0,0:0|0:0,0:0:0:0:
120,152,68454,1,8,0:0:0:0:
24,48,68642,2,0,B|24:104|32:144,1,90,2|2,0:1|0:0,0:0:0:0:
126,241,69017,2,0,B|126:185|118:145,1,90,2|8,0:1|0:0,0:0:0:0:
48,288,69392,2,0,B|88:360|176:320,1,135,2|8,0:1|0:0,0:0:0:0:
184,312,69767,5,2,0:3:0:0:
328,232,69954,1,8,0:0:0:0:
192,152,70142,1,2,3:0:0:0:
192,152,70235,1,0,3:0:0:0:
192,152,70329,1,2,3:2:0:0:
248,232,70517,5,2,0:3:0:0:
256,72,70704,1,8,0:0:0:0:
104,144,70892,1,2,3:0:0:0:
104,144,70985,1,0,3:0:0:0:
104,144,71079,1,2,3:2:0:0:
192,152,71267,5,2,0:3:0:0:
64,64,71454,1,8,0:0:0:0:
48,216,71642,1,2,3:0:0:0:
48,216,71735,1,0,3:0:0:0:
48,216,71829,1,2,0:2:0:0:
104,144,72017,5,2,0:3:0:0:
8,288,72204,1,8,0:0:0:0:
152,328,72392,1,2,3:0:0:0:
186,318,72485,1,0,3:0:0:0:
222,316,72579,1,2,3:2:0:0:
256,325,72673,1,8,0:0:0:0:
288,336,72767,2,0,B|336:344|400:320,1,90,2|8,3:0|0:0,0:0:0:0:
472,192,73142,1,0,0:0:0:0:
400,160,73329,6,0,B|392:208|408:248,1,90,2|0,0:0|0:0,0:0:0:0:
192,200,73704,2,0,B|200:152|184:112,1,90,8|0,0:0|0:0,0:0:0:0:
312,160,74079,2,0,B|264:248|312:336,1,180,2|8,0:0|0:0,0:0:0:0:
392,264,74642,1,0,0:0:0:0:
208,232,74829,5,0,0:0:0:0:
208,232,74923,1,8,0:0:0:0:
208,232,75017,1,8,0:0:0:0:
144,152,75204,1,8,0:0:0:0:
200,80,75392,1,8,0:0:0:0:
200,80,75485,1,8,0:0:0:0:
200,80,75579,1,8,0:0:0:0:
288,104,75767,1,8,0:0:0:0:
376,96,75954,1,8,0:0:0:0:
376,96,76048,1,8,0:0:0:0:
464,72,76235,5,8,0:0:0:0:
464,72,76329,2,0,B|464:152|456:224,1,135,4|0,0:0|0:0,0:0:0:0:
456,248,76704,2,0,B|456:304|464:344,1,90,8|0,0:0|0:0,0:0:0:0:
296,312,77079,2,0,B|248:312|200:320,1,90,2|0,0:0|0:0,0:0:0:0:
72,224,77454,1,8,0:0:0:0:
160,208,77642,2,0,B|256:208|344:184,1,180
496,160,78204,2,0,B|448:176|416:208,1,90,8|0,0:0|0:0,0:0:0:0:
272,112,78579,1,2,0:0:0:0:
272,112,78673,1,8,0:0:0:0:
272,112,78767,2,0,B|328:104|384:112,1,90,0|8,0:0|0:0,0:0:0:0:
256,256,79142,1,0,0:0:0:0:
168,272,79329,6,0,B|160:176|160:112,1,135,2|0,0:0|0:0,0:0:0:0:
168,96,79704,1,8,0:0:0:0:
80,208,79892,1,0,0:0:0:0:
80,208,79985,1,0,0:0:0:0:
80,208,80079,2,0,B|48:160|32:112,1,90,2|0,0:0|0:0,0:0:0:0:
248,176,80454,2,0,B|304:168|352:168,1,90,8|0,0:0|0:0,0:0:0:0:
448,256,80829,2,0,B|392:312|304:272,1,135,2|0,0:0|0:0,0:0:0:0:
296,264,81204,1,8,0:0:0:0:
337,168,81392,1,0,0:0:0:0:
160,80,81579,1,2,0:0:0:0:
160,80,81673,1,8,0:0:0:0:
160,80,81767,1,0,0:0:0:0:
168,216,81954,1,8,0:0:0:0:
168,216,82142,1,0,0:0:0:0:
80,184,82329,6,0,B|72:112|72:48,1,135,4|0,0:0|0:0,0:0:0:0:
104,32,82704,2,0,B|160:32|208:24,1,90,8|0,0:0|0:0,0:0:0:0:
352,72,83079,2,0,B|296:80|240:80,1,90,2|0,0:0|0:0,0:0:0:0:
256,240,83454,1,8,0:0:0:0:
344,272,83642,2,0,B|344:224|328:176,1,90,0|2,0:0|0:0,0:0:0:0:
168,216,84017,2,0,B|168:264|184:312,1,90,0|8,0:0|0:0,0:0:0:0:
80,280,84392,1,0,0:0:0:0:
40,192,84579,1,2,0:0:0:0:
40,192,84673,1,8,0:0:0:0:
40,192,84767,2,0,B|64:88|72:72,1,90,0|8,0:0|0:0,0:0:0:0:
160,32,85142,1,0,0:0:0:0:
264,176,85329,6,0,B|216:184|168:184,1,90,2|0,0:0|0:0,0:0:0:0:
264,176,85704,2,0,B|312:168|360:168,1,90,8|0,0:0|0:0,0:0:0:0:
200,272,86079,2,0,B|144:264|112:248,1,90,2|0,0:0|0:0,0:0:0:0:
320,88,86454,2,0,B|360:96|408:112,1,90,8|0,0:0|0:0,0:0:0:0:
472,176,86829,5,2,0:0:0:0:
472,176,87017,1,8,0:0:0:0:
440,264,87204,1,8,0:0:0:0:
440,264,87298,1,8,0:0:0:0:
440,264,87392,1,0,0:0:0:0:
352,272,87579,1,8,0:0:0:0:
312,128,87767,1,8,0:0:0:0:
312,128,87860,1,8,0:0:0:0:
312,128,87954,1,8,0:0:0:0:
216,144,88142,1,8,0:0:0:0:
176,328,88329,5,4,0:0:0:0:
176,328,88704,1,2,0:0:0:0:
112,224,88892,1,2,0:0:0:0:
112,224,89267,1,0,0:0:0:0:
48,120,89454,1,2,0:0:0:0:
48,120,89829,1,2,0:0:0:0:
144,48,90017,1,2,0:0:0:0:
144,48,90392,1,2,0:0:0:0:
208,112,90579,5,2,0:0:0:0:
288,64,90954,1,2,0:0:0:0:
360,120,91329,2,0,B|432:136|512:136,1,144,2|0,0:0|0:0,0:0:0:0:
336,264,91892,2,0,B|264:248|184:248,1,144,2|0,0:0|0:0,0:0:0:0:
216,328,92454,2,0,B|224:248|224:168,1,144,2|2,0:0|0:0,0:0:0:0:
216,104,93017,5,2,0:0:0:0:
128,64,93204,1,2,0:0:0:0:
128,160,93392,1,0,0:0:0:0:
216,104,93579,2,0,B|288:96|320:96,1,72,2|2,0:0|0:0,0:0:0:0:
376,40,93954,1,4,0:0:0:0:
416,224,94142,5,0,0:0:0:0:
416,224,94235,1,0,0:0:0:0:
416,224,94329,2,0,B|432:288|432:328,1,90,4|0,0:0|0:0,0:0:0:0:
272,256,94704,2,0,B|256:208|248:144,1,90,8|0,0:0|0:0,0:0:0:0:
72,112,95079,2,0,B|16:208|96:280,1,180,2|8,0:0|0:0,0:0:0:0:
144,208,95642,2,0,L|256:192,1,90,0|2,0:0|0:0,0:0:0:0:
368,264,96017,1,0,0:0:0:0:
368,264,96204,2,0,B|272:232|176:312,2,180,8|2|8,0:0|0:0|0:0,0:0:0:0:
464,128,97142,5,0,0:0:0:0:
384,176,97329,2,0,L|392:80,1,90,2|0,0:0|0:0,0:0:0:0:
232,80,97704,2,0,L|112:88,1,90,8|0,0:0|0:0,0:0:0:0:
64,184,98079,2,0,L|272:168,1,180,2|8,0:0|0:0,0:0:0:0:
296,328,98642,2,0,B|248:336|200:336,1,90,0|2,0:0|0:0,0:0:0:0:
24,296,99017,2,0,B|64:288|136:288,1,90,0|8,0:0|0:0,0:0:0:0:
256,192,99392,1,0,0:0:0:0:
192,128,99579,6,0,L|208:72,1,45,0|4,0:3|0:3,0:0:0:0:
320,256,99860,2,0,L|301:325,1,45,8|4,0:3|0:3,0:0:0:0:
320,128,100142,1,4,0:3:0:0:
192,256,100329,1,4,0:0:0:0:
88,192,100704,5,2,0:0:0:0:
104,304,100892,1,2,0:0:0:0:
184,128,101267,1,0,0:0:0:0:
192,256,101454,1,2,0:0:0:0:
72,72,101829,1,2,0:0:0:0:
88,192,102017,1,2,0:0:0:0:
288,120,102392,1,0,0:0:0:0:
368,160,102579,6,0,L|360:40,1,108,2|0,0:0|0:0,0:0:0:0:
368,40,102954,2,0,L|256:32,1,108,2|0,0:0|0:0,0:0:0:0:
248,48,103329,2,0,B|168:8|88:56|80:128,2,216,2|2|2,0:0|0:0|0:0,0:0:0:0:
248,48,104829,2,0,B|256:104|256:168,1,108,2|0,0:0|0:0,0:0:0:0:
248,160,105204,1,2,0:0:0:0:
224,248,105392,1,8,0:3:0:0:
240,280,105485,1,4,0:3:0:0:
272,296,105579,1,2,0:0:0:0:
328,208,105767,1,8,0:3:0:0:
72,256,105954,1,4,0:0:0:0:
136,320,106142,5,0,0:0:0:0:
136,320,106235,1,0,0:0:0:0:
136,320,106329,2,0,L|152:224,1,90,4|0,0:0|0:0,0:0:0:0:
152,144,106704,2,0,L|136:48,1,90,8|0,0:0|0:0,0:0:0:0:
232,96,107079,2,0,B|352:128|392:0,1,180,2|8,0:0|0:0,0:0:0:0:
456,96,107642,2,0,B|480:152|440:208,1,90,0|2,0:0|0:0,0:0:0:0:
400,336,108017,1,0,0:0:0:0:
312,304,108204,2,0,B|376:216|488:272,1,180,8|2,0:0|0:0,0:0:0:0:
472,264,108767,1,0,0:0:0:0:
232,248,108954,2,0,B|200:208|224:144,1,90,8|0,0:0|0:0,0:0:0:0:
320,40,109329,5,2,0:0:0:0:
320,40,109517,1,0,0:0:0:0:
168,72,109704,1,8,0:0:0:0:
168,72,109892,1,0,0:0:0:0:
296,136,110079,2,0,B|304:184|304:232,1,90,2|0,0:0|0:0,0:0:0:0:
224,272,110454,1,8,0:0:0:0:
144,152,110642,2,0,B|96:152|32:168,1,90,2|2,0:3|0:0,0:0:0:0:
24,248,111017,5,8,0:0:0:0:
24,248,111110,1,8,0:0:0:0:
24,248,111204,1,8,0:0:0:0:
128,360,111392,1,8,0:0:0:0:
248,224,111579,1,8,0:0:0:0:
248,224,111673,1,8,0:0:0:0:
248,224,111767,1,8,0:0:0:0:
152,256,111954,1,8,0:0:0:0:
168,112,112142,1,8,0:0:0:0:
448,232,112329,6,0,L|464:40,1,180,4|8,0:0|0:0,0:0:0:0:
376,96,112892,2,0,L|360:288,1,180
280,184,113454,2,0,B|280:136|288:88,1,90,8|0,0:0|0:0,0:0:0:0:
72,296,113829,2,0,B|168:336|240:256,1,180,2|8,0:0|0:0,0:0:0:0:
224,176,114392,2,0,B|128:136|56:216,1,180
192,344,114954,2,0,L|296:336,1,90,8|0,0:0|0:0,0:0:0:0:
432,304,115329,6,0,B|496:192|384:128,1,180,2|8,0:0|0:0,0:0:0:0:
344,80,115892,2,0,B|280:192|392:256,1,180
367,239,116454,1,8,0:0:0:0:
200,320,116642,2,0,L|216:128,1,180
184,64,117204,2,0,B|248:40|304:32,1,90,8|0,0:0|0:0,0:0:0:0:
128,176,117579,2,0,B|88:144|56:104,1,90,2|0,0:0|0:0,0:0:0:0:
208,232,117954,1,8,0:0:0:0:
168,312,118142,5,0,0:0:0:0:
168,312,118235,1,0,0:0:0:0:
168,312,118329,2,0,B|56:352|16:208,1,180,4|8,0:0|0:0,0:0:0:0:
280,224,118892,2,0,B|360:304|288:400,1,180
184,192,119454,2,0,B|200:136|248:96,1,90,8|0,0:0|0:0,0:0:0:0:
480,120,119829,2,0,B|376:160|328:48,1,180,2|8,0:0|0:0,0:0:0:0:
70,163,120392,2,0,B|174:203|238:99,1,180
352,288,120954,6,0,B|336:240|336:192,1,90,8|0,0:0|0:0,0:0:0:0:
104,312,121329,2,0,B|208:352|264:248,1,180,2|8,0:0|0:0,0:0:0:0:
256,176,121892,2,0,B|256:112|264:64,1,90,0|2,0:0|0:0,0:0:0:0:
160,168,122267,1,0,0:0:0:0:
344,288,122454,2,0,B|416:284|445:206|405:139,1,180,8|2,0:0|0:0,0:0:0:0:
360,72,123017,1,0,0:0:0:0:
336,199,123204,1,8,0:0:0:0:
248,112,123392,1,0,0:0:0:0:
412,153,123579,2,0,B|436:97|440:48,1,90,2|0,0:0|0:0,0:0:0:0:
240,200,123954,2,0,B|224:256|216:296,1,90,12|0,0:0|0:0,0:0:0:0:
288,352,124329,5,8,0:0:0:0:
368,304,124517,1,8,0:0:0:0:
440,360,124704,1,8,0:0:0:0:
448,248,124892,1,8,0:0:0:0:
360,176,125079,5,8,0:0:0:0:
488,160,125267,1,8,0:0:0:0:
288,248,125454,5,8,0:0:0:0:
272,72,125642,1,8,0:0:0:0:
200,232,125829,5,2,0:0:0:0:
177,260,125923,1,0,0:0:0:0:
141,273,126017,1,8,0:0:0:0:
105,271,126110,1,8,0:0:0:0:
74,251,126204,2,0,L|59:57,1,180,8|8,0:0|0:0,0:0:0:0:
60,71,126673,1,8,0:0:0:0:
60,71,126767,1,8,0:3:0:0:
152,32,126954,5,4,0:3:0:0:
177,57,127048,1,0,0:0:0:0:
211,68,127142,1,8,0:0:0:0:
246,63,127235,1,8,0:0:0:0:
279,48,127329,2,0,B|324:37|379:42,1,90,4|0,0:0|0:0,0:0:0:0:
312,200,127704,2,0,B|267:211|212:206,1,90,8|0,0:0|0:0,0:0:0:0:
40,144,128079,2,0,B|88:136|144:152,1,90,2|0,0:0|0:0,0:0:0:0:
256,120,128454,1,8,0:0:0:0:
392,160,128642,2,0,L|400:56,1,90,2|2,0:1|0:0,0:0:0:0:
272,248,129017,2,0,L|264:352,1,90,2|8,0:1|0:0,0:0:0:0:
128,224,129392,2,0,L|144:72,1,135,2|8,0:1|0:0,0:1:0:0:
136,80,129767,1,0,0:0:0:0:
296,200,129954,2,0,L|296:88,1,90,8|0,0:0|0:0,0:0:0:0:
472,224,130329,6,0,B|424:216|376:232,1,90,2|0,0:0|0:0,0:0:0:0:
208,336,130704,2,0,B|256:344|312:320,1,90,8|0,0:0|0:0,0:0:0:0:
136,232,131079,2,0,B|72:208|0:248|-8:320,1,180,2|8,0:0|0:0,0:0:0:0:
240,192,131642,2,0,B|238:145|240:88,1,90,2|2,0:1|0:0,0:0:0:0:
160,40,132017,1,2,0:1:0:0:
312,104,132204,1,8,0:0:0:0:
152,200,132392,1,2,0:1:0:0:
304,264,132579,1,2,0:0:0:0:
384,288,132767,6,0,B|440:288|496:272,1,90,2|8,0:3|0:0,0:0:0:0:
440,176,133142,1,2,3:0:0:0:
440,176,133235,1,0,3:0:0:0:
440,176,133329,1,2,3:2:0:0:
240,336,133517,6,0,B|168:336|120:320,1,90,2|8,0:3|0:0,0:0:0:0:
64,256,133892,1,2,0:3:0:0:
64,256,133985,1,0,3:0:0:0:
64,256,134079,1,2,3:2:0:0:
232,120,134267,6,0,B|224:176|232:232,1,90,2|8,0:3|0:0,0:0:0:0:
264,344,134642,1,2,0:3:0:0:
264,344,134735,1,0,3:0:0:0:
264,344,134829,1,2,3:2:0:0:
456,328,135017,5,2,0:3:0:0:
408,256,135204,2,0,B|400:208|408:152,1,90,8|2,0:0|3:0,0:0:0:0:
405,148,135485,1,0,3:0:0:0:
405,129,135579,1,2,3:2:0:0:
408,111,135673,1,8,3:2:0:0:
414,94,135767,1,2,3:0:0:0:
320,112,135954,1,8,0:0:0:0:
232,88,136142,1,0,0:3:0:0:
200,256,136329,6,0,B|150:260|94:252,1,90,2|0,0:0|0:0,0:0:0:0:
48,112,136704,2,0,B|104:104|168:112,1,90,8|0,0:0|0:0,0:0:0:0:
272,200,137079,2,0,B|312:248|288:336|216:344,1,180,2|8,0:0|0:0,0:0:0:0:
144,312,137642,1,0,0:0:0:0:
56,192,137829,5,2,0:0:0:0:
56,192,137923,1,8,0:0:0:0:
56,192,138017,1,8,0:0:0:0:
152,152,138204,1,8,0:0:0:0:
248,192,138392,1,0,0:0:0:0:
248,192,138485,1,8,0:0:0:0:
248,192,138579,1,2,0:0:0:0:
344,224,138767,1,8,0:0:0:0:
440,176,138954,5,8,0:0:0:0:
442,167,139048,1,8,0:0:0:0:
445,158,139142,1,8,0:0:0:0:
447,149,139235,1,8,0:0:0:0:
450,140,139329,2,0,L|443:37,1,90,4|0,0:0|0:0,0:0:0:0:
352,40,139704,2,0,L|256:32,1,90,8|0,0:0|0:0,0:0:0:0:
184,120,140079,2,0,L|168:24,1,90,2|0,0:0|0:0,0:0:0:0:
104,176,140454,1,8,0:0:0:0:
144,256,140642,2,0,B|184:288|240:264,1,90,2|2,0:1|0:0,0:0:0:0:
376,128,141017,2,0,B|336:96|280:120,1,90,2|2,0:1|0:0,0:0:0:0:
200,176,141392,1,0,0:0:0:0:
320,256,141579,1,2,0:0:0:0:
320,256,141673,1,8,0:0:0:0:
320,256,141767,1,0,0:0:0:0:
216,272,141954,1,8,0:0:0:0:
272,88,142142,5,0,3:0:0:0:
272,88,142235,1,0,3:0:0:0:
272,88,142329,2,0,L|416:64,1,135,2|0,3:2|0:0,0:0:0:0:
424,56,142704,2,0,L|408:168,1,90,8|0,0:0|0:0,0:0:0:0:
464,224,143079,2,0,B|376:248|280:240,1,180,2|8,0:0|0:0,0:0:0:0:
176,176,143642,2,0,B|224:160|280:160,1,90,2|2,0:1|0:0,0:0:0:0:
264,320,144017,2,0,B|216:320|176:304,1,90,2|8,0:1|0:0,0:0:0:0:
96,240,144392,2,0,B|120:160|56:104,1,135,2|8,0:1|0:0,0:0:0:0:
48,104,144767,5,2,0:3:0:0:
192,152,144954,1,8,0:0:0:0:
288,40,145142,1,2,3:0:0:0:
288,40,145235,1,0,3:0:0:0:
288,40,145329,1,2,3:2:0:0:
376,72,145517,5,2,0:3:0:0:
312,200,145704,1,8,0:0:0:0:
400,312,145892,1,2,3:0:0:0:
400,312,145985,1,0,3:0:0:0:
400,312,146079,1,2,3:2:0:0:
320,352,146267,5,2,0:3:0:0:
200,248,146454,1,8,0:0:0:0:
72,320,146642,1,2,3:0:0:0:
72,320,146735,1,0,3:0:0:0:
72,320,146829,1,2,3:2:0:0:
96,240,147017,5,2,0:3:0:0:
64,136,147204,1,8,0:0:0:0:
48,32,147392,1,2,3:0:0:0:
48,32,147485,1,0,3:0:0:0:
48,32,147579,1,2,3:2:0:0:
48,32,147673,1,8,3:2:0:0:
48,32,147767,1,2,3:0:0:0:
136,64,147954,2,0,B|184:56|248:56,1,90,8|0,0:0|0:0,0:0:0:0:
328,32,148329,5,2,0:0:0:0:
280,208,148517,1,0,0:0:0:0:
368,192,148704,1,8,0:0:0:0:
392,104,148892,1,0,0:0:0:0:
240,120,149079,1,2,0:0:0:0:
240,120,149173,1,8,0:0:0:0:
240,120,149267,1,0,0:0:0:0:
128,112,149454,2,0,B|72:120|24:112,1,90,8|4,0:0|0:0,0:0:0:0:
72,32,149829,5,4,0:3:0:0:
104,208,150017,1,8,0:3:0:0:
192,56,150204,1,8,0:3:0:0:
184,184,150392,1,0,0:0:0:0:
304,48,150579,1,8,0:0:0:0:
304,128,150767,5,8,0:0:0:0:
338,118,150860,1,8,0:0:0:0:
373,121,150954,1,2,0:0:0:0:
406,134,151048,1,8,0:0:0:0:
430,160,151142,1,8,0:0:0:0:
444,192,151235,1,0,0:0:0:0:
442,228,151329,2,0,B|432:296|440:368,1,135,4|0,0:0|0:0,0:0:0:0:
439,362,151704,1,8,0:0:0:0:
352,296,151892,1,0,0:0:0:0:
280,352,152079,5,2,0:0:0:0:
144,344,152267,1,0,0:0:0:0:
152,208,152454,1,8,0:0:0:0:
288,216,152642,1,0,0:0:0:0:
72,272,152829,6,0,B|48:208|64:120,1,135,2|0,0:0|0:0,0:0:0:0:
96,120,153204,2,0,B|104:72|96:16,1,90,8|0,0:0|0:0,0:0:0:0:
256,72,153579,1,2,0:0:0:0:
336,112,153767,1,0,0:0:0:0:
336,112,153860,1,0,0:0:0:0:
336,112,153954,2,0,B|392:96|440:104,1,90,8|0,0:0|0:0,0:0:0:0:
352,192,154329,5,4,0:0:0:0:
224,256,154517,1,0,0:0:0:0:
168,128,154704,1,4,0:3:0:0:
296,64,154892,1,0,0:0:0:0:
320,224,155079,5,0,0:0:0:0:
184,216,155267,1,8,0:0:0:0:
192,80,155455,1,2,0:0:0:0:
328,88,155642,1,8,0:0:0:0:
280,240,155829,5,2,0:0:0:0:
160,176,156017,1,0,0:0:0:0:
224,56,156204,1,2,0:0:0:0:
344,120,156392,1,8,0:0:0:0:
240,248,156579,5,2,0:0:0:0:
168,136,156767,1,8,0:0:0:0:
280,64,156954,1,8,0:0:0:0:
352,176,157142,1,0,0:0:0:0:
256,160,157329,5,4,0:0:0:0:
192,272,163142,5,0,0:0:0:0:
192,272,163329,2,0,L|176:176,1,90,4|0,0:0|0:0,0:0:0:0:
176,104,163704,1,8,0:0:0:0:
320,112,163892,2,0,L|336:208,1,90,2|2,0:1|0:0,0:0:0:0:
328,280,164267,1,0,0:0:0:0:
208,344,164454,2,0,B|144:352|96:360,1,90,10|0,0:1|0:0,0:0:0:0:
64,304,164829,1,2,0:0:0:0:
304,360,165017,2,0,B|368:352|416:344,1,90,2|8,0:1|0:0,0:0:0:0:
448,288,165392,1,0,0:0:0:0:
368,168,165579,2,2,B|360:120|368:64,2,90,2|2|8,0:0|0:1|0:0,0:1:0:0:
328,256,166142,6,0,L|224:272,1,90,2|2,0:1|0:0,0:0:0:0:
136,200,166517,2,0,B|184:184|256:176,1,90,2|8,0:1|0:0,0:0:0:0:
208,344,166892,2,2,B|128:328|32:312,1,135,0|0,0:1|0:0,0:1:0:0:
64,320,167267,1,8,0:0:0:0:
48,216,167454,1,10,0:1:0:0:
32,112,167642,1,0,0:0:0:0:
192,64,167829,2,0,L|216:152,1,90,2|0,0:0|0:0,0:0:0:0:
215,150,168204,1,8,0:0:0:0:
344,320,168392,2,2,B|376:240|320:176,1,135,2|8,0:1|0:0,0:1:0:0:
320,184,168767,1,0,0:0:0:0:
256,256,168954,1,8,0:0:0:0:
304,88,169142,5,0,0:0:0:0:
304,88,169235,1,0,0:0:0:0:
304,88,169329,2,0,B|352:80|408:80,1,90,2|0,0:1|0:0,0:0:0:0:
472,232,169704,1,8,0:0:0:0:
336,320,169892,2,2,B|272:328|192:320,1,135,2|8,0:1|0:0,0:1:0:0:
176,312,170267,1,0,0:0:0:0:
224,184,170454,1,10,0:1:0:0:
104,208,170642,1,0,0:0:0:0:
144,80,170829,5,2,0:0:0:0:
144,80,170923,1,0,0:0:0:0:
144,80,171017,1,2,0:1:0:0:
304,184,171204,1,8,0:0:0:0:
368,96,171392,2,2,B|432:120|504:176,1,135,2|8,0:1|0:0,0:1:0:0:
496,192,171767,1,0,0:0:0:0:
360,304,171954,1,8,0:0:0:0:
360,304,172048,2,2,B|296:328|216:304,1,135,2|2,0:1|0:0,0:1:0:0:
227,307,172704,5,8,0:0:0:0:
312,216,172892,2,2,B|328:136|288:80,1,135,0|8,0:1|0:0,0:1:0:0:
292,86,173267,1,0,0:0:0:0:
200,48,173454,1,10,0:1:0:0:
216,144,173642,1,0,0:0:0:0:
408,128,173829,6,0,L|424:24,1,90,4|0,0:0|0:0,0:0:0:0:
392,248,174204,2,0,L|376:360,1,90,8|0,0:0|0:0,0:0:0:0:
328,184,174579,1,2,0:0:0:0:
472,200,174767,1,0,0:0:0:0:
304,280,174954,1,8,0:0:0:0:
248,104,175142,1,0,0:0:0:0:
192,192,175329,5,10,0:0:0:0:
192,192,175423,1,8,0:0:0:0:
192,192,175517,1,8,0:0:0:0:
352,176,175704,1,8,0:0:0:0:
352,176,175798,1,8,0:0:0:0:
352,176,175892,1,8,0:0:0:0:
216,296,176079,5,2,0:0:0:0:
184,314,176173,1,8,0:0:0:0:
147,315,176267,1,8,0:3:0:0:
113,302,176360,1,8,0:3:0:0:
92,272,176454,1,4,0:3:0:0:
113,243,176548,1,4,0:3:0:0:
126,209,176642,1,4,0:3:0:0:
118,174,176735,1,4,0:3:0:0:
98,143,176829,1,4,0:0:0:0:
40,80,188829,6,0,B|112:64|208:72,1,144,4|2,0:0|0:0,0:0:0:0:
224,160,189579,2,0,B|152:176|56:168,1,144,2|2,0:0|0:0,0:0:0:0:
192,256,190329,2,0,B|288:240|360:248,1,144,2|2,0:0|0:0,0:0:0:0:
392,336,191079,2,0,B|296:352|224:344,1,144,2|2,0:0|0:0,0:0:0:0:
72,336,191829,5,2,0:0:0:0:
64,248,192204,1,2,0:0:0:0:
56,160,192579,1,2,0:0:0:0:
48,72,192954,1,2,0:0:0:0:
224,40,193329,1,2,0:0:0:0:
232,128,193704,1,2,0:0:0:0:
240,216,194079,1,2,0:0:0:0:
248,304,194454,1,2,0:0:0:0:
440,328,194829,6,0,B|456:256|440:168,1,144,2|2,0:0|0:0,0:0:0:0:
424,104,195392,1,0,0:0:0:0:
352,64,195579,2,0,B|336:136|360:224,1,144,2|2,0:0|0:0,0:0:0:0:
280,264,196142,2,0,B|272:224|272:176,1,72,0|2,0:0|0:0,0:0:0:0:
200,144,196517,2,0,B|192:184|192:224,1,72,0|2,0:0|0:0,0:0:0:0:
120,280,196892,2,0,B|104:168|120:56,1,216,0|2,0:0|0:0,0:0:0:0:
392,72,197829,6,0,B|448:80|488:80,1,72,2|0,0:0|0:0,0:0:0:0:
368,160,198204,2,0,B|333:153|272:152,1,72,2|0,0:0|0:0,0:0:0:0:
368,256,198579,2,0,B|416:264|456:256,1,72,2|0,0:0|0:0,0:0:0:0:
320,344,198954,2,0,B|280:336|232:344,1,72,2|0,0:0|0:0,0:0:0:0:
88,360,199329,2,0,L|64:272,1,72,2|0,0:0|0:0,0:0:0:0:
128,208,199704,2,0,L|152:288,1,72,2|0,0:0|0:0,0:0:0:0:
32,216,200079,2,0,L|48:136,1,72,2|0,0:0|0:0,0:0:0:0:
200,80,200454,2,0,L|184:184,1,72,2|0,0:0|0:0,0:0:0:0:
280,272,200829,5,8,3:2:0:0:
352,192,201017,1,8,0:0:0:0:
336,336,201204,5,8,0:0:0:0:
280,128,201392,1,8,0:0:0:0:
400,272,201579,5,8,0:0:0:0:
200,224,201767,1,8,0:0:0:0:
424,184,201954,5,8,0:0:0:0:
248,328,202142,1,8,0:0:0:0:
312,240,202329,5,8,0:0:0:0:
315,218,202423,1,8,0:0:0:0:
318,196,202517,1,8,0:0:0:0:
321,174,202610,1,8,0:0:0:0:
324,152,202704,1,8,0:0:0:0:
327,130,202798,1,8,0:0:0:0:
330,108,202892,1,8,0:0:0:0:
80,88,203267,5,2,0:0:0:0:
80,88,203454,2,0,L|104:240,1,135,2|0,0:0|0:0,0:0:0:0:
101,221,203829,1,4,0:0:0:0:
264,328,204017,1,0,0:0:0:0:
184,184,204204,1,8,0:0:0:0:
192,288,204392,1,0,0:0:0:0:
296,224,204579,2,0,B|368:152|480:200,1,180,2|8,0:0|0:0,0:0:0:0:
424,272,205142,6,0,L|400:368,1,90,2|2,0:1|0:0,0:0:0:0:
376,112,205517,2,0,L|408:16,1,90,2|8,0:1|0:0,0:0:0:0:
248,144,205892,2,2,B|176:160|96:152,1,135,2|8,0:1|0:0,0:1:0:0:
72,144,206267,1,0,0:0:0:0:
200,56,206454,2,0,B|248:48|296:48,1,90,8|0,0:0|0:0,0:0:0:0:
304,264,206829,6,0,B|224:296|112:272,1,180,2|8,0:0|0:0,0:0:0:0:
126,274,207392,1,0,0:0:0:0:
288,168,207579,2,0,B|344:168|384:184,2,90,2|0|8,0:0|0:0|0:0,0:0:0:0:
240,88,208142,6,0,L|152:104,1,90,2|2,0:1|0:0,0:0:0:0:
128,112,208423,1,0,0:0:0:0:
104,120,208517,2,0,B|48:120|0:112,1,90,2|8,0:1|0:0,0:0:0:0:
184,248,208892,2,0,B|240:248|296:256,1,90,2|2,0:1|0:0,0:0:0:0:
368,280,209267,5,2,0:3:0:0:
472,200,209454,1,8,0:0:0:0:
416,88,209642,1,2,3:0:0:0:
416,88,209735,1,0,3:0:0:0:
416,88,209829,1,2,3:2:0:0:
368,280,210017,5,2,0:3:0:0:
304,176,210204,1,8,0:0:0:0:
176,192,210392,1,2,3:0:0:0:
176,192,210485,1,0,3:0:0:0:
176,192,210579,1,2,3:2:0:0:
368,280,210767,5,2,0:3:0:0:
248,312,210954,1,8,0:0:0:0:
128,344,211142,1,2,3:0:0:0:
92,346,211235,1,0,3:0:0:0:
61,326,211329,1,2,3:2:0:0:
48,292,211423,1,8,3:2:0:0:
54,256,211517,1,2,3:0:0:0:
128,184,211704,5,8,0:0:0:0:
168,96,211892,1,2,0:3:0:0:
104,32,212079,1,2,0:0:0:0:
16,56,212267,1,2,0:3:0:0:
224,192,212454,2,0,B|280:200|320:160,1,90,8|2,0:0|0:3,0:0:0:0:
432,40,212829,5,2,0:0:0:0:
288,88,213017,1,0,0:0:0:0:
408,224,213204,1,8,0:0:0:0:
376,104,213392,1,0,0:0:0:0:
288,208,213579,1,0,0:0:0:0:
288,208,213673,1,8,0:0:0:0:
288,208,213767,2,0,B|224:216|192:208,1,90,0|8,0:3|0:0,0:0:0:0:
64,176,214142,5,0,0:0:0:0:
64,176,214235,1,8,0:0:0:0:
64,176,214329,1,2,0:0:0:0:
136,120,214517,2,0,L|120:32,1,90,2|8,0:3|0:0,0:0:0:0:
248,280,214892,2,0,L|224:376,1,90,2|2,0:3|0:0,0:0:0:0:
226,367,215173,1,8,0:0:0:0:
226,367,215267,1,0,0:0:0:0:
424,304,215454,5,8,0:0:0:0:
413,289,215548,1,8,0:0:0:0:
402,274,215642,1,8,0:0:0:0:
391,259,215735,1,8,0:0:0:0:
380,244,215829,2,0,L|395:126,1,90,4|0,0:0|0:0,0:0:0:0:
240,120,216204,2,0,L|224:232,1,90,8|0,0:0|0:0,0:0:0:0:
296,272,216579,2,0,L|326:53,1,180,2|8,0:0|0:0,0:0:0:0:
104,176,217142,6,0,B|80:232|128:280,1,90,2|2,0:1|0:0,0:0:0:0:
240,120,217517,2,0,B|264:64|216:16,1,90,2|8,0:1|0:0,0:0:0:0:
16,88,217892,2,2,B|88:104|152:72,1,135,2|8,0:1|0:0,0:1:0:0:
160,64,218267,1,0,0:0:0:0:
392,56,218454,2,0,B|336:64|296:80,1,90,8|0,0:0|0:0,0:0:0:0:
168,224,218829,5,2,0:0:0:0:
288,240,219017,1,0,0:0:0:0:
216,296,219204,1,8,0:0:0:0:
240,168,219392,1,0,0:0:0:0:
96,248,219579,2,0,B|48:256|-8:248,1,90,2|0,0:0|0:0,0:0:0:0:
296,336,219954,5,8,0:0:0:0:
352,272,220142,2,2,B|408:272|488:264,1,135,2|8,0:1|0:0,0:1:0:0:
504,256,220517,1,2,0:1:0:0:
400,192,220704,1,8,0:0:0:0:
496,112,220892,1,2,0:1:0:0:
504,256,221079,1,2,0:0:0:0:
352,72,221267,5,2,0:3:0:0:
224,144,221454,1,8,0:0:0:0:
160,72,221642,2,0,L|88:48,2,45,2|0|2,3:0|3:0|3:2,3:2:0:0:
264,48,222017,5,2,0:3:0:0:
336,176,222204,1,8,0:0:0:0:
272,256,222392,2,0,L|288:312,2,45,2|0|2,3:0|3:2|3:2,0:2:0:0:
240,168,222767,5,2,0:3:0:0:
112,232,222954,1,8,0:0:0:0:
24,152,223142,2,0,L|16:88,2,45,2|0|2,3:0|3:0|3:2,3:0:0:0:
136,136,223517,5,2,0:3:0:0:
152,352,223704,1,8,0:0:0:0:
56,320,223892,2,0,L|64:376,2,45,2|0|2,3:0|3:0|3:2,3:2:0:0:
64,304,224173,1,8,3:2:0:0:
72,288,224267,1,2,3:0:0:0:
80,272,224360,1,0,0:0:0:0:
88,256,224454,2,0,B|80:216|80:144,1,90,8|0,0:0|0:0,0:0:0:0:
168,104,224829,5,2,0:0:0:0:
344,80,225017,1,0,0:0:0:0:
368,256,225204,1,8,0:0:0:0:
192,280,225392,1,0,0:0:0:0:
264,176,225579,5,2,0:0:0:0:
264,176,225673,1,8,0:0:0:0:
264,176,225767,2,0,B|256:128|256:72,1,90,0|2,0:0|0:0,0:0:0:0:
440,184,226142,1,8,0:0:0:0:
440,184,226235,1,8,0:0:0:0:
440,184,226329,2,0,B|448:232|448:280,1,90,8|4,0:0|0:3,0:0:0:0:
384,344,226704,5,8,0:0:0:0:
368,352,226798,1,8,0:0:0:0:
296,288,226985,1,8,0:0:0:0:
280,280,227079,1,8,0:0:0:0:
192,336,227267,1,8,0:0:0:0:
104,352,227454,5,8,0:0:0:0:
74,331,227548,1,8,0:0:0:0:
61,297,227642,1,8,0:0:0:0:
63,261,227735,1,8,0:0:0:0:
82,230,227829,2,0,B|96:184|96:120,1,90,4|0,0:0|3:0,0:0:0:0:
72,56,228204,1,8,0:0:0:0:
168,104,228392,1,0,3:0:0:0:
304,48,228579,2,0,B|256:32|208:40,1,90,2|0,0:0|3:0,0:0:0:0:
200,232,228954,2,0,B|248:248|296:240,1,90,8|0,0:0|3:0,0:0:0:0:
352,176,229329,5,2,0:0:0:0:
336,312,229517,1,0,3:0:0:0:
464,264,229704,1,8,0:0:0:0:
336,312,229892,1,0,3:0:0:0:
440,168,230079,2,0,B|448:96|432:48,1,90,2|0,0:0|3:0,0:0:0:0:
240,40,230454,2,0,B|232:112|248:160,1,90,8|0,0:0|3:0,0:0:0:0:
288,272,230829,6,0,B|224:352|120:296,1,180,2|8,0:0|0:0,0:0:0:0:
80,216,231392,1,0,3:0:0:0:
160,80,231579,1,2,0:0:0:0:
160,80,231673,1,8,0:0:0:0:
160,80,231767,1,0,3:0:0:0:
264,136,231954,2,0,L|256:240,1,90,8|0,0:0|3:0,0:0:0:0:
48,136,232329,6,0,B|32:80|64:32,1,90,2|0,0:0|3:0,0:0:0:0:
264,136,232704,2,0,B|320:144|360:152,1,90,8|0,0:0|3:0,0:0:0:0:
152,336,233079,2,0,B|120:296|136:240,1,90,2|0,0:0|3:0,0:0:0:0:
336,288,233454,2,0,B|392:296|432:312,1,90,8|0,0:0|3:0,0:0:0:0:
456,48,233829,6,0,B|360:80|280:64,1,135,4|0,0:0|0:0,0:0:0:0:
304,64,234204,1,8,0:0:0:0:
216,24,234392,1,0,3:0:0:0:
120,48,234579,2,0,L|224:64,1,90,2|0,0:0|3:0,0:0:0:0:
208,216,234954,2,0,L|104:232,1,90,8|0,0:0|3:0,0:0:0:0:
48,152,235329,6,0,B|104:128|168:144,1,90,2|0,0:0|3:0,0:0:0:0:
168,312,235704,2,0,B|112:336|48:320,1,90,8|0,0:0|3:0,0:0:0:0:
280,248,236079,2,0,B|400:208|448:328,1,180,2|8,0:0|0:0,0:0:0:0:
352,336,236642,1,0,3:0:0:0:
296,136,236829,6,0,L|112:160,1,180,2|8,0:0|0:0,0:0:0:0:
40,208,237392,1,0,3:0:0:0:
112,256,237579,1,2,0:0:0:0:
112,256,237673,1,8,0:0:0:0:
112,256,237767,1,0,3:0:0:0:
168,64,237954,1,8,0:0:0:0:
32,96,238142,6,0,L|136:120,1,90,0|2,3:0|0:0,0:0:0:0:
320,136,238517,2,0,B|264:128|208:136,1,90,0|8,3:0|0:0,0:0:0:0:
272,216,238892,1,0,3:0:0:0:
376,216,239079,1,2,0:0:0:0:
376,216,239173,2,0,B|440:192|488:208,1,90,8|8,0:0|0:0,0:0:0:0:
480,208,239454,1,8,0:0:0:0:
328,296,239642,1,8,0:0:0:0:
232,312,239829,6,0,B|224:216,1,90,4|2,0:0|3:1,0:0:0:0:
256,144,240204,1,8,0:0:0:0:
72,184,240392,2,0,B|80:288,1,90,2|2,3:1|0:0,0:0:0:0:
120,344,240767,1,0,3:0:0:0:
336,208,240954,6,0,B|352:160|328:112,1,90,10|2,0:1|3:1,0:0:0:0:
288,48,241329,1,2,0:0:0:0:
200,272,241517,2,0,B|176:224|200:168,1,90,2|10,3:1|0:1,0:0:0:0:
208,104,241892,1,0,3:1:0:0:
312,304,242079,2,0,B|368:296|432:296,1,90,2|2,0:0|3:1,0:0:0:0:
480,160,242454,2,0,B|432:160|384:152,1,90,10|0,0:1|3:0,0:0:0:0:
316,94,242829,6,2,B|252:62|188:94|172:174,1,180,2|8,0:0|0:0,0:1:0:0:
272,288,243392,1,0,3:0:0:0:
168,344,243579,1,2,0:0:0:0:
168,344,243673,1,8,0:0:0:0:
168,344,243767,2,0,B|160:296|160:240,1,90,0|8,3:0|0:0,0:0:0:0:
176,160,244142,1,0,3:0:0:0:
80,56,244329,6,0,B|16:88|24:184|96:208,1,180,2|8,0:0|0:0,0:0:0:0:
176,72,244892,1,0,3:0:0:0:
264,48,245079,1,2,0:0:0:0:
264,48,245173,1,8,3:2:0:0:
264,48,245267,2,0,B|320:64|376:56,1,90,2|10,3:1|0:1,0:0:0:0:
448,144,245642,1,2,3:3:0:0:
368,192,245829,6,2,B|368:280|376:376,1,180,2|8,0:0|0:0,0:1:0:0:
296,312,246392,1,0,3:0:0:0:
296,312,246579,2,0,B|240:312|192:320,1,90,2|0,0:0|3:0,0:0:0:0:
128,344,246954,1,8,0:0:0:0:
64,232,247142,6,0,B|48:184|72:136,1,90,2|2,3:1|0:0,0:0:0:0:
224,96,247517,2,0,B|240:144|216:192,1,90,0|10,3:0|0:1,0:0:0:0:
160,256,247892,1,0,3:0:0:0:
272,320,248079,1,2,0:0:0:0:
376,224,248267,2,0,L|392:168,2,45,2|0|8,3:1|0:0|0:0,0:0:0:0:
384,328,248642,1,0,3:0:0:0:
488,272,248829,5,2,0:0:0:0:
488,272,248923,1,8,0:0:0:0:
488,272,249017,2,0,B|480:200|472:160,1,90,8|8,0:0|0:0,0:0:0:0:
448,48,249392,1,12,0:0:0:0:
376,112,249579,5,2,0:0:0:0:
352,125,249673,1,8,0:3:0:0:
325,130,249767,1,0,0:0:0:0:
298,126,249860,1,0,0:0:0:0:
274,112,249954,1,2,0:0:0:0:
256,91,250048,1,0,0:0:0:0:
232,77,250142,1,0,0:0:0:0:
205,71,250235,1,8,0:0:0:0:
178,75,250329,1,8,0:0:0:0:
157,92,250423,1,0,0:0:0:0:
149,117,250517,1,8,0:0:0:0:
159,141,250610,1,8,0:0:0:0:
177,161,250704,1,2,0:0:0:0:
201,171,250798,1,8,0:0:0:0:
222,186,250892,1,8,0:0:0:0:
230,211,250985,1,0,0:0:0:0:
225,237,251079,5,8,0:0:0:0:
204,255,251173,1,8,0:0:0:0:
177,260,251267,1,8,0:3:0:0:
152,249,251360,1,0,0:0:0:0:
129,234,251454,1,2,0:2:0:0:
102,227,251548,1,4,0:3:0:0:
75,231,251642,1,4,0:3:0:0:
52,244,251735,1,4,0:3:0:0:
40,268,251829,1,4,0:0:0:0:
256,192,251923,12,0,258579,0:0:0:0:
