osu file format v14

[General]
AudioFilename: audio.mp3
AudioLeadIn: 0
PreviewTime: 203173
Countdown: 0
SampleSet: Soft
StackLeniency: 0.7
Mode: 0
LetterboxInBreaks: 0
WidescreenStoryboard: 1

[Editor]
DistanceSpacing: 1.4
BeatDivisor: 4
GridSize: 4
TimelineZoom: 1.3

[Metadata]
Title:Sanagi
TitleUnicode:さなぎ
Artist:Maaya Sakamoto
ArtistUnicode:坂本真綾
Creator:Yohanes
Version:Hard
Source:
Tags:FOLLOW ME UP 北川勝利 Katsutoshi Kitagawa Flying Dog Pupa Chrysalis Delis avmidfvurtrtdrk Frostmourne FrostxE GhostFY yaldo_27
BeatmapID:1299085
BeatmapSetID:615921

[Difficulty]
HPDrainRate:5
CircleSize:3.8
OverallDifficulty:6
ApproachRate:7.5
SliderMultiplier:1.4
SliderTickRate:1

[Events]
//Background and Video events
0,0,"BG.jpg",0,0
//Break Periods
2,177029,188004
//Storyboard Layer 0 (Background)
//Storyboard Layer 1 (Fail)
//Storyboard Layer 2 (Pass)
//Storyboard Layer 3 (Foreground)
//Storyboard Sound Samples

[TimingPoints]
1329.62892752399,375,4,2,1,60,1,0
13892,-100,4,2,2,60,0,0
14454,-100,4,2,1,60,0,0
15017,-100,4,2,2,60,0,0
15579,-100,4,2,1,60,0,0
15954,-100,4,2,2,60,0,0
16704,-100,4,2,1,60,0,0
16892,-100,4,2,2,60,0,0
17829,-100,4,2,1,60,0,0
18017,-100,4,2,2,60,0,0
18767,-100,4,2,1,60,0,0
25892,-100,4,2,2,60,0,0
26454,-100,4,2,1,60,0,0
27017,-100,4,2,2,60,0,0
27579,-100,4,2,1,60,0,0
27954,-100,4,2,2,60,0,0
28704,-100,4,2,1,60,0,0
28892,-100,4,2,2,60,0,0
29829,-100,4,2,1,60,0,0
30017,-100,4,2,2,60,0,0
30204,-100,4,2,1,60,0,0
49329,-100,4,2,1,40,0,0
49704,-100,4,2,1,50,0,0
50079,-100,4,2,1,60,0,0
50454,-100,4,2,1,70,0,0
51579,-100,4,2,1,60,0,0
52329,-100,4,2,1,70,0,1
76329,-100,4,2,1,60,0,0
88892,-100,4,2,2,60,0,0
89454,-100,4,2,1,60,0,0
90017,-100,4,2,2,60,0,0
90579,-100,4,2,1,60,0,0
90954,-100,4,2,2,60,0,0
91704,-100,4,2,1,60,0,0
91892,-100,4,2,2,60,0,0
92829,-100,4,2,1,60,0,0
93017,-100,4,2,2,60,0,0
93579,-100,4,2,2,60,0,0
93767,-100,4,2,1,60,0,0
100892,-100,4,2,2,60,0,0
101454,-100,4,2,1,60,0,0
102017,-100,4,2,2,60,0,0
102579,-100,4,2,1,60,0,0
102954,-100,4,2,2,60,0,0
103704,-100,4,2,1,60,0,0
103892,-100,4,2,2,60,0,0
104829,-100,4,2,1,60,0,0
124329,-100,4,2,1,40,0,0
124704,-100,4,2,1,50,0,0
125079,-100,4,2,1,60,0,0
125454,-100,4,2,1,70,0,0
126579,-100,4,2,1,60,0,0
127329,-100,4,2,1,70,0,1
151329,-100,4,2,1,60,0,0
188829,-100,4,2,1,40,0,0
199329,-100,4,2,1,50,0,0
200829,-100,4,2,1,60,0,0
201392,-100,4,2,1,65,0,0
201954,-100,4,2,1,70,0,0
202704,-100,4,2,1,80,0,0
203267,-100,4,2,2,60,0,0
203829,-100,4,2,1,70,0,1
227829,-100,4,2,1,60,0,0
254829,-100,4,2,1,55,0,0
255579,-100,4,2,1,45,0,0
256329,-100,4,2,1,35,0,0
257079,-100,4,2,1,25,0,0
257829,-100,4,2,1,15,0,0
258579,-100,4,2,1,5,0,0

[Colours]
Combo1 : 255,94,55
Combo2 : 173,255,95
Combo3 : 17,254,176
Combo4 : 255,88,100

[HitObjects]
310,1,579,6,0,L|317:71,1,70,8|0,0:0|0:0,0:0:0:0:
392,120,954,2,0,L|399:190,1,70,8|0,0:0|0:0,0:0:0:0:
304,160,1329,6,0,L|216:152,1,70,4|0,0:0|0:0,0:0:0:0:
136,144,1704,1,8,0:0:0:0:
136,144,1892,1,0,0:0:0:0:
176,228,2079,2,0,P|180:272|168:320,1,70,2|0,0:0|0:0,0:0:0:0:
62,267,2454,2,0,P|58:223|70:175,2,70,8|0|2,0:0|0:0|0:0,0:0:0:0:
108,356,3017,5,0,0:0:0:0:
108,356,3204,2,0,P|168:344|256:356,1,140,8|2,0:0|0:0,0:0:0:0:
265,367,3673,2,0,P|329:375|381:355,1,105,8|8,0:0|0:0,0:0:0:0:
448,136,4329,6,0,L|476:304,1,140,4|8,0:0|0:0,0:0:0:0:
380,216,4892,2,0,L|368:160,2,35,0|0|2,0:0|0:0|0:0,0:0:0:0:
401,308,5267,1,0,0:0:0:0:
308,264,5454,2,0,P|252:280|160:256,1,140,8|2,0:0|0:0,0:0:0:0:
60,80,6204,6,0,P|116:96|208:72,1,140,8|2,0:0|0:0,0:0:0:0:
212,64,6673,2,0,P|260:52|328:68,1,105,8|8,0:0|0:0,0:0:0:0:
496,220,7329,6,0,P|512:152|488:80,2,140,6|8|2,0:0|0:0|0:0,0:0:0:0:
424,280,8267,1,0,0:0:0:0:
348,224,8454,2,0,P|268:220|220:252,1,140,8|2,0:0|0:0,0:0:0:0:
204,272,8922,6,0,L|220:376,1,105,8|8,0:0|0:0,0:0:0:0:
308,332,9391,1,0,0:0:0:0:
308,332,9579,2,0,L|384:340,1,70,2|0,0:0|0:0,0:0:0:0:
408,250,9954,2,0,P|381:228|347:223,1,70,8|0,0:0|0:0,0:0:0:0:
240,240,10329,6,0,P|168:240|108:192,1,140,2|8,0:0|0:0,0:0:0:0:
144,108,10892,1,0,0:0:0:0:
236,136,11079,2,0,P|316:116|392:124,1,140,2|8,0:0|0:0,0:0:0:0:
440,48,11642,2,0,L|424:8,2,35,8|8|2,0:0|0:0|0:0,0:0:0:0:
476,140,12017,5,8,0:0:0:0:
476,140,12204,2,0,L|464:232,1,70,8|0,0:0|0:0,0:0:0:0:
452,300,12579,1,8,0:0:0:0:
381,242,12767,2,0,L|333:242,2,35,8|8|2,0:0|0:0|0:0,0:0:0:0:
452,300,13142,1,8,0:0:0:0:
372,344,13329,6,0,P|304:332|224:340,1,140,6|0,0:0|0:0,0:0:0:0:
152,360,13892,2,0,P|88:352|32:280,1,140,2|0,0:0|0:0,0:0:0:0:
32,216,14454,2,0,L|64:60,1,140,2|0,0:0|0:0,0:0:0:0:
136,40,15017,6,0,L|164:177,1,140,2|0,0:0|0:0,0:0:0:0:
240,132,15579,2,0,P|300:120|392:140,2,140,2|2|2,0:0|0:0|0:0,0:0:0:0:
128,276,16704,5,0,0:0:0:0:
196,324,16892,2,0,P|252:308|344:308,1,140,2|0,0:0|0:0,0:0:0:0:
412,336,17454,2,0,P|440:300|448:200,1,140,2|0,0:0|0:0,0:0:0:0:
396,140,18017,6,0,P|332:128|236:128,1,140,2|0,0:0|0:0,0:0:0:0:
184,172,18579,1,2,0:0:0:0:
104,132,18767,2,0,L|48:140,2,35,8|8|8,0:0|0:3|0:3,0:0:0:0:
110,222,19142,1,2,0:0:0:0:
184,172,19329,6,0,P|235:166|272:180,1,70,4|0,0:0|0:0,0:0:0:0:
312,239,19704,1,8,0:0:0:0:
392,191,19892,1,0,0:0:0:0:
392,191,19985,1,0,0:0:0:0:
392,191,20079,2,0,P|405:227|392:281,1,70,2|0,0:0|0:0,0:0:0:0:
340,327,20454,1,8,0:0:0:0:
340,327,20642,6,0,B|264:339|284:307|202:321,1,140,0|0,0:0|0:0,0:0:0:0:
120,363,21204,2,0,P|100:311|108:211,2,140,8|2|8,0:0|0:0|0:0,0:0:0:0:
201,321,22142,2,0,L|216:219,1,70,0|2,0:0|0:0,0:0:0:0:
224,159,22517,5,0,0:0:0:0:
307,122,22704,2,0,P|314:155|309:190,1,70,8|0,0:0|0:0,0:0:0:0:
400,135,23079,2,0,P|378:69|322:31,1,140,2|8,0:0|0:0,0:0:0:0:
236,63,23642,6,0,P|167:73|79:61,1,140,0|0,0:0|0:0,0:0:0:0:
32,134,24204,1,8,0:0:0:0:
32,134,24392,2,0,L|47:210,1,70,0|2,0:0|0:0,0:0:0:0:
128,154,24767,1,4,0:0:0:0:
172,234,24954,2,0,L|172:282,2,35,8|8|8,0:0|0:0|0:3,0:0:0:0:
231,150,25329,5,4,0:0:0:0:
436,360,25892,1,2,0:0:0:0:
307,122,26454,1,2,0:0:0:0:
512,329,27017,1,2,0:0:0:0:
383,88,27579,2,0,P|419:78|467:90,1,70,2|0,0:0|0:0,0:0:0:0:
491,164,27954,2,0,P|458:174|423:169,1,70,2|0,0:0|0:0,0:0:0:0:
332,165,28329,6,0,P|323:234|347:318,1,140,2|0,0:0|0:0,0:0:0:0:
251,326,28892,2,0,L|203:178,1,140,2|0,0:0|0:0,0:0:0:0:
171,104,29454,2,0,P|121:152|126:241,1,140,2|0,0:0|0:0,0:0:0:0:
207,192,30017,6,0,P|257:240|252:329,1,140,2|8,0:0|0:3,0:0:0:0:
180,360,30579,1,2,0:0:0:0:
104,304,30767,1,8,0:3:0:0:
24,356,30954,1,12,0:0:0:0:
24,356,31329,6,0,P|8:296|20:260,1,70,4|0,0:0|0:0,0:0:0:0:
69,211,31704,1,8,0:0:0:0:
53,115,31892,2,0,L|41:63,2,35,0|0|2,0:0|0:0|0:0,0:0:0:0:
280,32,32454,1,8,0:0:0:0:
280,32,32642,6,0,P|296:104|276:176,1,140,0|0,0:0|0:0,0:0:0:0:
203,215,33204,2,0,P|159:199|59:215,2,140,8|2|8,0:0|0:0|0:0,0:0:0:0:
256,288,34142,1,0,0:0:0:0:
256,288,34329,6,0,L|336:276,1,70,2|0,0:0|0:0,0:0:0:0:
409,236,34704,2,0,P|418:276|409:322,1,70,8|0,0:0|0:0,0:0:0:0:
502,330,35079,2,0,P|509:271|485:190,1,140,2|8,0:0|0:0,0:0:0:0:
428,120,35642,6,0,P|361:99|292:105,1,140,0|0,0:0|0:0,0:0:0:0:
206,146,36204,2,0,P|195:107|211:57,1,70,8|0,0:0|0:0,0:0:0:0:
292,104,36579,2,0,P|303:143|287:193,1,70,2|8,0:0|0:3,0:0:0:0:
230,240,36954,1,8,0:0:0:0:
230,240,37048,1,8,0:0:0:0:
230,240,37142,1,8,0:3:0:0:
304,304,37329,6,0,P|352:292|452:304,1,140,6|8,0:0|0:0,0:0:0:0:
512,240,37892,2,0,P|524:178|500:92,1,140,0|0,0:0|0:0,0:0:0:0:
436,44,38454,2,0,L|356:60,1,70,8|0,0:0|0:0,0:0:0:0:
301,132,38829,6,0,P|269:68|286:2,1,140,2|8,0:0|0:0,0:0:0:0:
367,57,39392,2,0,P|398:120|381:186,1,140,0|0,0:0|0:0,0:0:0:0:
297,228,39954,2,0,P|257:220|221:228,1,70,8|0,0:0|0:0,0:0:0:0:
144,264,40329,6,0,P|72:256|8:196,1,140,2|8,0:0|0:0,0:0:0:0:
29,123,40892,2,0,P|97:130|153:172,1,140,0|0,0:0|0:0,0:0:0:0:
144,264,41454,6,0,P|207:317|267:311,2,140,8|2|8,0:0|0:0|0:0,0:0:0:0:
254,19,42579,2,0,P|269:57|265:102,1,70,2|0,0:0|0:0,0:0:0:0:
362,83,42954,2,0,P|351:123|323:156,1,70,8|0,0:0|0:0,0:0:0:0:
244,168,43329,6,0,B|176:184|180:152|104:168,1,140,2|8,0:0|0:0,0:0:0:0:
85,259,43892,2,0,B|153:243|150:274|224:260,1,140
316,251,44454,2,0,P|324:295|316:327,1,70,8|0,0:0|0:0,0:0:0:0:
242,370,44829,6,0,B|310:342|390:370,1,140,2|8,0:0|0:0,0:0:0:0:
460,324,45392,2,0,P|472:260|452:172,1,140,0|0,0:0|0:0,0:0:0:0:
392,122,45954,2,0,P|419:102|474:100,1,70,8|0,0:0|0:0,0:0:0:0:
371,210,46329,6,0,P|291:223|231:206,1,140,2|8,0:0|0:0,0:0:0:0:
138,143,46892,2,0,L|164:297,1,140
235,207,47454,6,0,L|209:53,2,140,8|2|8,0:0|0:0|0:0,0:0:0:0:
308,360,48579,1,2,0:0:0:0:
308,360,48767,1,0,0:0:0:0:
204,360,48954,1,12,0:0:0:0:
212,69,49329,6,0,P|207:104|212:139,1,70,8|8,0:0|0:0,0:0:0:0:
377,139,49704,2,0,P|342:134|307:139,1,70,8|8,0:0|0:0,0:0:0:0:
307,304,50079,2,0,P|312:269|307:234,1,70,8|8,0:0|0:0,0:0:0:0:
142,234,50454,2,0,P|177:239|212:234,1,70,8|8,0:0|0:0,0:0:0:0:
307,139,50829,5,10,0:0:0:0:
307,139,50923,1,8,0:0:0:0:
307,139,51017,2,0,P|311:95|295:43,1,70,8|12,0:0|0:0,0:0:0:0:
19,154,51579,2,0,P|71:137|135:149,1,105,8|8,0:3|0:0,0:0:0:0:
131,166,51954,2,0,L|144:241,1,70,8|2,0:3|0:0,0:0:0:0:
52,304,52329,6,0,L|40:235,1,70,6|0,0:0|0:0,0:0:0:0:
136,320,52704,2,0,P|180:328|216:312,1,70,8|0,0:0|0:0,0:0:0:0:
276,264,53079,2,0,P|345:258|412:278,1,140,2|8,0:0|0:0,0:0:0:0:
488,228,53642,6,0,P|507:281|484:368,2,140,2|2|2,0:1|0:1|0:1,0:0:0:0:
428,156,54579,2,0,L|420:112,2,35,2|8|0,0:0|0:0|0:0,0:0:0:0:
356,216,54954,2,0,P|298:225|212:192,1,140,8|2,0:0|0:0,0:0:0:0:
32,36,55704,6,0,L|40:120,1,70,8|0,0:0|0:0,0:0:0:0:
128,160,56079,2,0,L|114:20,1,140,2|8,0:0|0:0,0:0:0:0:
204,60,56642,6,0,P|277:68|348:28,2,140,2|2|2,0:1|0:1|0:1,0:0:0:0:
114,20,57579,2,0,L|46:16,2,35,2|8|0,0:0|0:0|0:0,0:0:0:0:
125,118,57954,2,0,L|136:216,2,70,8|0|2,0:0|0:0|0:0,0:0:0:0:
204,60,58516,5,0,0:0:0:0:
220,156,58704,2,0,L|231:254,2,70,8|0|2,0:0|0:0|0:0,0:0:0:0:
299,98,59266,1,0,0:0:0:0:
316,192,59454,2,0,L|327:290,2,70,8|0|2,0:0|0:0|0:0,0:0:0:0:
394,136,60016,5,0,0:0:0:0:
477,186,60204,2,0,P|488:159|485:109,1,70,8|0,0:0|0:0,0:0:0:0:
444,31,60579,2,0,L|416:-9,2,35,2|8|0,0:0|0:0|0:0,0:0:0:0:
394,136,60954,2,0,P|324:148|248:112,1,140,8|2,0:0|0:0,0:0:0:0:
196,60,61516,5,0,0:0:0:0:
196,60,61704,2,0,L|124:76,1,70,8|0,0:0|0:0,0:0:0:0:
72,168,62079,2,0,P|83:235|128:296,1,140,2|8,0:0|0:0,0:0:0:0:
200,340,62641,6,0,L|60:339,1,140
8,260,63204,2,0,P|-4:232|4:167,1,70,8|0,0:0|0:0,0:0:0:0:
12,100,63579,2,0,L|20:52,2,35,2|8|0,0:0|0:0|0:0,0:0:0:0:
96,151,63954,1,8,0:0:0:0:
176,96,64141,1,8,0:0:0:0:
176,96,64235,1,8,0:0:0:0:
176,96,64329,6,0,L|324:88,1,140,4|8,0:0|0:0,0:0:0:0:
422,160,64891,1,0,0:0:0:0:
422,160,65079,2,0,P|355:144|316:89,1,140,2|8,0:0|0:0,0:0:0:0:
409,62,65641,6,0,P|445:60|479:71,1,70,2|2,0:1|0:0,0:0:0:0:
512,156,66016,2,0,P|514:191|503:225,1,70,2|8,0:1|0:0,0:0:0:0:
432,284,66391,1,2,0:1:0:0:
352,236,66579,2,0,L|304:204,2,35,2|8|0,0:0|0:0|0:0,0:0:0:0:
432,284,66954,2,0,P|384:324|297:313,1,140,8|2,0:0|0:0,0:0:0:0:
72,244,67704,6,0,P|67:278|76:312,1,70,8|0,0:0|0:0,0:0:0:0:
159,272,68079,2,0,P|168:204|128:128,1,140,2|8,0:0|0:0,0:0:0:0:
55,102,68641,6,0,P|87:63|195:65,2,140,2|2|2,0:1|0:1|0:1,0:0:0:0:
20,188,69579,2,0,L|10:221,2,35,2|8|0,0:0|0:0|0:0,0:0:0:0:
100,248,69954,2,0,P|144:254|176:244,2,70,8|0|2,0:0|0:0|0:0,0:0:0:0:
134,158,70516,5,0,0:0:0:0:
220,112,70704,2,0,P|256:104|296:112,2,70,8|0|2,0:0|0:0|0:0,0:0:0:0:
134,158,71266,1,0,0:0:0:0:
55,102,71454,2,0,P|45:63|59:22,2,70,8|0|2,0:0|0:0|0:0,0:0:0:0:
134,158,72016,6,0,L|146:242,1,70,0|8,0:0|0:0,0:0:0:0:
154,318,72391,1,0,0:0:0:0:
240,364,72579,2,0,L|272:380,2,35,2|8|0,0:0|0:0|0:0,0:0:0:0:
237,267,72954,2,0,P|276:259|318:267,1,70,8|0,0:0|0:0,0:0:0:0:
394,300,73329,6,0,P|408:258|392:204,1,70,2|0,0:0|0:0,0:0:0:0:
372,144,73704,1,8,0:0:0:0:
268,186,73891,1,0,0:0:0:0:
268,186,74079,2,0,L|108:178,1,140,2|8,0:0|0:0,0:0:0:0:
35,175,74641,1,0,0:0:0:0:
85,97,74829,6,0,L|114:58,2,35,2|8|0,0:0|0:0|0:0,0:0:0:0:
35,175,75204,1,8,0:0:0:0:
81,266,75391,1,8,0:0:0:0:
81,266,75485,1,8,0:0:0:0:
81,266,75579,2,0,P|124:275|159:265,1,70,2|8,0:0|0:0,0:0:0:0:
224,212,75954,2,0,P|268:204|332:224,1,105,10|8,0:0|0:0,0:0:0:0:
352,254,76329,6,0,P|400:205|405:137,1,140,6|8,0:0|0:0,0:0:0:0:
368,52,76891,1,0,0:0:0:0:
286,100,77079,2,0,P|272:61|279:18,2,70,2|0|8,0:0|0:0|0:0,0:0:0:0:
368,52,77642,6,0,P|435:44|512:68,1,140
468,148,78204,2,0,L|492:296,1,140,8|2,0:0|0:0,0:0:0:0:
494,316,78672,2,0,L|373:295,1,105,8|8,0:0|0:0,0:0:0:0:
168,360,79329,6,0,P|252:372|328:340,1,140,4|8,0:0|0:0,0:0:0:0:
256,280,79891,1,0,0:0:0:0:
256,280,79985,1,0,0:0:0:0:
256,280,80079,2,0,P|172:268|96:300,1,140,2|8,0:0|0:0,0:0:0:0:
40,332,80641,1,0,0:0:0:0:
40,332,80829,6,0,P|12:272|32:192,1,140,2|8,0:0|0:0,0:0:0:0:
84,128,81391,1,0,0:0:0:0:
36,48,81579,2,0,L|16:12,2,35,2|8|0,0:0|0:0|0:0,0:0:0:0:
84,128,81954,2,0,P|118:135|168:120,1,70,8|0,0:0|0:0,0:0:0:0:
228,64,82329,6,0,P|270:44|367:92,2,140,4|8|2,0:0|0:0|0:0,0:0:0:0:
284,137,83266,1,0,0:0:0:0:
252,224,83454,1,8,0:0:0:0:
252,224,83641,6,0,L|224:304,1,70,0|2,0:0|0:0,0:0:0:0:
320,296,84016,2,0,L|348:216,1,70,0|8,0:0|0:0,0:0:0:0:
380,148,84391,1,0,0:0:0:0:
462,185,84579,2,0,L|500:200,2,35,2|8|0,0:0|0:0|0:0,0:0:0:0:
425,266,84954,2,0,P|420:309|440:360,1,70,8|0,0:0|0:0,0:0:0:0:
342,365,85329,6,0,P|329:297|343:228,2,140,2|8|2,0:0|0:0|0:0,0:0:0:0:
104,309,86454,2,0,P|172:323|240:306,1,140,8|2,0:0|0:0,0:0:0:0:
240,208,87016,5,8,0:0:0:0:
290,124,87204,2,0,L|320:70,2,35,8|8|2,0:0|0:0|0:0,0:0:0:0:
240,208,87579,1,8,0:0:0:0:
156,158,87766,2,0,L|102:128,2,35,8|8|2,0:0|0:0|0:0,0:0:0:0:
240,208,88141,1,8,0:0:0:0:
324,258,88329,6,0,P|400:264|472:232,1,140,2|0,0:0|0:0,0:0:0:0:
512,176,88891,2,0,L|476:20,1,140,2|0,0:0|0:0,0:0:0:0:
400,64,89454,2,0,P|352:48|244:56,1,140,2|0,0:0|0:0,0:0:0:0:
184,80,90016,6,0,P|114:84|47:66,1,140,2|0,0:0|0:0,0:0:0:0:
0,136,90579,2,0,P|-4:200|48:276,2,140,2|2|2,0:0|0:0|0:0,0:0:0:0:
184,80,91704,5,0,0:0:0:0:
248,136,91891,2,0,P|317:140|384:122,1,140,2|0,0:0|0:0,0:0:0:0:
448,60,92454,2,0,L|480:212,1,140,2|0,0:0|0:0,0:0:0:0:
385,196,93016,6,0,L|353:44,1,140,2|0,0:0|0:0,0:0:0:0:
264,52,93579,1,2,0:0:0:0:
339,301,93954,1,8,0:0:0:0:
339,301,94329,6,0,L|245:293,1,70,4|0,0:0|0:0,0:0:0:0:
174,285,94704,1,8,0:0:0:0:
230,208,94891,1,0,0:0:0:0:
230,208,94985,1,0,0:0:0:0:
230,208,95079,2,0,P|237:174|218:128,1,70,2|0,0:0|0:0,0:0:0:0:
140,178,95454,1,8,0:0:0:0:
151,84,95642,6,0,P|210:49|293:72,1,140
352,120,96204,2,0,P|392:124|440:108,1,70,8|0,0:0|0:0,0:0:0:0:
484,48,96579,2,0,L|504:116,1,70,2|0,0:0|0:0,0:0:0:0:
503,213,96954,1,8,0:0:0:0:
437,284,97141,6,0,P|433:324|449:368,2,70,0|2|0,0:0|0:0|0:0,0:0:0:0:
503,213,97704,2,0,P|464:190|432:187,1,70,8|0,0:0|0:0,0:0:0:0:
354,231,98079,2,0,P|270:235|210:211,1,140,2|8,0:0|0:0,0:0:0:0:
172,302,98642,6,0,P|129:253|141:156,1,140
202,120,99204,2,0,P|168:92|122:88,1,70,8|0,0:0|0:0,0:0:0:0:
56,131,99579,2,0,P|47:74|66:28,1,105,8|8,0:3|0:3,0:0:0:0:
85,20,99954,6,0,L|165:12,2,70,8|8|4,0:3|0:3|0:0,0:0:0:0:
0,256,100891,1,2,0:0:0:0:
143,86,101454,1,2,0:0:0:0:
59,322,102017,1,2,0:0:0:0:
202,152,102579,2,0,P|244:144|292:148,1,70,2|0,0:0|0:0,0:0:0:0:
348,91,102954,2,0,P|362:131|354:179,1,70,2|0,0:0|0:0,0:0:0:0:
429,217,103329,6,0,P|448:151|435:83,1,140,2|0,0:0|0:0,0:0:0:0:
348,91,103891,2,0,P|283:71|194:79,1,140,2|0,0:0|0:0,0:0:0:0:
132,112,104454,2,0,P|64:84|40:16,2,140,2|2|2,0:0|0:0|0:0,0:0:0:0:
177,195,105391,6,0,L|201:241,2,35,8|8|2,0:3|0:3|0:0,0:0:0:0:
132,112,105766,1,2,0:0:0:0:
68,216,105954,1,12,0:0:0:0:
68,216,106329,6,0,L|-11:202,1,70,4|0,0:0|0:0,0:0:0:0:
0,293,106704,1,8,0:0:0:0:
69,363,106891,1,0,0:0:0:0:
69,363,106985,1,0,0:0:0:0:
69,363,107079,2,0,P|109:371|153:355,1,70,2|0,0:0|0:0,0:0:0:0:
208,312,107454,1,8,0:0:0:0:
208,312,107641,6,0,P|242:305|275:313,1,70,0|2,0:0|0:0,0:0:0:0:
355,359,108016,1,0,0:0:0:0:
424,300,108204,2,0,P|436:232|408:168,2,140,8|2|8,0:0|0:0|0:0,0:0:0:0:
212,312,109329,6,0,L|200:240,1,70,2|0,0:0|0:0,0:0:0:0:
123,184,109704,2,0,P|105:244|113:272,1,70,8|0,0:0|0:0,0:0:0:0:
207,155,110079,2,0,P|221:88|190:27,1,140,2|8,0:0|0:0,0:0:0:0:
124,99,110641,2,0,P|80:108|36:87,1,70,0|2,0:0|0:0,0:0:0:0:
88,16,111016,6,0,P|69:7|37:7,2,35,8|8|2,0:0|0:0|0:0,0:0:0:0:
124,99,111391,1,8,0:0:0:0:
120,190,111579,2,0,L|116:239,2,35,2|8|8,0:0|0:0|0:0,0:0:0:0:
207,155,111954,2,0,P|256:148|300:160,1,70,8|8,0:0|0:0,0:0:0:0:
368,188,112329,6,0,P|352:136|384:52,1,140,6|8,0:0|0:0,0:0:0:0:
442,129,112891,2,0,P|458:181|426:265,1,140
344,288,113454,2,0,P|340:336|352:372,1,70,8|0,0:0|0:0,0:0:0:0:
252,300,113829,6,0,P|188:292|92:324,1,140,2|8,0:0|0:0,0:0:0:0:
32,352,114391,2,0,L|-4:216,1,140
88,216,114954,2,0,P|96:172|80:128,1,70,8|0,0:0|0:0,0:0:0:0:
18,91,115329,6,0,P|86:103|166:67,1,140,2|8,0:0|0:0,0:0:0:0:
224,24,115892,2,0,P|290:11|357:35,1,140
408,120,116454,6,0,L|428:284,2,140,8|2|8,0:0|0:0|0:0,0:0:0:0:
184,276,117579,2,0,P|180:320|196:360,1,70,2|0,0:0|0:0,0:0:0:0:
274,305,117954,2,0,P|278:261|262:221,1,70,8|0,0:0|0:0,0:0:0:0:
193,182,118329,6,0,P|172:116|196:24,1,140,4|8,0:0|0:0,0:0:0:0:
264,8,118891,2,0,P|285:74|261:166,1,140
193,182,119454,2,0,L|109:174,1,70,8|0,0:0|0:0,0:0:0:0:
44,262,119829,6,0,L|193:276,1,140,2|8,0:0|0:0,0:0:0:0:
270,236,120392,2,0,P|332:256|424:232,1,140
449,162,120954,2,0,L|425:82,1,70,8|0,0:0|0:0,0:0:0:0:
306,55,121329,6,0,P|360:96|429:96,1,140,2|8,0:0|0:0,0:0:0:0:
512,52,121892,2,0,P|457:10|388:10,1,140
306,55,122454,6,0,P|232:64|160:48,2,140,8|2|8,0:0|0:0|0:0,0:0:0:0:
504,192,123579,1,2,0:0:0:0:
504,192,123766,1,0,0:0:0:0:
468,292,123954,1,12,0:0:0:0:
200,136,124329,6,0,P|233:125|267:126,1,70,8|8,0:0|0:0,0:0:0:0:
312,248,124704,2,0,P|278:258|244:257,1,70,8|8,0:0|0:0,0:0:0:0:
339,169,125079,2,0,L|419:181,1,70,8|8,0:0|0:0,0:0:0:0:
173,215,125454,2,0,L|93:203,1,70,8|8,0:0|0:0,0:0:0:0:
339,169,125829,5,2,0:0:0:0:
339,169,125922,1,8,0:0:0:0:
339,169,126017,2,0,P|330:128|301:93,1,70,8|4,0:0|0:0,0:0:0:0:
93,27,126579,2,0,L|42:7,2,35,8|8|8,2:0|2:0|2:3,2:0:0:0:
189,66,126954,1,0,2:0:0:0:
280,16,127141,1,8,0:0:0:0:
280,16,127235,1,8,0:0:0:0:
280,16,127329,6,0,P|348:8|428:28,1,140,4|8,0:0|0:0,0:0:0:0:
480,100,127891,1,0,0:0:0:0:
480,100,128079,2,0,B|484:183|506:150|511:246,1,140,2|8,0:0|0:0,0:0:0:0:
416,200,128641,6,0,P|350:188|268:220,2,140,2|2|2,0:1|0:1|0:1,0:0:0:0:
429,294,129579,2,0,L|437:346,2,35,2|8|0,0:0|0:0|0:0,0:0:0:0:
340,332,129954,2,0,L|176:316,1,140,8|2,0:0|0:0,0:0:0:0:
36,136,130704,6,0,P|28:180|44:224,1,70,8|0,0:0|0:0,0:0:0:0:
123,173,131079,2,0,B|196:196|196:156|261:175,1,140,2|8,0:0|0:0,0:0:0:0:
344,216,131642,6,0,P|368:160|344:76,2,140,2|2|2,0:1|0:1|0:1,0:0:0:0:
265,269,132579,2,0,L|225:258,2,35,2|8|0,0:0|0:0|0:0,0:0:0:0:
350,310,132954,2,0,P|363:348|361:387,2,70,8|0|2,0:0|0:0|0:0,0:0:0:0:
265,269,133516,5,0,0:0:0:0:
344,216,133704,2,0,P|384:223|417:245,2,70,8|0|2,0:0|0:0|0:0,0:0:0:0:
265,269,134266,1,0,0:0:0:0:
258,174,134454,2,0,P|284:142|319:125,2,70,8|0|2,0:0|0:0|0:0,0:0:0:0:
265,269,135016,5,0,0:0:0:0:
180,228,135204,2,0,L|88:236,1,70,8|0,0:0|0:0,0:0:0:0:
16,244,135579,1,2,0:0:0:0:
16,244,135672,1,8,0:0:0:0:
16,244,135766,1,0,0:0:0:0:
56,330,135954,2,0,P|124:344|200:326,1,140,8|2,0:0|0:0,0:0:0:0:
265,269,136516,5,0,0:0:0:0:
265,269,136704,1,8,0:0:0:0:
332,336,136891,1,0,0:0:0:0:
332,336,137079,2,0,P|420:344|496:312,1,140,2|8,0:0|0:0,0:0:0:0:
508,244,137641,1,0,0:0:0:0:
475,156,137829,6,0,L|458:110,2,35,2|8|0,0:0|0:0|0:0,0:0:0:0:
508,244,138204,1,8,0:0:0:0:
416,260,138391,1,0,0:0:0:0:
416,260,138485,1,8,0:0:0:0:
416,260,138579,2,0,L|340:244,1,70,2|8,0:0|0:0,0:0:0:0:
253,135,138954,2,0,P|240:203|264:268,1,140,8|4,0:0|0:0,0:0:0:0:
475,78,139704,6,0,L|405:66,1,70,8|0,0:0|0:0,0:0:0:0:
336,132,140079,2,0,L|474:155,1,140,2|8,0:0|0:0,0:0:0:0:
440,244,140641,6,0,L|455:336,1,70,2|2,0:1|0:0,0:0:0:0:
358,295,141016,2,0,L|325:382,1,70,2|8,0:1|0:0,0:0:0:0:
261,298,141391,1,2,0:1:0:0:
176,332,141579,2,0,L|125:356,2,35,2|8|0,0:0|0:0|0:0,0:0:0:0:
261,298,141954,2,0,P|276:240|240:148,1,140,8|2,0:0|0:0,0:0:0:0:
0,88,142704,6,0,P|40:96|72:88,1,70,8|0,0:0|0:0,0:0:0:0:
125,14,143079,2,0,P|159:64|130:161,1,140,2|8,0:0|0:0,0:0:0:0:
80,204,143642,6,0,P|67:271|103:329,2,140,2|2|2,0:1|0:1|0:1,0:0:0:0:
160,252,144579,2,0,L|208:282,2,35,2|8|0,0:0|0:0|0:0,0:0:0:0:
80,204,144954,2,0,P|42:210|-2:252,2,70,8|0|2,0:0|0:0|0:0,0:0:0:0:
160,252,145516,5,0,0:0:0:0:
162,159,145704,2,0,P|138:130|79:112,2,70,8|0|2,0:0|0:0|0:0,0:0:0:0:
160,252,146266,1,0,0:0:0:0:
241,207,146454,2,0,P|254:171|240:111,2,70,8|0|2,0:0|0:0|0:0,0:0:0:0:
160,252,147016,5,0,0:0:0:0:
239,299,147204,2,0,P|276:292|321:250,1,70,8|0,0:0|0:0,0:0:0:0:
356,200,147579,2,0,L|356:148,2,35,2|8|0,0:0|0:0|0:0,0:0:0:0:
424,274,147954,2,0,P|456:211|428:131,1,140,8|2,0:0|0:0,0:0:0:0:
376,68,148516,5,0,0:0:0:0:
376,68,148704,1,8,0:0:0:0:
292,124,148891,1,0,0:0:0:0:
216,60,149079,1,2,0:0:0:0:
216,60,149172,1,8,0:0:0:0:
216,60,149266,2,0,L|128:52,1,70,0|8,0:0|0:0,0:0:0:0:
44,20,149641,6,0,P|67:84|40:168,1,140,4|8,0:0|0:3,0:0:0:0:
0,232,150204,1,8,0:3:0:0:
44,316,150391,2,0,L|68:360,2,35,2|8|0,0:0|0:0|0:0,0:0:0:0:
116,248,150766,1,8,0:0:0:0:
116,248,150860,1,8,0:0:0:0:
116,248,150954,2,0,P|160:240|212:252,1,70,8|8,0:0|0:0,0:0:0:0:
272,280,151329,6,0,P|320:288|416:252,2,140,4|8|2,0:0|0:0|0:0,0:0:0:0:
189,246,152266,1,0,0:0:0:0:
189,246,152454,2,0,L|173:156,1,70,8|0,0:0|0:0,0:0:0:0:
253,118,152829,6,0,L|277:255,1,140,2|8,0:0|0:0,0:0:0:0:
349,196,153391,1,0,0:0:0:0:
349,196,153579,2,0,L|325:59,1,140,2|8,0:0|0:0,0:0:0:0:
116,28,154329,5,8,0:3:0:0:
116,28,154516,2,0,L|92:165,1,140,2|8,0:0|0:0,0:0:0:0:
204,112,155079,2,0,L|228:249,1,140,2|8,0:0|0:0,0:0:0:0:
314,159,155641,2,0,L|383:279,1,140,2|2,0:0|0:0,0:0:0:0:
469,332,156204,6,0,P|434:366|394:379,1,70,8|0,0:0|0:0,0:0:0:0:
320,340,156579,1,2,0:0:0:0:
320,340,156766,2,0,L|236:352,1,70,8|8,0:0|0:3,0:0:0:0:
160,364,157141,1,8,0:0:0:0:
88,304,157329,6,0,P|68:252|96:168,2,140,4|8|2,0:0|0:0|0:0,0:0:0:0:
314,159,158454,2,0,L|302:79,1,70,8|0,0:0|0:0,0:0:0:0:
404,112,158829,6,0,P|416:164|372:244,2,140,2|8|2,0:0|0:0|0:0,0:0:0:0:
314,159,159766,1,0,0:0:0:0:
314,159,159954,2,0,P|264:164|224:152,1,70,8|0,0:0|0:0,0:0:0:0:
152,88,160329,5,8,0:0:0:0:
152,88,160517,2,0,P|168:164|132:244,1,140,2|8,0:0|0:3,0:0:0:0:
72,288,161079,2,0,P|140:276|232:304,1,140,8|8,0:0|0:3,0:0:0:0:
292,348,161641,6,0,P|324:356|384:344,1,70,8|2,0:0|0:0,0:0:0:0:
432,280,162017,1,8,0:0:0:0:
432,280,162110,1,8,0:0:0:0:
432,280,162204,2,0,L|416:200,1,70,8|0,0:0|0:0,0:0:0:0:
318,190,162579,2,0,L|331:258,1,70,8|8,0:0|0:0,0:0:0:0:
180,125,163141,1,0,0:0:0:0:
112,192,163329,6,0,P|86:140|117:52,2,140,4|8|2,0:0|0:0|0:0,0:0:0:0:
200,215,164266,1,0,0:0:0:0:
200,215,164454,2,0,P|264:198|348:214,1,140,8|2,0:0|0:0,0:0:0:0:
414,263,165016,5,0,0:0:0:0:
414,263,165204,2,0,P|427:235|422:175,1,70,8|0,0:0|0:0,0:0:0:0:
386,111,165579,2,0,L|308:100,1,70,2|0,0:0|0:0,0:0:0:0:
223,88,165954,1,8,0:0:0:0:
143,144,166142,6,0,P|126:88|164:10,1,140
223,88,166704,2,0,L|240:172,1,70,8|0,0:0|0:0,0:0:0:0:
180,237,167079,2,0,P|176:277|196:323,1,70,2|0,0:0|0:0,0:0:0:0:
277,332,167454,2,0,P|281:297|273:264,2,70,8|0|2,0:0|0:0|0:0,0:0:0:0:
184,304,168016,6,0,L|96:312,1,70,0|8,0:0|0:0,0:0:0:0:
21,278,168391,2,0,P|4:229|19:179,1,105,0|8,0:0|0:0,0:0:0:0:
56,159,168766,2,0,L|140:171,2,70,0|8|0,0:0|0:0|0:0,0:0:0:0:
96,76,169329,6,0,L|264:100,1,140,4|8,0:0|0:0,0:0:0:0:
324,72,169891,2,0,P|344:128|328:188,1,105,0|8,0:0|0:0,0:0:0:0:
324,200,170266,2,0,P|320:244|332:276,1,70,0|8,0:0|0:0,0:0:0:0:
416,228,170641,1,0,0:0:0:0:
416,228,170829,6,0,P|472:240|496:336,1,140,2|8,0:0|0:0,0:0:0:0:
436,372,171391,2,0,P|380:360|316:372,1,105,0|8,0:0|0:0,0:0:0:0:
296,376,171767,2,0,L|216:364,2,70,0|8|0,0:0|0:0|0:0,0:0:0:0:
267,277,172329,6,0,P|219:269|139:325,1,140,2|8,0:0|0:0,0:0:0:0:
71,376,172891,2,0,P|51:336|59:268,1,105,0|8,0:0|0:0,0:0:0:0:
72,236,173266,2,0,L|60:164,1,70,0|8,0:0|0:0,0:0:0:0:
140,96,173641,1,0,0:0:0:0:
140,96,173829,6,0,L|163:234,1,140,4|8,0:0|0:0,0:0:0:0:
184,328,174391,1,0,0:0:0:0:
260,268,174579,2,0,P|276:228|268:180,1,70,2|0,0:0|0:0,0:0:0:0:
228,116,174954,2,0,L|308:104,1,70,8|0,0:0|0:0,0:0:0:0:
400,88,175329,5,8,0:0:0:0:
400,88,175422,1,8,0:0:0:0:
400,88,175516,1,8,0:0:0:0:
423,178,175704,2,0,L|438:235,2,35,8|8|8,0:0|0:0|0:0,0:0:0:0:
352,236,176079,2,0,L|336:293,2,35,8|8|8,0:0|0:0|0:3,0:0:0:0:
261,250,176454,2,0,L|218:292,2,35,8|8|8,0:3|0:3|0:3,0:0:0:0:
295,164,176829,5,4,0:0:0:0:
88,112,188829,5,2,0:0:0:0:
104,196,189204,1,2,0:0:0:0:
120,280,189579,1,2,0:0:0:0:
136,364,189954,1,2,0:0:0:0:
201,309,190329,5,2,0:0:0:0:
285,325,190704,1,2,0:0:0:0:
369,341,191079,1,2,0:0:0:0:
453,357,191454,1,2,0:0:0:0:
425,277,191829,5,2,0:0:0:0:
409,193,192204,1,2,0:0:0:0:
393,109,192579,1,2,0:0:0:0:
377,25,192954,1,2,0:0:0:0:
313,81,193329,5,2,0:0:0:0:
228,65,193704,1,2,0:0:0:0:
145,49,194079,1,2,0:0:0:0:
61,33,194454,1,2,0:0:0:0:
256,192,194829,5,2,0:0:0:0:
340,192,195204,1,2,0:0:0:0:
424,192,195579,1,2,0:0:0:0:
508,192,195954,1,2,0:0:0:0:
382,348,196329,5,2,0:0:0:0:
298,348,196704,1,2,0:0:0:0:
214,348,197079,1,2,0:0:0:0:
130,348,197454,1,2,0:0:0:0:
4,192,197829,5,2,0:0:0:0:
88,192,198204,1,2,0:0:0:0:
172,192,198579,1,2,0:0:0:0:
256,192,198954,1,2,0:0:0:0:
382,36,199329,5,2,0:0:0:0:
298,36,199704,1,2,0:0:0:0:
214,36,200079,1,2,0:0:0:0:
130,36,200454,1,2,0:0:0:0:
340,192,200829,6,0,P|346:157|333:112,2,70,12|2|2,0:0|0:0|0:0,0:0:0:0:
172,192,201391,2,0,P|166:227|179:272,2,70,12|2|2,0:0|0:0|0:0,0:0:0:0:
256,108,201954,6,0,P|221:102|176:115,1,70,12|2,0:0|0:0,0:0:0:0:
255,276,202329,1,12,0:0:0:0:
255,276,202422,1,8,0:0:0:0:
255,276,202516,2,0,P|291:282|336:269,1,70,8|8,0:0|0:0,0:0:0:0:
256,108,202891,5,12,0:0:0:0:
256,108,203266,6,0,L|256:32,2,70,2|2|0,0:0|0:0|0:0,0:0:0:0:
193,173,203829,2,0,P|256:198|319:171,1,140,4|8,0:0|0:0,0:0:0:0:
372,88,204391,1,0,0:0:0:0:
372,88,204579,2,0,P|432:84|516:104,1,140,2|8,0:0|0:0,0:0:0:0:
475,187,205141,6,0,P|470:256|502:327,2,140,2|2|2,0:1|0:1|0:1,0:0:0:0:
509,101,206079,2,0,L|531:67,2,35,2|8|0,0:0|0:0|0:0,0:0:0:0:
419,111,206454,2,0,P|351:97|290:48,1,140,8|2,0:0|0:0,0:0:0:0:
110,26,207204,6,0,P|71:21|28:35,1,70,8|0,0:0|0:0,0:0:0:0:
80,112,207579,2,0,P|141:125|224:94,1,140,2|8,0:0|0:0,0:0:0:0:
296,56,208141,6,0,L|448:72,2,140,2|2|2,0:1|0:1|0:1,0:0:0:0:
213,101,209079,1,2,0:0:0:0:
269,177,209266,1,0,0:0:0:0:
193,231,209454,2,0,P|181:267|197:318,2,70,8|0|2,0:0|0:0|0:0,0:0:0:0:
269,177,210016,5,0,0:0:0:0:
275,269,210204,2,0,P|300:297|352:308,2,70,8|0|2,0:0|0:0|0:0,0:0:0:0:
269,177,210766,1,0,0:0:0:0:
353,218,210954,2,0,P|390:210|426:170,1,70,8|0,0:0|0:0,0:0:0:0:
436,100,211329,5,2,0:0:0:0:
436,100,211422,1,8,0:0:0:0:
436,100,211516,2,0,L|417:9,1,70,0|8,0:0|0:0,0:0:0:0:
339,68,211891,2,0,P|291:78|251:68,1,70,0|2,0:0|0:0,0:0:0:0:
161,13,212266,1,0,0:0:0:0:
161,13,212454,6,0,P|229:21|270:75,1,140,8|2,0:0|0:0,0:0:0:0:
186,98,213016,1,0,0:0:0:0:
186,98,213204,2,0,P|182:141|191:175,1,70,8|0,0:0|0:0,0:0:0:0:
268,225,213579,2,0,P|213:215|106:238,1,140,2|8,0:0|0:0,0:0:0:0:
79,302,214141,1,0,0:0:0:0:
79,302,214235,1,8,0:0:0:0:
79,302,214329,6,0,L|91:388,1,70,2|6,0:0|0:1,0:0:0:0:
182,307,214704,2,0,L|191:376,1,70,2|6,0:0|0:1,0:0:0:0:
285,312,215079,2,0,L|294:381,1,70,2|6,0:0|0:1,0:0:0:0:
388,317,215454,1,8,0:0:0:0:
488,356,215641,1,8,0:0:0:0:
488,356,215735,1,8,0:0:0:0:
488,356,215829,6,0,P|504:288|476:212,1,140,4|8,0:1|0:0,0:0:0:0:
412,144,216391,1,0,0:0:0:0:
412,144,216579,2,0,P|328:131|265:141,1,140,2|8,0:0|0:0,0:0:0:0:
184,180,217141,6,0,P|148:184|104:172,1,70,2|2,0:1|0:0,0:0:0:0:
121,81,217516,2,0,P|155:76|189:83,1,70,2|8,0:1|0:0,0:0:0:0:
274,138,217891,1,2,0:1:0:0:
344,68,218079,2,0,L|328:24,2,35,2|8|0,0:0|0:0|0:0,0:0:0:0:
370,166,218454,2,0,P|352:243|295:280,1,140,8|2,0:0|0:0,0:0:0:0:
35,338,219204,6,0,L|21:265,1,70,8|0,0:0|0:0,0:0:0:0:
99,211,219579,2,0,L|125:348,1,140,2|8,0:0|0:0,0:0:0:0:
204,292,220141,6,0,L|177:148,2,140,2|2|2,0:1|0:1|0:1,0:0:0:0:
299,239,221079,2,0,P|334:238|368:247,1,70,2|0,0:0|0:0,0:0:0:0:
442,191,221454,2,0,P|450:152|433:102,2,70,8|0|2,0:0|0:0|0:0,0:0:0:0:
368,247,222016,5,0,0:0:0:0:
356,154,222204,2,0,P|326:127|274:116,2,70,8|0|2,0:0|0:0|0:0,0:0:0:0:
368,247,222767,1,0,0:0:0:0:
282,210,222954,2,0,P|243:221|209:260,2,70,8|0|2,0:0|0:0|0:0,0:0:0:0:
368,247,223516,5,0,0:0:0:0:
442,191,223704,2,0,P|450:152|433:102,1,70,8|0,0:0|0:0,0:0:0:0:
424,32,224079,2,0,L|412:-8,2,35,2|8|0,0:0|0:0|0:0,0:0:0:0:
344,85,224454,2,0,P|270:97|196:71,1,140,8|2,0:0|0:0,0:0:0:0:
159,0,225016,5,0,0:0:0:0:
78,47,225204,2,0,P|75:101|91:134,1,70,8|0,0:0|0:0,0:0:0:0:
168,160,225579,1,2,0:0:0:0:
168,160,225672,1,8,0:0:0:0:
168,160,225766,2,0,P|171:214|155:247,1,70,0|8,0:0|0:0,0:0:0:0:
89,283,226141,6,0,P|135:317|221:302,1,140,4|2,0:0|0:0,0:0:0:0:
295,352,226704,2,0,P|321:308|320:256,1,105,8|8,0:0|0:0,0:0:0:0:
307,219,227079,2,0,P|300:180|316:125,1,70,2|8,0:0|0:0,0:0:0:0:
376,71,227454,2,0,L|402:36,2,35,8|8|8,0:0|0:0|0:0,0:0:0:0:
444,135,227829,6,0,P|459:179|430:286,2,140,4|8|2,0:0|0:0|0:0,0:0:0:0:
376,71,228766,1,0,0:0:0:0:
376,71,228954,2,0,L|289:85,1,70,8|0,0:0|0:0,0:0:0:0:
217,103,229329,6,0,P|155:81|80:91,1,140,2|8,0:0|0:0,0:0:0:0:
20,156,229891,1,0,0:0:0:0:
20,156,230079,2,0,L|0:246,1,70,2|0,0:0|0:0,0:0:0:0:
102,213,230454,2,0,L|106:305,1,70,8|0,0:0|0:0,0:0:0:0:
158,367,230829,6,0,P|200:313|197:245,1,140,2|8,0:0|0:0,0:0:0:0:
142,164,231391,2,0,P|194:146|235:155,1,70,0|2,0:0|0:0,0:0:0:0:
247,164,231672,2,0,L|362:156,1,105,8|8,0:0|0:0,0:0:0:0:
424,91,232141,1,0,0:0:0:0:
424,91,232329,6,0,P|450:146|422:226,2,140,2|8|2,0:0|0:0|0:0,0:0:0:0:
208,16,233454,2,0,P|179:34|122:35,1,70,8|0,0:0|0:0,0:0:0:0:
56,16,233829,6,0,L|94:170,1,140,2|8,0:0|0:0,0:0:0:0:
0,128,234391,1,0,0:0:0:0:
0,128,234579,2,0,L|38:282,1,140,2|8,0:0|0:0,0:0:0:0:
58,353,235141,1,0,0:0:0:0:
145,323,235329,6,0,P|229:323|287:353,2,140,2|8|2,0:0|0:0|0:0,0:0:0:0:
58,353,236266,1,0,0:0:0:0:
33,263,236454,2,0,P|29:226|43:182,1,70,8|0,0:0|0:0,0:0:0:0:
99,130,236829,6,0,P|146:140|238:119,1,140,2|8,0:0|0:0,0:0:0:0:
308,51,237391,1,0,0:0:0:0:
308,51,237579,2,0,L|344:208,1,140,2|8,0:0|0:0,0:0:0:0:
425,134,238141,6,0,P|442:192|398:271,1,140
339,187,238704,2,0,L|260:185,1,70,8|0,0:0|0:0,0:0:0:0:
176,223,239079,2,0,P|169:190|205:107,2,105,8|8|8,0:0|0:0|0:0,0:0:0:0:
221,303,239829,5,6,0:0:0:0:
221,303,240017,2,0,P|299:280|378:284,1,140
455,300,240579,2,0,P|432:222|436:143,1,140,2|8,0:0|0:0,0:0:0:0:
452,66,241142,2,0,P|374:89|295:85,1,140
229,51,241704,6,0,P|221:88|233:131,1,70,8|0,0:0|0:0,0:0:0:0:
287,189,242079,1,2,0:0:0:0:
215,247,242266,2,0,P|187:255|136:236,1,70,0|8,0:0|0:0,0:0:0:0:
60,205,242641,1,0,0:0:0:0:
60,205,242829,6,0,P|38:156|49:67,1,140,2|8,0:0|0:0,0:0:0:0:
118,8,243391,1,0,0:0:0:0:
174,79,243579,2,0,L|162:127,2,35,2|8|0,0:0|0:0|0:0,0:0:0:0:
248,25,243954,2,0,L|394:33,1,140,8|2,0:0|0:0,0:0:0:0:
507,218,244704,6,0,L|509:134,1,70,8|0,0:0|0:0,0:0:0:0:
419,173,245079,2,0,L|416:256,2,70,2|0|8,0:0|0:0|0:0,0:0:0:0:
442,82,245641,1,0,0:0:0:0:
351,107,245829,6,0,B|276:120|292:88|211:102,1,140,2|8,0:0|0:0,0:0:0:0:
145,307,246579,2,0,B|220:294|203:325|285:312,1,140,2|8,0:0|0:0,0:0:0:0:
375,341,247141,6,0,P|380:307|373:273,1,70,0|2,0:0|0:0,0:0:0:0:
298,219,247516,2,0,L|222:217,1,70,0|8,0:0|0:0,0:0:0:0:
139,250,247891,2,0,L|140:180,1,70,0|2,0:0|0:0,0:0:0:0:
108,91,248266,2,0,L|177:92,1,70,0|8,0:0|0:0,0:0:0:0:
265,129,248641,1,0,0:0:0:0:
265,129,248829,6,0,P|335:107|422:138,1,140,2|2,0:0|0:0,0:0:0:0:
473,184,249391,2,0,P|494:137|480:73,2,105,12|8|2,0:0|0:3|0:0,0:0:0:0:
381,219,250141,1,8,0:0:0:0:
381,219,250235,1,8,0:0:0:0:
381,219,250329,6,0,L|288:210,1,70,0|8,0:0|0:0,0:0:0:0:
225,259,250704,2,0,L|183:283,2,35,2|8|8,0:0|0:0|0:0,0:0:0:0:
309,310,251079,1,8,0:0:0:0:
235,171,251266,1,8,0:3:0:0:
235,171,251454,6,0,P|171:155|80:178,1,140,2|4,0:0|0:0,0:0:0:0:
256,192,251922,12,0,258579,0:0:0:0:
