osu file format v14

[General]
AudioFilename: audio.mp3
AudioLeadIn: 0
PreviewTime: 203173
Countdown: 0
SampleSet: Soft
StackLeniency: 0.4
Mode: 0
LetterboxInBreaks: 0
WidescreenStoryboard: 1

[Editor]
DistanceSpacing: 1.4
BeatDivisor: 4
GridSize: 4
TimelineZoom: 1.400006

[Metadata]
Title:Sanagi
TitleUnicode:さなぎ
Artist:Maaya Sakamoto
ArtistUnicode:坂本真綾
Creator:Yohanes
Version:Butterfly
Source:
Tags:FOLLOW ME UP 北川勝利 Katsutoshi Kitagawa Flying Dog Pupa Chrysalis Delis avmidfvurtrtdrk Frostmourne FrostxE GhostFY yaldo_27
BeatmapID:1299081
BeatmapSetID:615921

[Difficulty]
HPDrainRate:6.5
CircleSize:4.2
OverallDifficulty:8
ApproachRate:9
SliderMultiplier:1.8
SliderTickRate:1

[Events]
//Background and Video events
0,0,"BG.jpg",0,0
//Break Periods
2,177029,187329
//Storyboard Layer 0 (Background)
//Storyboard Layer 1 (Fail)
//Storyboard Layer 2 (Pass)
//Storyboard Layer 3 (Foreground)
//Storyboard Sound Samples

[TimingPoints]
1329.62892752399,375,4,2,1,60,1,0
13892,-100,4,2,2,60,0,0
14454,-100,4,2,1,60,0,0
15017,-100,4,2,2,60,0,0
15579,-100,4,2,1,60,0,0
15954,-100,4,2,2,60,0,0
16704,-100,4,2,1,60,0,0
16892,-100,4,2,2,60,0,0
17829,-100,4,2,1,60,0,0
18017,-100,4,2,2,60,0,0
18767,-100,4,2,1,60,0,0
25892,-100,4,2,2,60,0,0
26454,-100,4,2,1,60,0,0
27017,-100,4,2,2,60,0,0
27579,-100,4,2,1,60,0,0
27954,-100,4,2,2,60,0,0
28704,-100,4,2,1,60,0,0
28892,-100,4,2,2,60,0,0
29829,-100,4,2,1,60,0,0
30017,-100,4,2,2,60,0,0
30204,-100,4,2,1,60,0,0
49329,-100,4,2,1,40,0,0
49704,-100,4,2,1,50,0,0
50079,-100,4,2,1,60,0,0
50454,-100,4,2,1,70,0,0
51579,-100,4,2,1,60,0,0
52329,-100,4,2,1,70,0,1
76329,-100,4,2,1,60,0,0
88892,-100,4,2,2,60,0,0
89454,-100,4,2,1,60,0,0
90017,-100,4,2,2,60,0,0
90579,-100,4,2,1,60,0,0
90954,-100,4,2,2,60,0,0
91704,-100,4,2,1,60,0,0
91892,-100,4,2,2,60,0,0
92829,-100,4,2,1,60,0,0
93017,-100,4,2,2,60,0,0
93767,-100,4,2,1,60,0,0
100892,-100,4,2,2,60,0,0
101454,-100,4,2,1,60,0,0
102017,-100,4,2,2,60,0,0
102579,-100,4,2,1,60,0,0
102954,-100,4,2,2,60,0,0
103704,-100,4,2,1,60,0,0
103892,-100,4,2,2,60,0,0
104829,-100,4,2,1,60,0,0
105017,-100,4,2,2,60,0,0
105204,-100,4,2,1,60,0,0
124329,-100,4,2,1,40,0,0
124704,-100,4,2,1,50,0,0
125079,-100,4,2,1,60,0,0
125454,-100,4,2,1,70,0,0
126579,-100,4,2,1,60,0,0
127329,-100,4,2,1,70,0,1
151329,-100,4,2,1,60,0,0
188829,-100,4,2,1,40,0,0
199329,-100,4,2,1,50,0,0
200829,-100,4,2,1,60,0,0
201392,-100,4,2,1,65,0,0
201954,-100,4,2,1,70,0,0
202704,-100,4,2,1,80,0,0
203267,-100,4,2,2,60,0,0
203829,-100,4,2,1,70,0,1
227829,-100,4,2,1,60,0,0
254829,-100,4,2,1,55,0,0
255579,-100,4,2,1,45,0,0
256329,-100,4,2,1,35,0,0
257079,-100,4,2,1,25,0,0
257829,-100,4,2,1,15,0,0
258579,-100,4,2,1,5,0,0

[Colours]
Combo1 : 255,94,55
Combo2 : 173,255,95
Combo3 : 17,254,176
Combo4 : 255,88,100

[HitObjects]
403,74,579,6,0,L|435:35,1,45,8|8,0:0|0:0,0:0:0:0:
300,186,860,1,8,0:0:0:0:
264,205,953,1,10,0:0:0:0:
225,210,1047,1,8,0:0:0:0:
185,202,1141,1,8,0:0:0:0:
151,180,1235,1,8,0:0:0:0:
127,149,1329,6,0,L|145:50,1,90,6|0,0:0|0:0,0:0:0:0:
320,32,1704,1,8,0:0:0:0:
242,112,1892,1,0,0:0:0:0:
212,4,2079,1,2,0:0:0:0:
242,112,2267,1,0,0:0:0:0:
390,13,2454,1,8,0:0:0:0:
416,193,2642,6,0,L|403:99,1,90,0|2,0:0|0:0,0:0:0:0:
512,192,3017,1,0,0:0:0:0:
373,273,3204,2,0,P|420:284|470:265,1,90,8|0,0:0|0:0,0:0:0:0:
408,108,3579,1,2,0:0:0:0:
408,108,3673,2,0,P|361:97|311:116,1,90,8|0,0:0|0:0,0:0:0:0:
280,125,3954,2,0,L|112:105,1,135,8|0,0:0|0:0,0:0:0:0:
100,84,4329,6,0,P|84:140|104:192,1,90,4|0,0:0|0:0,0:0:0:0:
180,297,4704,1,8,0:0:0:0:
280,245,4892,1,0,0:0:0:0:
280,245,4985,1,0,0:0:0:0:
280,245,5079,1,2,0:0:0:0:
336,344,5267,1,0,0:0:0:0:
179,296,5454,2,0,P|168:253|173:209,1,90,8|0,0:0|0:0,0:0:0:0:
280,245,5829,6,0,P|324:253|368:245,1,90,2|0,0:0|0:0,0:0:0:0:
463,176,6204,2,0,L|443:80,1,90,8|0,0:0|0:0,0:0:0:0:
336,33,6579,1,2,0:0:0:0:
336,33,6673,2,0,P|304:49|232:41,1,90,8|0,0:0|0:0,0:0:0:0:
208,33,6954,2,0,P|184:89|204:169,1,135,8|0,0:0|0:0,0:0:0:0:
228,205,7329,6,0,L|204:313,1,90,4|0,0:0|0:0,0:0:0:0:
36,261,7704,1,8,0:0:0:0:
72,353,7892,1,0,0:0:0:0:
36,261,8079,1,2,0:0:0:0:
132,237,8267,1,0,0:0:0:0:
44,60,8454,1,8,0:0:0:0:
16,160,8642,1,0,0:0:0:0:
151,72,8829,5,2,0:0:0:0:
151,72,8923,2,0,P|223:64|259:76,1,90,8|0,0:0|0:0,0:0:0:0:
278,87,9204,2,0,P|345:86|395:42,1,135,8|0,0:0|0:0,0:0:0:0:
411,0,9579,2,0,L|431:92,1,90,2|0,0:0|0:0,0:0:0:0:
484,230,9954,2,0,L|512:145,1,90,8|0,0:0|0:0,0:0:0:0:
312,173,10329,6,0,P|357:163|408:169,1,90,2|0,0:0|0:0,0:0:0:0:
258,261,10704,2,0,P|226:227|206:179,1,90,8|0,0:0|0:0,0:0:0:0:
362,264,11079,2,0,P|348:307|317:349,1,90,2|0,0:0|0:0,0:0:0:0:
188,345,11454,1,8,0:0:0:0:
162,322,11547,1,8,0:0:0:0:
131,309,11641,1,8,0:0:0:0:
98,305,11735,1,8,0:0:0:0:
65,311,11829,6,0,P|36:265|40:205,1,90,2|8,0:0|0:0,0:0:0:0:
151,72,12204,1,2,0:0:0:0:
151,72,12298,1,8,0:0:0:0:
151,72,12392,1,0,0:0:0:0:
200,269,12579,1,2,0:0:0:0:
54,125,12767,1,8,0:0:0:0:
54,125,12860,1,8,0:0:0:0:
54,125,12954,1,2,0:0:0:0:
264,81,13142,1,8,0:0:0:0:
124,176,13329,6,0,P|108:256|148:364,1,180,6|0,0:0|0:0,0:0:0:0:
200,269,13892,2,0,P|248:340|372:344,1,180,2|0,0:0|0:0,0:0:0:0:
388,185,14454,2,0,L|332:369,1,180,2|0,0:0|0:0,0:0:0:0:
488,264,15017,6,0,P|510:169|469:91,1,180,2|0,0:0|0:0,0:0:0:0:
388,185,15579,2,0,L|271:186,1,90,2|0,0:0|0:0,0:0:0:0:
304,61,15954,2,0,L|421:60,1,90,2|0,0:0|0:0,0:0:0:0:
232,125,16329,6,0,P|148:121|93:28,1,180,2|2,0:0|0:0,0:0:0:0:
194,30,16892,2,0,P|278:34|333:127,1,180,2|0,0:0|0:0,0:0:0:0:
299,195,17454,2,0,P|307:281|379:329,1,180,2|2,0:0|0:0,0:0:0:0:
500,217,18017,5,2,0:0:0:0:
408,237,18204,1,0,0:0:0:0:
472,307,18392,1,0,0:0:0:0:
488,144,18579,1,2,0:0:0:0:
299,195,18767,1,8,0:0:0:0:
299,195,18860,1,8,0:3:0:0:
299,195,18954,1,8,0:3:0:0:
232,125,19142,1,2,0:0:0:0:
400,165,19329,6,0,P|402:223|377:269,1,90,4|0,0:0|0:0,0:0:0:0:
331,106,19704,1,8,0:0:0:0:
212,213,19892,1,0,0:0:0:0:
212,213,19985,1,0,0:0:0:0:
212,213,20079,2,0,L|100:197,1,90,2|0,0:0|0:0,0:0:0:0:
12,181,20454,1,8,0:0:0:0:
72,33,20642,6,0,P|92:89|80:137,1,90,0|2,0:0|0:0,0:0:0:0:
12,284,21017,1,0,0:0:0:0:
103,328,21204,2,0,P|147:330|188:311,1,90,8|0,0:0|0:0,0:0:0:0:
289,362,21579,2,0,L|305:254,1,90,2|0,0:0|0:0,0:0:0:0:
264,81,21954,1,8,0:0:0:0:
212,213,22142,1,0,0:0:0:0:
212,213,22235,1,0,0:0:0:0:
212,213,22329,5,2,0:0:0:0:
136,141,22517,1,0,0:0:0:0:
384,145,22704,1,8,0:0:0:0:
360,49,22892,1,0,0:0:0:0:
360,229,23079,2,0,P|409:228|454:195,1,90,2|0,0:0|0:0,0:0:0:0:
472,37,23454,1,8,0:0:0:0:
472,37,23642,6,0,L|488:137,1,90,0|2,0:0|0:0,0:0:0:0:
360,49,24017,2,0,L|323:143,1,90,0|8,0:0|0:0,0:0:0:0:
257,3,24392,2,0,L|178:66,1,90,0|2,0:0|0:0,0:0:0:0:
8,61,24767,1,4,0:0:0:0:
99,215,24954,1,8,0:0:0:0:
99,215,25048,1,8,0:0:0:0:
99,215,25141,1,8,0:3:0:0:
187,59,25329,6,0,P|212:133|184:245,1,180,4|0,0:0|0:0,0:0:0:0:
296,176,25892,2,0,P|280:251|199:335,1,180,2|0,0:0|0:0,0:0:0:0:
41,346,26454,2,0,P|125:316|214:327,1,180,2|0,0:0|0:0,0:0:0:0:
320,368,27017,6,0,P|408:378|492:349,1,180,2|0,0:0|0:0,0:0:0:0:
412,272,27579,2,0,L|392:172,1,90,2|0,0:0|0:0,0:0:0:0:
492,132,27954,2,0,L|512:232,1,90,2|0,0:0|0:0,0:0:0:0:
380,296,28329,6,0,L|344:119,1,180,2|2,0:0|0:0,0:0:0:0:
414,35,28892,2,0,P|334:11|250:63,1,180,2|0,0:0|0:0,0:0:0:0:
200,152,29454,2,0,P|124:196|40:173,1,180,2|2,0:0|0:0,0:0:0:0:
52,8,30017,5,2,0:0:0:0:
110,88,30204,1,0,0:0:0:0:
39,172,30392,1,8,0:3:0:0:
110,88,30579,1,2,0:0:0:0:
200,152,30767,1,8,0:3:0:0:
10,86,30954,1,12,0:0:0:0:
10,86,31329,6,0,L|40:175,1,90,4|0,0:0|0:0,0:0:0:0:
84,288,31704,1,8,0:0:0:0:
225,235,31892,1,0,0:0:0:0:
225,235,31985,1,0,0:0:0:0:
225,235,32079,2,0,P|239:290|221:347,1,90,2|0,0:0|0:0,0:0:0:0:
144,184,32454,1,8,0:0:0:0:
241,96,32642,6,0,L|330:105,1,90,0|2,0:0|0:0,0:0:0:0:
512,40,33017,1,0,0:0:0:0:
411,14,33204,2,0,P|408:62|427:105,1,90,8|0,0:0|0:0,0:0:0:0:
512,180,33579,2,0,L|496:284,1,90,2|0,0:0|0:0,0:0:0:0:
394,183,33954,1,8,0:0:0:0:
304,368,34142,1,0,0:0:0:0:
304,368,34235,1,0,0:0:0:0:
304,368,34329,5,2,0:0:0:0:
408,336,34517,1,0,0:0:0:0:
205,218,34704,1,8,0:0:0:0:
244,308,34892,1,0,0:0:0:0:
249,143,35079,2,0,P|189:133|148:152,1,90,2|0,0:0|0:0,0:0:0:0:
36,244,35454,1,8,0:0:0:0:
36,244,35642,6,0,P|8:204|4:136,1,90,0|2,0:0|0:0,0:0:0:0:
72,12,36017,2,0,L|92:108,1,90,0|8,0:0|0:0,0:0:0:0:
112,304,36392,2,0,P|128:260|112:196,1,90,0|2,0:0|0:0,0:0:0:0:
0,76,36767,1,8,0:3:0:0:
162,40,36954,1,8,0:0:0:0:
162,40,37048,1,8,0:0:0:0:
162,40,37142,1,8,0:3:0:0:
256,192,37329,6,0,P|361:209|440:184,1,180,6|8,0:0|0:0,0:0:0:0:
410,18,37892,2,0,P|443:101|430:189,1,180
324,288,38454,2,0,L|220:288,1,90,8|0,0:0|0:0,0:0:0:0:
108,104,38829,6,0,L|117:193,1,90,2|0,0:0|0:0,0:0:0:0:
222,122,39204,1,8,0:0:0:0:
3,175,39392,2,0,P|-17:89|22:10,1,180
108,104,39954,2,0,P|160:112|216:92,1,90,8|0,0:0|0:0,0:0:0:0:
352,0,40329,6,0,P|283:56|304:140,1,180,2|8,0:0|0:0,0:0:0:0:
512,138,40892,2,0,P|448:78|361:82,1,180
431,289,41454,1,8,0:0:0:0:
509,220,41642,1,0,0:0:0:0:
362,211,41829,5,2,0:0:0:0:
431,289,42017,1,0,0:0:0:0:
509,220,42204,1,8,0:0:0:0:
424,378,42392,1,0,0:0:0:0:
362,211,42579,2,0,P|288:200|248:212,1,90,2|0,0:0|0:0,0:0:0:0:
128,300,42954,2,0,P|100:264|96:220,1,90,8|0,0:0|0:0,0:0:0:0:
176,40,43329,6,0,L|189:128,1,90,2|0,0:0|0:0,0:0:0:0:
312,8,43704,1,8,0:0:0:0:
312,8,43892,2,0,L|291:111,1,90,0|2,0:0|0:0,0:0:0:0:
362,211,44267,1,0,0:0:0:0:
448,148,44454,2,0,P|469:194|460:260,1,90,8|0,0:0|0:0,0:0:0:0:
290,341,44829,6,0,P|346:325|468:336,1,180,2|8,0:0|0:0,0:0:0:0:
284,167,45392,2,0,P|268:256|291:343,1,180
371,149,45954,2,0,P|345:100|305:78,1,90,8|0,0:0|0:0,0:0:0:0:
72,176,46329,6,0,L|56:84,1,90,2|0,0:0|0:0,0:0:0:0:
274,202,46704,1,8,0:0:0:0:
188,111,46892,2,0,L|172:200,1,90,0|2,0:0|0:0,0:0:0:0:
146,340,47267,1,0,0:0:0:0:
274,202,47454,2,0,P|346:186|468:220,1,180,8|2,0:0|0:0,0:0:0:0:
400,296,48017,5,0,0:0:0:0:
400,88,48204,1,8,0:0:0:0:
494,121,48392,1,0,0:0:0:0:
448,208,48579,1,2,0:0:0:0:
472,32,48767,1,0,0:0:0:0:
256,93,48954,1,12,0:0:0:0:
256,93,49329,5,8,0:0:0:0:
212,221,49517,1,8,0:0:0:0:
256,93,49704,5,8,0:0:0:0:
296,265,49892,1,8,0:0:0:0:
256,93,50079,5,8,0:0:0:0:
212,309,50267,1,8,0:0:0:0:
256,93,50454,5,8,0:0:0:0:
296,353,50642,1,8,0:0:0:0:
176,152,50829,5,10,0:0:0:0:
161,119,50922,1,8,0:0:0:0:
158,83,51016,1,8,0:0:0:0:
169,49,51110,1,8,0:0:0:0:
192,21,51204,2,0,L|232:136,1,90,12|0,0:0|0:0,0:0:0:0:
296,353,51579,1,8,0:3:0:0:
360,230,51767,1,8,0:0:0:0:
360,230,51860,1,8,0:0:0:0:
360,230,51955,1,8,0:3:0:0:
434,346,52142,1,2,0:0:0:0:
296,353,52329,6,0,L|184:341,1,90,6|0,0:0|0:0,0:0:0:0:
96,196,52704,1,8,0:0:0:0:
204,136,52892,1,0,0:0:0:0:
4,244,53079,2,0,P|-7:186|13:136,1,90,2|0,0:0|0:0,0:0:0:0:
84,28,53454,1,8,0:0:0:0:
291,138,53642,6,0,P|247:147|204:136,1,90,2|2,0:1|0:0,0:0:0:0:
388,36,54017,2,0,L|407:125,1,90,2|8,0:1|0:0,0:0:0:0:
429,230,54392,1,2,0:1:0:0:
291,138,54579,1,2,0:0:0:0:
291,138,54673,1,8,0:0:0:0:
291,138,54767,1,0,0:0:0:0:
495,281,54954,2,0,P|507:258|495:185,1,90,8|0,0:0|0:0,0:0:0:0:
376,76,55329,6,0,L|268:60,1,90,2|0,0:0|0:0,0:0:0:0:
36,128,55704,1,8,0:0:0:0:
104,40,55892,1,0,0:0:0:0:
189,221,56079,2,0,P|205:189|189:109,1,90,2|0,0:0|0:0,0:0:0:0:
72,224,56454,1,8,0:0:0:0:
234,318,56642,6,0,P|192:328|137:315,1,90,2|2,0:1|0:0,0:0:0:0:
189,221,57017,1,2,0:1:0:0:
368,340,57204,1,8,0:0:0:0:
297,135,57392,2,0,P|287:182|301:243,1,90,2|2,0:1|0:0,0:0:0:0:
304,250,57673,1,8,0:0:0:0:
322,274,57767,1,0,0:0:0:0:
456,48,57954,1,8,0:0:0:0:
488,156,58142,6,0,P|443:161|401:145,1,90,0|2,0:0|0:0,0:0:0:0:
355,44,58517,1,0,0:0:0:0:
234,318,58704,1,8,0:0:0:0:
102,211,58892,2,0,P|147:206|189:221,1,90,0|2,0:0|0:0,0:0:0:0:
133,317,59267,1,0,0:0:0:0:
256,96,59454,1,8,0:0:0:0:
370,174,59642,6,0,P|383:134|372:84,1,90,0|2,0:0|0:0,0:0:0:0:
257,192,60017,1,0,0:0:0:0:
508,294,60204,1,8,0:0:0:0:
432,215,60392,2,0,P|406:251|399:295,1,90,0|2,0:0|0:0,0:0:0:0:
402,325,60673,1,8,0:0:0:0:
413,353,60767,1,0,0:0:0:0:
304,188,60954,2,0,P|256:196|184:168,1,90,8|0,0:0|0:0,0:0:0:0:
42,32,61329,5,2,0:0:0:0:
262,106,61517,1,0,0:0:0:0:
82,258,61704,1,8,0:0:0:0:
42,32,61892,1,0,0:0:0:0:
349,114,62079,2,0,P|335:156|304:188,1,90,2|0,0:0|0:0,0:0:0:0:
30,150,62454,1,8,0:0:0:0:
30,150,62642,6,0,P|70:162|126:154,1,90,0|2,0:0|0:0,0:0:0:0:
338,74,63017,1,0,0:0:0:0:
174,74,63204,1,8,0:0:0:0:
255,216,63392,1,0,0:0:0:0:
256,16,63579,5,2,0:0:0:0:
256,16,63673,1,8,0:0:0:0:
256,16,63767,1,0,0:0:0:0:
152,192,63954,1,8,0:0:0:0:
360,192,64142,1,8,0:0:0:0:
360,192,64235,1,8,0:0:0:0:
360,192,64329,6,0,P|370:244|352:296,1,90,4|0,0:0|0:0,0:0:0:0:
150,279,64704,1,8,0:0:0:0:
360,192,64892,1,0,0:0:0:0:
150,279,65079,2,0,P|141:235|152:192,1,90,2|0,0:0|0:0,0:0:0:0:
256,16,65454,1,8,0:0:0:0:
256,16,65642,6,0,P|275:55|277:100,1,90,2|2,0:1|0:0,0:0:0:0:
394,90,66017,2,0,P|391:134|370:173,1,90,2|8,0:1|0:0,0:0:0:0:
151,191,66392,2,0,P|197:181|239:188,1,90,2|2,0:1|0:0,0:0:0:0:
262,203,66673,1,8,0:0:0:0:
282,226,66767,1,0,0:0:0:0:
66,156,66954,2,0,P|58:198|73:240,1,90,8|0,0:0|0:0,0:0:0:0:
129,24,67329,6,0,P|167:104|151:191,1,180,2|8,0:0|0:0,0:0:0:0:
81,361,67892,1,0,0:0:0:0:
8,288,68079,2,0,P|48:264|112:264,1,90,2|0,0:0|0:0,0:0:0:0:
328,284,68454,1,8,0:0:0:0:
266,199,68642,6,0,P|235:236|224:295,1,90,2|2,0:1|0:0,0:0:0:0:
366,190,69017,2,0,P|372:144|350:94,1,90,2|8,0:1|0:0,0:0:0:0:
212,16,69392,1,2,0:1:0:0:
176,152,69579,1,2,0:0:0:0:
176,152,69673,1,8,0:0:0:0:
176,152,69767,1,0,0:0:0:0:
440,24,69954,1,8,0:0:0:0:
348,117,70142,6,0,P|332:73|344:16,1,90,0|2,0:0|0:0,0:0:0:0:
454,136,70517,1,0,0:0:0:0:
284,348,70704,1,8,0:0:0:0:
249,243,70892,2,0,P|318:243|368:277,1,90,0|2,0:0|0:0,0:0:0:0:
184,320,71267,1,0,0:0:0:0:
84,96,71454,1,8,0:0:0:0:
8,224,71642,6,0,P|-7:183|0:136,1,90,0|2,0:0|0:0,0:0:0:0:
168,54,72017,1,0,0:0:0:0:
184,320,72204,1,8,0:0:0:0:
108,224,72392,2,0,L|75:336,1,90,0|2,0:0|0:0,0:0:0:0:
73,338,72673,1,8,0:0:0:0:
64,367,72767,1,0,0:0:0:0:
269,276,72954,2,0,P|280:319|269:363,1,90,8|0,0:0|0:0,0:0:0:0:
108,224,73329,5,2,0:0:0:0:
282,52,73517,1,0,0:0:0:0:
344,288,73704,1,8,0:0:0:0:
108,224,73892,1,0,0:0:0:0:
355,8,74079,2,0,P|366:65|345:111,1,90,2|0,0:0|0:0,0:0:0:0:
166,55,74454,1,8,0:0:0:0:
166,55,74642,1,0,0:0:0:0:
279,276,74829,5,2,0:0:0:0:
279,276,74923,1,8,0:0:0:0:
279,276,75017,1,0,0:0:0:0:
160,151,75204,1,8,0:0:0:0:
112,316,75392,1,8,0:0:0:0:
112,316,75485,1,8,0:0:0:0:
112,316,75579,5,2,0:0:0:0:
279,276,75767,1,8,0:0:0:0:
80,216,75954,1,10,0:0:0:0:
62,184,76047,1,8,0:0:0:0:
56,149,76142,1,8,0:0:0:0:
63,114,76235,1,8,0:0:0:0:
81,83,76329,6,0,L|176:52,1,90,6|0,0:0|0:0,0:0:0:0:
347,68,76704,1,8,0:0:0:0:
331,167,76892,1,0,0:0:0:0:
270,5,77079,1,2,0:0:0:0:
440,32,77267,1,0,0:0:0:0:
331,167,77454,1,8,0:0:0:0:
232,119,77642,6,0,P|220:172|241:228,1,90,0|2,0:0|0:0,0:0:0:0:
331,167,78017,1,0,0:0:0:0:
413,353,78204,1,8,0:0:0:0:
472,252,78392,1,0,0:0:0:0:
280,332,78579,1,2,0:0:0:0:
280,332,78673,2,0,P|240:324|176:336,1,90,8|0,0:0|0:0,0:0:0:0:
145,359,78954,2,0,P|116:298|132:226,1,135,8|0,0:0|0:0,0:0:0:0:
161,195,79329,6,0,L|137:87,1,90,4|0,0:0|0:0,0:0:0:0:
89,8,79704,1,8,0:0:0:0:
12,120,79892,1,0,0:0:0:0:
12,120,79985,1,0,0:0:0:0:
12,120,80079,1,2,0:0:0:0:
89,8,80267,1,0,0:0:0:0:
230,146,80454,2,0,P|237:115|223:59,1,90,8|0,0:0|0:0,0:0:0:0:
72,200,80829,6,0,P|116:191|161:195,1,90,2|0,0:0|0:0,0:0:0:0:
88,356,81204,2,0,P|44:365|0:361,1,90,8|0,0:0|0:0,0:0:0:0:
164,288,81579,1,2,0:0:0:0:
164,288,81673,2,0,P|214:291|256:324,1,90,8|0,0:0|0:0,0:0:0:0:
276,352,81954,2,0,P|348:356|412:308,1,135,8|0,0:0|0:0,0:0:0:0:
428,284,82329,6,0,L|404:180,1,90,4|0,0:0|0:0,0:0:0:0:
266,45,82705,1,8,0:0:0:0:
292,146,82892,1,0,0:0:0:0:
393,121,83080,1,2,0:0:0:0:
367,20,83267,1,0,0:0:0:0:
56,65,83454,1,8,0:0:0:0:
145,11,83642,6,0,P|161:67|149:111,1,90,0|2,0:0|0:0,0:0:0:0:
8,192,84017,2,0,P|40:200|104:196,1,90,0|8,0:0|0:0,0:0:0:0:
292,146,84392,1,0,0:0:0:0:
384,276,84579,1,2,0:0:0:0:
384,276,84673,2,0,P|344:297|295:299,1,90,8|0,0:0|0:0,0:0:0:0:
259,272,84954,2,0,P|191:256|107:296,1,135,8|0,0:0|0:0,0:0:0:0:
89,304,85329,6,0,L|49:216,1,90,2|0,0:0|0:0,0:0:0:0:
159,79,85704,2,0,L|151:169,1,90,8|0,0:0|0:0,0:0:0:0:
12,120,86079,2,0,L|20:30,1,90,2|0,0:0|0:0,0:0:0:0:
272,104,86454,1,8,0:0:0:0:
159,79,86642,1,0,0:0:0:0:
328,4,86829,5,2,0:0:0:0:
440,300,87017,1,8,0:0:0:0:
484,144,87204,1,8,0:0:0:0:
484,144,87298,1,8,0:0:0:0:
484,144,87392,1,2,0:0:0:0:
284,256,87579,1,8,0:0:0:0:
328,100,87767,1,8,0:0:0:0:
328,100,87860,1,8,0:0:0:0:
328,100,87954,1,2,0:0:0:0:
440,300,88142,1,8,0:0:0:0:
210,187,88329,6,0,P|188:265|268:362,1,180,2|0,0:0|0:0,0:0:0:0:
284,256,88892,2,0,P|345:308|467:277,1,180,2|0,0:0|0:0,0:0:0:0:
493,106,89454,2,0,P|412:138|378:219,1,180,2|0,0:0|0:0,0:0:0:0:
511,266,90017,6,0,P|536:182|493:106,1,180,2|0,0:0|0:0,0:0:0:0:
392,120,90579,2,0,P|340:120|288:96,1,90,2|0,0:0|0:0,0:0:0:0:
360,16,90954,2,0,P|412:16|464:40,1,90,2|0,0:0|0:0,0:0:0:0:
230,173,91329,6,0,P|205:106|270:13,1,180,2|2,0:0|0:0,0:0:0:0:
392,120,91892,2,0,P|417:187|352:280,1,180,2|0,0:0|0:0,0:0:0:0:
218,328,92454,2,0,P|263:272|376:282,1,180,2|2,0:0|0:0,0:0:0:0:
313,362,93017,5,2,0:0:0:0:
415,363,93204,1,0,0:0:0:0:
313,362,93391,1,0,0:0:0:0:
365,274,93579,1,2,0:0:0:0:
313,362,93767,1,0,0:0:0:0:
213,184,93954,1,8,0:0:0:0:
213,184,94329,6,0,L|96:176,1,90,4|0,0:0|0:0,0:0:0:0:
256,96,94704,1,8,0:0:0:0:
170,272,94892,1,0,0:0:0:0:
170,272,94985,1,0,0:0:0:0:
170,272,95079,2,0,L|53:264,1,90,2|0,0:0|0:0,0:0:0:0:
0,88,95454,1,8,0:0:0:0:
0,88,95642,6,0,P|-5:132|6:175,1,90,0|2,0:0|0:0,0:0:0:0:
256,96,96017,1,0,0:0:0:0:
180,23,96204,2,0,P|154:68|157:124,1,90,8|0,0:0|0:0,0:0:0:0:
328,36,96579,2,0,P|372:28|416:36,1,90,2|0,0:0|0:0,0:0:0:0:
508,100,96954,1,8,0:0:0:0:
344,268,97142,1,0,0:0:0:0:
344,268,97235,1,0,0:0:0:0:
344,268,97329,5,2,0:0:0:0:
372,168,97517,1,0,0:0:0:0:
512,330,97704,1,8,0:0:0:0:
410,347,97892,1,0,0:0:0:0:
503,240,98079,2,0,L|512:329,1,90,2|0,0:0|0:0,0:0:0:0:
376,172,98454,1,8,0:0:0:0:
376,172,98642,6,0,L|385:83,1,90,0|2,0:0|0:0,0:0:0:0:
192,164,99017,2,0,P|248:180|292:172,1,90,0|8,0:0|0:0,0:0:0:0:
460,124,99392,1,0,0:0:0:0:
352,292,99579,1,2,0:0:0:0:
352,292,99673,2,0,P|296:284|232:308,1,90,8|8,0:0|0:0,0:0:0:0:
220,320,99954,2,0,L|116:308,1,90,8|8,0:3|0:3,0:0:0:0:
6,175,100329,6,0,P|-12:256|36:360,1,180,6|0,0:0|0:0,0:0:0:0:
69,238,100892,2,0,P|113:161|194:126,1,180,2|0,0:0|0:0,0:0:0:0:
354,186,101454,2,0,P|271:182|183:109,1,180,2|0,0:0|0:0,0:0:0:0:
326,18,102017,6,0,P|364:91|344:204,1,180,2|0,0:0|0:0,0:0:0:0:
243,40,102579,2,0,P|189:27|133:50,1,90,2|0,0:0|0:0,0:0:0:0:
108,122,102954,2,0,P|162:135|218:112,1,90,2|0,0:0|0:0,0:0:0:0:
57,35,103329,6,0,P|20:74|41:194,1,180,2|0,0:0|0:0,0:0:0:0:
175,283,103892,2,0,P|222:210|194:127,1,180,2|0,0:0|0:0,0:0:0:0:
79,311,104454,2,0,P|139:373|226:366,1,180,2|2,0:0|0:0,0:0:0:0:
308,300,105017,5,2,0:0:0:0:
404,340,105204,1,2,0:0:0:0:
496,188,105392,1,8,0:3:0:0:
496,188,105485,1,8,0:3:0:0:
496,188,105579,1,2,0:0:0:0:
496,292,105767,1,8,0:3:0:0:
394,90,105954,1,12,0:0:0:0:
394,90,106329,6,0,P|406:143|392:188,1,90,6|0,0:0|0:0,0:0:0:0:
476,44,106704,1,8,0:0:0:0:
313,137,106892,1,0,0:0:0:0:
313,137,106985,1,0,0:0:0:0:
313,137,107079,2,0,L|197:125,1,90,2|0,0:0|0:0,0:0:0:0:
16,112,107454,1,8,0:0:0:0:
70,199,107642,6,0,P|107:158|117:114,1,90,0|2,0:0|0:0,0:0:0:0:
0,23,108017,1,0,0:0:0:0:
0,23,108204,2,0,L|20:131,1,90,8|0,0:0|0:0,0:0:0:0:
185,44,108579,2,0,P|126:19|82:23,1,90,2|0,0:0|0:0,0:0:0:0:
0,260,108954,1,8,0:0:0:0:
116,260,109142,1,0,0:0:0:0:
116,260,109235,1,0,0:0:0:0:
116,260,109329,5,2,0:0:0:0:
224,304,109517,1,0,0:0:0:0:
174,160,109704,1,8,0:0:0:0:
224,304,109892,1,0,0:0:0:0:
271,110,110079,2,0,P|282:168|275:195,1,90,2|0,0:0|0:0,0:0:0:0:
84,160,110454,1,8,0:0:0:0:
84,160,110642,6,0,L|184:160,1,90,0|2,0:0|0:0,0:0:0:0:
386,160,111017,1,8,0:0:0:0:
386,160,111110,1,8,0:0:0:0:
386,160,111204,1,2,0:0:0:0:
201,54,111392,5,8,0:0:0:0:
413,54,111579,1,2,0:0:0:0:
201,54,111767,1,8,0:0:0:0:
307,239,111955,1,2,0:0:0:0:
201,54,112142,1,8,0:0:0:0:
117,207,112329,6,0,P|101:159|119:98,1,90,6|0,0:0|0:0,0:0:0:0:
386,160,112704,1,8,0:0:0:0:
288,36,112892,2,0,L|297:130,1,90,0|2,0:0|0:0,0:0:0:0:
307,239,113267,1,0,0:0:0:0:
455,97,113454,2,0,P|478:147|470:198,1,90,8|0,0:0|0:0,0:0:0:0:
307,239,113829,6,0,P|360:232|407:247,1,90,2|0,0:0|0:0,0:0:0:0:
244,384,114204,1,8,0:0:0:0:
212,206,114392,2,0,L|230:311,1,90,0|2,0:0|0:0,0:0:0:0:
399,244,114767,1,0,0:0:0:0:
399,244,114954,2,0,L|381:139,1,90,8|0,0:0|0:0,0:0:0:0:
195,103,115329,6,0,P|255:111|336:28,1,180,2|8,0:0|0:0,0:0:0:0:
137,21,115892,2,0,P|100:68|131:180,1,180
237,11,116454,1,8,0:0:0:0:
361,160,116642,1,0,0:0:0:0:
307,239,116829,5,2,0:0:0:0:
229,185,117017,1,0,0:0:0:0:
386,293,117204,1,8,0:0:0:0:
253,317,117392,1,0,0:0:0:0:
361,160,117579,1,2,0:0:0:0:
386,293,117767,1,0,0:0:0:0:
168,134,117954,2,0,P|150:181|168:238,1,90,8|0,0:0|0:0,0:0:0:0:
272,62,118329,6,0,P|224:20|104:24,1,180,6|8,0:0|0:0,0:0:0:0:
36,164,118892,1,0,0:0:0:0:
36,164,119079,2,0,L|4:64,1,90,2|0,0:0|0:0,0:0:0:0:
229,185,119454,2,0,P|169:181|117:197,1,90,8|0,0:0|0:0,0:0:0:0:
44,368,119829,6,0,L|80:256,1,90,2|0,0:0|0:0,0:0:0:0:
136,88,120204,1,8,0:0:0:0:
229,185,120392,2,0,P|316:206|401:179,1,180
336,8,120954,2,0,P|325:52|344:110,1,90,8|0,0:0|0:0,0:0:0:0:
512,216,121329,6,0,L|492:116,1,90,2|0,0:0|0:0,0:0:0:0:
303,177,121704,1,8,0:0:0:0:
303,177,121892,2,0,L|283:277,1,90,0|2,0:0|0:0,0:0:0:0:
388,214,122267,1,0,0:0:0:0:
200,228,122454,2,0,L|98:228,1,90,8|0,0:0|0:0,0:0:0:0:
150,50,122829,6,0,P|170:90|171:135,1,90,2|0,0:0|0:0,0:0:0:0:
25,292,123204,2,0,P|6:253|5:208,1,90,8|0,0:0|0:0,0:0:0:0:
200,228,123579,1,2,0:0:0:0:
183,336,123767,1,0,0:0:0:0:
497,277,123954,1,12,0:0:0:0:
497,277,124329,5,10,0:0:0:0:
350,326,124517,1,8,0:0:0:0:
497,277,124704,5,8,0:0:0:0:
307,239,124892,1,8,0:0:0:0:
497,277,125079,5,8,0:0:0:0:
321,124,125267,1,8,0:0:0:0:
497,277,125454,5,8,0:0:0:0:
410,21,125642,1,8,0:0:0:0:
243,172,125830,5,10,0:0:0:0:
208,181,125923,1,8,0:0:0:0:
171,178,126017,1,8,0:0:0:0:
139,164,126111,1,8,0:0:0:0:
113,140,126205,2,0,P|71:127|-2:142,1,90,12|0,0:0|0:0,0:0:0:0:
54,271,126579,1,8,0:0:0:0:
54,271,126673,1,8,0:0:0:0:
54,271,126767,2,0,L|39:378,1,90,8|8,0:3|0:3,0:0:0:0:
284,256,127142,1,8,0:0:0:0:
284,256,127236,1,8,0:0:0:0:
284,256,127330,6,0,L|391:271,1,90,4|0,0:0|0:0,0:0:0:0:
512,104,127704,1,8,0:0:0:0:
360,184,127892,1,0,0:0:0:0:
512,104,128079,2,0,L|528:200,1,90,2|0,0:0|0:0,0:0:0:0:
411,59,128454,1,8,0:0:0:0:
411,59,128642,6,0,P|368:48|308:60,1,90,2|2,0:1|0:0,0:0:0:0:
140,152,129017,1,2,0:1:0:0:
258,152,129204,1,8,0:0:0:0:
199,50,129392,1,2,0:1:0:0:
284,256,129579,1,2,0:0:0:0:
284,256,129673,1,8,0:0:0:0:
284,256,129767,1,0,0:0:0:0:
63,109,129954,2,0,P|55:173|83:221,1,90,8|0,0:0|0:0,0:0:0:0:
218,328,130329,6,0,L|118:328,1,90,2|0,0:0|0:0,0:0:0:0:
284,256,130704,1,8,0:0:0:0:
305,374,130892,1,0,0:0:0:0:
468,303,131079,2,0,P|425:293|381:298,1,90,2|0,0:0|0:0,0:0:0:0:
499,117,131454,1,8,0:0:0:0:
499,117,131642,6,0,L|516:216,1,90,2|2,0:1|0:0,0:0:0:0:
320,96,132017,2,0,L|337:-3,1,90,2|8,0:1|0:0,0:0:0:0:
404,154,132392,1,2,0:1:0:0:
260,240,132579,1,2,0:0:0:0:
260,240,132673,1,8,0:0:0:0:
260,240,132767,1,0,0:0:0:0:
96,36,132954,1,8,0:0:0:0:
196,119,133142,6,0,P|214:78|213:33,1,90,0|2,0:0|0:0,0:0:0:0:
96,36,133517,1,0,0:0:0:0:
218,328,133704,1,8,0:0:0:0:
76,264,133892,2,0,P|124:248|164:250,1,90,0|2,0:0|0:0,0:0:0:0:
280,384,134267,1,0,0:0:0:0:
432,86,134454,1,8,0:0:0:0:
268,164,134642,6,0,L|358:157,1,90,0|2,0:0|0:0,0:0:0:0:
496,256,135017,1,0,0:0:0:0:
432,86,135204,1,8,0:0:0:0:
260,240,135392,2,0,L|160:232,1,90,0|2,0:0|0:0,0:0:0:0:
140,229,135673,1,8,0:0:0:0:
110,227,135767,1,0,0:0:0:0:
233,2,135954,2,0,L|253:114,1,90,8|0,0:0|0:0,0:0:0:0:
109,68,136329,5,2,0:0:0:0:
344,28,136517,1,0,0:0:0:0:
109,68,136704,1,8,0:0:0:0:
342,169,136892,1,0,0:0:0:0:
32,30,137079,2,0,P|26:85|48:130,1,90,2|0,0:0|0:0,0:0:0:0:
344,28,137454,1,8,0:0:0:0:
344,28,137642,1,0,0:0:0:0:
276,240,137829,5,2,0:0:0:0:
276,240,137923,1,8,0:0:0:0:
276,240,138017,1,0,0:0:0:0:
399,101,138204,1,8,0:0:0:0:
248,90,138392,1,8,0:0:0:0:
248,90,138485,1,8,0:0:0:0:
248,90,138580,1,0,0:0:0:0:
427,251,138767,1,8,0:0:0:0:
192,199,138954,2,0,P|184:259|204:299,1,90,8|0,0:0|0:0,0:0:0:0:
248,90,139329,6,0,P|209:78|151:84,1,90,4|0,0:0|0:0,0:0:0:0:
68,168,139704,1,8,0:0:0:0:
0,36,139892,1,0,0:0:0:0:
68,168,140079,2,0,P|68:220|52:264,1,90,2|0,0:0|0:0,0:0:0:0:
160,81,140454,1,8,0:0:0:0:
160,81,140642,6,0,P|186:126|194:172,1,90,2|2,0:1|0:0,0:0:0:0:
8,324,141017,2,0,P|56:332|116:320,1,90,2|8,0:1|0:0,0:0:0:0:
323,239,141392,2,0,P|275:231|215:243,1,90,2|2,0:1|0:0,0:0:0:0:
209,254,141673,1,8,0:0:0:0:
194,281,141767,1,0,0:0:0:0:
401,192,141954,2,0,P|413:225|400:287,1,90,8|0,0:0|0:0,0:0:0:0:
150,181,142329,6,0,P|231:143|320:145,1,180,2|8,0:0|0:0,0:0:0:0:
487,232,142892,1,0,0:0:0:0:
512,145,143079,2,0,L|487:232,1,90,2|0,0:0|0:0,0:0:0:0:
332,48,143454,1,8,0:0:0:0:
401,192,143642,6,0,L|429:96,1,90,2|2,0:1|0:0,0:0:0:0:
332,48,144017,1,2,0:1:0:0:
323,239,144204,1,8,0:0:0:0:
162,135,144392,2,0,P|206:121|249:124,1,90,2|2,0:1|0:0,0:0:0:0:
273,137,144673,1,8,0:0:0:0:
295,158,144767,1,0,0:0:0:0:
32,296,144954,1,8,0:0:0:0:
125,238,145142,6,0,P|140:281|129:340,1,90,0|2,0:0|0:0,0:0:0:0:
60,168,145517,1,0,0:0:0:0:
236,364,145704,1,8,0:0:0:0:
339,271,145892,2,0,P|296:258|252:266,1,90,0|2,0:0|0:0,0:0:0:0:
368,352,146267,1,0,0:0:0:0:
272,84,146454,1,8,0:0:0:0:
380,160,146642,6,0,P|391:119|379:67,1,90,0|2,0:0|0:0,0:0:0:0:
304,0,147017,1,0,0:0:0:0:
28,104,147204,1,8,0:0:0:0:
190,47,147392,2,0,P|208:104|198:154,1,90,0|2,0:0|0:0,0:0:0:0:
195,164,147673,1,8,0:0:0:0:
172,186,147767,1,0,0:0:0:0:
28,104,147954,2,0,L|116:85,1,90,8|0,0:0|0:0,0:0:0:0:
308,44,148329,5,2,0:0:0:0:
200,280,148517,1,0,0:0:0:0:
192,24,148704,1,8,0:0:0:0:
316,300,148892,1,0,0:0:0:0:
128,96,149079,1,2,0:0:0:0:
128,96,149173,1,8,0:0:0:0:
128,96,149267,2,0,P|168:118|217:117,1,90,0|2,0:0|0:0,0:0:0:0:
372,48,149642,6,0,P|399:94|400:143,1,90,12|2,0:0|0:0,0:0:0:0:
316,300,150017,1,8,0:3:0:0:
300,129,150204,1,8,0:3:0:0:
456,200,150392,1,2,0:0:0:0:
456,200,150485,1,8,0:0:0:0:
456,200,150579,1,8,0:0:0:0:
236,220,150767,1,8,0:0:0:0:
215,249,150860,1,8,0:0:0:0:
204,283,150954,1,10,0:0:0:0:
205,319,151048,1,8,0:0:0:0:
216,353,151142,1,8,0:0:0:0:
484,328,151329,6,0,P|404:290|316:300,1,180,4|8,0:0|0:0,0:0:0:0:
220,356,151892,1,0,0:0:0:0:
220,356,152079,2,0,L|108:343,1,90,2|0,0:0|0:0,0:0:0:0:
224,184,152454,2,0,P|242:224|241:269,1,90,8|0,0:0|0:0,0:0:0:0:
70,234,152829,6,0,L|94:122,1,90,2|0,0:0|0:0,0:0:0:0:
118,14,153204,1,8,0:0:0:0:
224,184,153392,1,0,0:0:0:0:
270,82,153579,2,0,P|220:72|175:84,1,90,2|0,0:0|0:0,0:0:0:0:
351,13,153954,2,0,L|370:133,1,90,8|0,0:0|0:0,0:0:0:0:
396,280,154329,5,8,0:0:0:0:
396,280,154423,1,8,0:3:0:0:
396,280,154517,1,0,0:0:0:0:
262,194,154704,1,2,0:0:0:0:
107,230,154892,1,8,0:0:0:0:
107,230,154985,1,8,0:0:0:0:
107,230,155079,1,8,0:0:0:0:
224,308,155267,5,8,0:0:0:0:
224,308,155360,1,8,0:0:0:0:
224,308,155454,1,2,0:0:0:0:
190,120,155642,1,8,0:0:0:0:
40,343,155829,1,8,0:0:0:0:
40,343,155923,1,8,0:0:0:0:
40,343,156017,1,0,0:0:0:0:
4,152,156204,1,2,0:0:0:0:
256,205,156392,5,8,0:0:0:0:
281,175,156485,1,8,0:0:0:0:
294,139,156579,1,10,0:0:0:0:
293,101,156673,1,8,0:0:0:0:
279,65,156767,1,8,0:0:0:0:
254,37,156860,1,8,0:0:0:0:
219,20,156954,1,2,0:0:0:0:
4,152,157142,1,8,0:0:0:0:
190,120,157329,6,0,P|209:206|139:279,1,180,6|8,0:0|0:0,0:0:0:0:
293,101,157892,1,0,0:0:0:0:
293,101,158079,2,0,P|336:96|384:104,1,90,2|0,0:0|0:0,0:0:0:0:
500,288,158454,2,0,P|515:242|503:190,1,90,8|0,0:0|0:0,0:0:0:0:
321,311,158829,6,0,L|499:288,1,180,2|8,0:0|0:0,0:0:0:0:
500,124,159392,1,0,0:0:0:0:
340,228,159579,2,0,L|251:213,1,90,2|0,0:0|0:0,0:0:0:0:
372,45,159954,2,0,P|387:86|383:131,1,90,8|0,0:0|0:0,0:0:0:0:
137,58,160329,5,8,0:0:0:0:
137,58,160423,1,8,0:3:0:0:
137,58,160517,1,0,0:0:0:0:
304,96,160704,1,8,0:3:0:0:
187,221,160892,1,8,0:0:0:0:
187,221,160985,1,8,0:0:0:0:
187,221,161079,1,8,0:0:0:0:
232,28,161267,5,8,0:3:0:0:
292,244,161454,1,8,0:0:0:0:
292,244,161548,1,8,0:3:0:0:
292,244,161642,1,8,0:0:0:0:
74,187,161829,1,2,0:0:0:0:
304,96,162017,5,8,0:0:0:0:
340,109,162110,1,8,0:0:0:0:
373,132,162204,1,10,0:0:0:0:
398,163,162298,1,8,0:0:0:0:
413,200,162392,1,8,0:0:0:0:
417,240,162485,1,8,0:0:0:0:
412,279,162579,1,10,0:0:0:0:
395,315,162673,1,8,0:0:0:0:
369,346,162767,6,0,L|312:361,1,45,8|0,0:0|0:0,0:0:0:0:
232,28,163142,1,0,0:0:0:0:
294,181,163329,6,0,P|310:139|303:95,1,90,6|0,0:1|0:0,0:0:0:0:
137,58,163704,1,8,0:0:0:0:
104,155,163892,2,0,P|161:158|202:135,1,90,2|2,0:1|0:0,0:0:0:0:
37,78,164267,1,0,0:0:0:0:
71,251,164454,1,10,0:1:0:0:
4,174,164642,5,0,0:0:0:0:
248,236,164829,1,2,0:0:0:0:
165,306,165017,1,2,0:1:0:0:
189,144,165204,1,8,0:0:0:0:
363,211,165392,1,0,0:0:0:0:
295,65,165579,2,0,P|281:107|288:152,1,90,2|0,0:1|0:0,0:0:0:0:
444,240,165954,1,8,0:0:0:0:
472,56,166142,6,0,L|496:164,1,90,0|2,0:0|0:0,0:0:0:0:
392,348,166517,2,0,L|368:240,1,90,0|8,0:0|0:0,0:0:0:0:
295,65,166892,2,0,P|256:70|208:118,1,90,0|2,2:0|2:0,2:0:0:0:
144,216,167267,1,0,0:0:0:0:
144,216,167360,1,0,0:0:0:0:
144,216,167454,1,8,0:1:0:0:
52,100,167642,1,0,0:0:0:0:
232,184,167829,5,2,0:0:0:0:
47,268,168017,1,0,0:0:0:0:
232,184,168204,1,8,0:0:0:0:
47,268,168392,2,0,P|22:232|18:187,1,90
29,139,168673,1,8,0:0:0:0:
29,139,168767,1,0,0:0:0:0:
136,40,168954,2,0,L|151:128,1,90,8|0,0:0|0:0,0:0:0:0:
392,106,169329,6,0,P|300:124|220:80,1,180,6|8,0:0|0:0,0:0:0:0:
464,36,169892,2,0,L|482:131,1,90,0|2,0:0|0:0,0:0:0:0:
488,168,170173,1,8,0:0:0:0:
488,168,170267,1,0,0:0:0:0:
348,282,170454,2,0,P|412:290|456:274,1,90,8|0,0:0|0:0,0:0:0:0:
392,106,170829,5,0,0:0:0:0:
284,136,171017,1,0,0:0:0:0:
344,4,171204,1,8,0:0:0:0:
455,195,171392,2,0,L|436:282,1,90,0|2,0:0|0:0,0:0:0:0:
426,326,171673,1,8,0:0:0:0:
426,326,171767,1,0,0:0:0:0:
248,244,171954,2,0,P|281:215|325:205,1,90,8|0,0:0|0:0,0:0:0:0:
146,340,172329,6,0,P|104:256|120:156,1,180,2|8,0:0|0:0,0:0:0:0:
238,16,172892,2,0,B|266:64|250:124,1,90,0|2,0:0|0:0,0:0:0:0:
246,144,173173,1,8,0:0:0:0:
246,144,173267,1,0,0:0:0:0:
80,72,173454,2,0,L|170:72,1,90,8|0,0:0|0:0,0:0:0:0:
395,97,173829,6,0,P|308:85|246:145,1,180,6|8,0:0|0:0,0:0:0:0:
480,136,174392,1,0,0:0:0:0:
466,47,174579,2,0,L|479:135,1,90,2|0,0:0|0:0,0:0:0:0:
260,233,174954,2,0,L|246:144,1,90,8|0,0:0|0:0,0:0:0:0:
404,212,175329,5,2,0:0:0:0:
404,212,175423,1,8,0:0:0:0:
404,212,175517,1,8,0:0:0:0:
238,16,175704,1,2,0:0:0:0:
238,16,175798,1,8,0:0:0:0:
238,16,175892,1,8,0:0:0:0:
31,151,176079,5,2,0:0:0:0:
52,172,176173,1,8,0:0:0:0:
79,187,176266,1,8,0:0:0:0:
109,197,176360,1,8,0:3:0:0:
139,199,176454,1,10,0:0:0:0:
170,196,176547,1,8,0:3:0:0:
199,184,176641,1,8,0:3:0:0:
225,167,176735,1,8,0:3:0:0:
246,144,176829,1,4,0:0:0:0:
173,37,188829,5,2,0:0:0:0:
189,129,189204,1,2,0:0:0:0:
96,144,189579,1,2,0:0:0:0:
80,52,189954,1,2,0:0:0:0:
411,109,190329,5,2,0:0:0:0:
319,125,190704,1,2,0:0:0:0:
304,32,191079,1,2,0:0:0:0:
396,16,191454,1,2,0:0:0:0:
339,347,191829,5,2,0:0:0:0:
323,255,192204,1,2,0:0:0:0:
416,239,192579,1,2,0:0:0:0:
432,332,192954,1,2,0:0:0:0:
101,275,193329,5,2,0:0:0:0:
193,259,193704,1,2,0:0:0:0:
208,352,194079,1,2,0:0:0:0:
116,368,194454,1,2,0:0:0:0:
319,125,194829,5,2,0:0:0:0:
323,255,195204,1,2,0:0:0:0:
193,259,195579,1,2,0:0:0:0:
189,129,195954,1,2,0:0:0:0:
416,239,196329,5,2,0:0:0:0:
304,32,196704,1,2,0:0:0:0:
96,144,197079,1,2,0:0:0:0:
208,352,197454,1,2,0:0:0:0:
396,16,197829,5,2,0:0:0:0:
432,332,198204,1,2,0:0:0:0:
116,368,198579,1,2,0:0:0:0:
80,52,198954,1,2,0:0:0:0:
319,42,199329,6,0,L|308:132,1,90,2|0,0:0|0:0,0:0:0:0:
204,132,199704,2,0,L|193:42,1,90,2|0,0:0|0:0,0:0:0:0:
411,141,200079,2,0,L|376:225,1,90,2|0,0:0|0:0,0:0:0:0:
136,225,200454,2,0,L|102:141,1,90,2|0,0:0|0:0,0:0:0:0:
306,345,200829,5,12,0:0:0:0:
306,345,201017,1,2,0:0:0:0:
306,345,201205,1,2,0:0:0:0:
207,38,201391,1,12,0:0:0:0:
207,38,201579,1,2,0:0:0:0:
207,38,201767,1,2,0:0:0:0:
100,241,201954,5,12,0:0:0:0:
412,141,202142,1,2,0:0:0:0:
256,192,202329,5,12,0:0:0:0:
256,192,202423,1,8,0:0:0:0:
256,192,202517,1,8,0:0:0:0:
289,31,202704,1,8,0:0:0:0:
221,351,202892,1,12,0:0:0:0:
221,351,203267,5,2,0:0:0:0:
256,192,203454,1,2,0:0:0:0:
376,301,203642,1,0,0:0:0:0:
173,236,203829,6,0,P|165:174|188:126,1,90,4|0,0:0|0:0,0:0:0:0:
341,220,204204,1,8,0:0:0:0:
402,58,204392,1,0,0:0:0:0:
278,34,204579,2,0,P|281:94|307:137,1,90,2|0,0:0|0:0,0:0:0:0:
480,176,204954,1,8,0:0:0:0:
480,176,205142,6,0,L|500:64,1,90,2|2,0:1|0:0,0:0:0:0:
293,120,205517,2,0,L|273:232,1,90,2|8,0:1|0:0,0:0:0:0:
428,340,205892,2,0,L|412:251,1,90,2|2,0:1|0:0,0:0:0:0:
406,221,206173,1,8,0:0:0:0:
401,191,206266,1,0,0:0:0:0:
219,275,206454,2,0,P|191:223|203:163,1,90,8|0,0:0|0:0,0:0:0:0:
402,58,206829,6,0,L|302:58,1,90,2|0,0:0|0:0,0:0:0:0:
104,58,207204,1,8,0:0:0:0:
204,144,207392,1,0,0:0:0:0:
16,220,207579,2,0,P|0:180|8:116,1,90,2|0,0:0|0:0,0:0:0:0:
226,275,207954,1,8,0:0:0:0:
141,201,208142,6,0,P|118:239|113:283,1,90,2|2,0:1|0:0,0:0:0:0:
339,283,208517,2,0,P|334:239|311:201,1,90,2|8,0:1|0:0,0:0:0:0:
180,375,208892,2,0,L|270:375,1,90,2|2,0:1|0:0,0:0:0:0:
405,375,209267,1,0,0:0:0:0:
226,86,209454,1,8,0:0:0:0:
320,176,209642,6,0,P|336:140|324:76,1,90,0|2,0:0|0:0,0:0:0:0:
248,0,210017,1,0,0:0:0:0:
112,272,210204,1,8,0:0:0:0:
4,180,210392,2,0,P|-8:228|6:275,1,90,0|2,0:0|0:0,0:0:0:0:
116,140,210767,1,0,0:0:0:0:
270,375,210954,1,8,0:0:0:0:
353,277,211142,1,0,0:0:0:0:
227,254,211329,5,2,0:0:0:0:
227,254,211423,1,8,0:0:0:0:
227,254,211517,1,0,0:0:0:0:
469,254,211704,1,8,0:0:0:0:
348,99,211892,2,0,P|340:144|351:187,1,90,0|2,0:0|0:0,0:0:0:0:
448,64,212267,1,0,0:0:0:0:
205,148,212454,2,0,L|85:136,1,90,8|0,0:0|0:0,0:0:0:0:
256,32,212829,5,2,0:0:0:0:
348,268,213017,1,0,0:0:0:0:
97,229,213204,1,8,0:0:0:0:
256,32,213392,1,0,0:0:0:0:
411,328,213579,1,2,0:0:0:0:
411,328,213673,1,8,0:0:0:0:
411,328,213767,6,0,P|431:288|423:224,1,90,0|8,0:0|0:0,0:0:0:0:
263,39,214142,1,0,0:0:0:0:
263,39,214235,1,8,0:0:0:0:
263,39,214329,1,2,0:0:0:0:
323,264,214517,1,6,0:1:0:0:
172,35,214704,5,2,0:0:0:0:
232,260,214892,1,6,0:1:0:0:
81,31,215079,5,2,0:0:0:0:
81,31,215173,1,8,0:0:0:0:
81,31,215267,1,6,0:1:0:0:
141,256,215454,1,10,0:0:0:0:
139,295,215547,1,8,0:0:0:0:
122,330,215641,1,8,0:0:0:0:
92,355,215735,1,8,0:0:0:0:
56,364,215829,6,0,L|257:379,1,180,4|8,0:1|0:0,0:0:0:0:
412,240,216392,1,0,0:0:0:0:
329,314,216579,2,0,P|302:255|309:202,1,90,2|0,0:0|0:0,0:0:0:0:
362,19,216954,1,8,0:0:0:0:
362,19,217142,6,0,L|382:107,1,90,2|2,0:1|0:0,0:0:0:0:
130,107,217517,2,0,L|149:19,1,90,2|8,0:1|0:0,0:0:0:0:
256,192,217892,1,2,0:1:0:0:
256,32,218079,1,2,0:0:0:0:
256,32,218173,1,8,0:0:0:0:
256,32,218267,1,0,0:0:0:0:
212,259,218454,2,0,P|254:271|297:260,1,90,8|0,0:0|0:0,0:0:0:0:
440,48,218829,6,0,P|416:132|460:236,1,180,2|8,0:0|0:0,0:0:0:0:
356,20,219392,1,0,0:0:0:0:
356,20,219579,2,0,P|335:65|330:113,1,90,2|0,0:0|0:0,0:0:0:0:
380,272,219954,1,8,0:0:0:0:
161,322,220142,6,0,L|266:297,1,90,2|2,0:1|0:0,0:0:0:0:
291,291,220422,1,8,0:0:0:0:
291,291,220517,1,2,0:1:0:0:
164,176,220704,1,8,0:0:0:0:
84,368,220892,2,0,P|73:322|98:255,1,90,2|2,0:1|0:0,0:0:0:0:
164,176,221267,1,0,0:0:0:0:
432,220,221454,1,8,0:0:0:0:
321,148,221642,6,0,P|307:200|322:256,1,90,0|2,0:0|0:0,0:0:0:0:
392,304,222017,1,0,0:0:0:0:
256,32,222204,1,8,0:0:0:0:
191,148,222392,1,0,0:0:0:0:
321,148,222579,1,2,0:0:0:0:
321,148,222673,1,8,0:0:0:0:
321,148,222767,1,0,0:0:0:0:
127,74,222954,5,8,0:0:0:0:
392,194,223142,2,0,P|404:134|384:94,1,90,0|2,0:0|0:0,0:0:0:0:
256,32,223517,1,0,0:0:0:0:
256,280,223704,1,8,0:0:0:0:
256,32,223892,1,0,0:0:0:0:
120,194,224079,1,2,0:0:0:0:
120,194,224173,1,8,0:0:0:0:
120,194,224267,2,0,L|232:180,1,90,0|8,0:0|0:0,0:0:0:0:
381,161,224642,1,0,0:0:0:0:
256,280,224829,5,2,0:0:0:0:
256,32,225017,1,0,0:0:0:0:
470,155,225204,1,8,0:0:0:0:
256,280,225392,1,0,0:0:0:0:
336,3,225579,1,2,0:0:0:0:
336,3,225673,1,8,0:0:0:0:
336,3,225767,2,0,P|336:63|304:103,1,90,0|8,0:0|0:0,0:0:0:0:
27,108,226142,6,0,L|131:108,1,90,4|2,0:0|0:0,0:0:0:0:
395,108,226517,1,2,0:0:0:0:
256,280,226704,1,2,0:0:0:0:
256,280,226798,2,0,P|244:228|272:180,1,90,8|0,0:0|0:0,0:0:0:0:
300,168,227079,2,0,L|408:196,1,90,8|8,0:0|0:0,0:0:0:0:
215,358,227454,1,8,0:0:0:0:
188,329,227547,1,8,0:0:0:0:
168,296,227641,1,8,0:0:0:0:
155,259,227735,1,8,0:0:0:0:
151,220,227829,6,0,P|160:156|256:56,1,180,4|8,0:0|0:0,0:0:0:0:
331,16,228392,1,0,0:0:0:0:
468,124,228579,1,2,0:0:0:0:
468,124,228673,1,8,0:0:0:0:
468,124,228767,2,0,P|483:79|464:20,1,90,0|8,0:0|0:0,0:0:0:0:
331,16,229142,1,0,0:0:0:0:
359,143,229329,6,0,L|379:231,1,90,2|0,0:0|0:0,0:0:0:0:
483,307,229704,2,0,P|502:266|504:219,1,90,8|0,0:0|0:0,0:0:0:0:
356,356,230079,1,2,0:0:0:0:
356,356,230173,1,8,0:0:0:0:
356,356,230267,1,0,0:0:0:0:
208,265,230454,1,8,0:0:0:0:
356,356,230642,1,0,0:0:0:0:
208,265,230829,6,0,P|254:236|307:233,1,90,2|0,0:0|0:0,0:0:0:0:
101,229,231204,2,0,L|5:197,1,90,8|0,0:0|0:0,0:0:0:0:
171,87,231579,1,2,0:0:0:0:
171,87,231673,1,8,0:0:0:0:
171,87,231767,2,0,P|187:129|182:173,1,90,0|8,0:0|0:0,0:0:0:0:
387,52,232142,1,0,0:0:0:0:
288,22,232329,6,0,P|284:66|300:108,1,90,2|0,0:0|0:0,0:0:0:0:
484,152,232704,2,0,P|424:140|384:148,1,90,8|0,0:0|0:0,0:0:0:0:
270,317,233079,1,2,0:0:0:0:
270,317,233173,1,8,0:0:0:0:
270,317,233267,2,0,P|284:275|278:231,1,90,0|8,0:0|0:0,0:0:0:0:
110,8,233642,1,0,0:0:0:0:
83,105,233829,6,0,L|183:85,1,90,2|0,0:0|0:0,0:0:0:0:
288,120,234204,2,0,P|296:72|280:24,1,90,8|0,0:0|0:0,0:0:0:0:
182,173,234579,1,2,0:0:0:0:
277,230,234767,1,0,0:0:0:0:
151,355,234954,1,8,0:0:0:0:
322,380,235142,6,0,L|215:365,1,90,0|2,0:0|0:0,0:0:0:0:
277,230,235517,1,0,0:0:0:0:
392,332,235704,2,0,L|381:242,1,90,8|0,0:0|0:0,0:0:0:0:
355,47,236079,2,0,P|350:102|309:151,1,90,2|0,0:0|0:0,0:0:0:0:
256,64,236454,1,8,0:0:0:0:
381,242,236642,1,0,0:0:0:0:
472,181,236829,6,0,P|491:234|480:288,1,90,2|0,0:0|0:0,0:0:0:0:
308,152,237204,2,0,P|360:152|408:128,1,90,8|0,0:0|0:0,0:0:0:0:
512,20,237579,1,2,0:0:0:0:
512,20,237673,1,8,0:0:0:0:
512,20,237767,2,0,L|392:28,1,90,0|8,0:0|0:0,0:0:0:0:
192,32,238142,6,0,P|248:36|284:56,1,90,0|2,0:0|0:0,0:0:0:0:
72,148,238517,1,0,0:0:0:0:
89,59,238704,2,0,L|72:148,1,90,8|0,0:0|0:0,0:0:0:0:
239,352,239079,1,2,0:0:0:0:
239,352,239173,2,0,L|221:264,1,90,8|8,0:0|0:0,0:0:0:0:
189,213,239454,2,0,L|296:244,1,90,8|8,0:0|0:0,0:0:0:0:
510,306,239829,5,6,0:1:0:0:
400,184,240017,2,0,L|388:274,1,90,2|8,0:1|0:0,0:0:0:0:
510,306,240392,1,2,0:1:0:0:
388,170,240579,2,0,L|375:259,1,90,2|0,0:1|0:0,0:0:0:0:
510,306,240954,1,8,0:0:0:0:
335,105,241142,2,0,P|372:88|432:101,1,90,2|2,0:1|0:0,0:0:0:0:
510,306,241517,5,0,0:0:0:0:
510,306,241610,1,0,0:0:0:0:
510,306,241704,1,8,0:0:0:0:
392,372,241892,1,0,0:0:0:0:
510,306,242079,1,2,0:0:0:0:
444,188,242267,1,0,0:0:0:0:
510,306,242454,1,8,0:0:0:0:
392,372,242642,1,0,0:0:0:0:
510,306,242829,6,0,P|442:274|314:278,1,180,2|8,0:0|0:0,0:0:0:0:
164,364,243392,1,0,0:0:0:0:
220,236,243579,1,2,0:0:0:0:
220,236,243673,1,8,0:0:0:0:
220,236,243767,2,0,L|202:133,1,90,0|8,0:0|0:0,0:0:0:0:
4,32,244142,1,0,0:0:0:0:
112,96,244329,6,0,P|94:143|38:188,1,90,2|0,0:0|0:0,0:0:0:0:
208,28,244704,2,0,P|248:20|316:28,1,90,8|0,0:0|0:0,0:0:0:0:
472,144,245079,1,2,0:0:0:0:
472,144,245173,2,0,P|432:152|364:144,1,90,8|0,0:0|0:1,0:0:0:0:
336,129,245454,2,0,P|316:200|356:272,1,135,8|0,0:0|0:0,0:0:0:0:
380,288,245829,6,0,L|508:272,1,90,2|0,0:0|0:0,0:0:0:0:
292,360,246204,2,0,L|164:344,1,90,8|0,0:0|0:0,0:0:0:0:
30,324,246579,1,2,0:0:0:0:
169,217,246767,1,0,0:0:0:0:
120,336,246954,1,8,0:0:0:0:
42,234,247142,1,0,0:0:0:0:
128,344,247329,5,2,0:0:0:0:
128,344,247423,1,8,0:0:0:0:
128,344,247517,1,0,0:0:0:0:
91,115,247704,1,8,0:0:0:0:
174,169,247892,2,0,P|190:127|186:83,1,90,0|2,0:0|0:0,0:0:0:0:
0,147,248267,2,0,P|-7:103|6:61,1,90,0|8,0:0|0:0,0:0:0:0:
78,217,248642,1,0,0:0:0:0:
186,83,248829,6,0,P|252:71|362:103,1,180,2|8,0:0|0:0,0:0:0:0:
484,320,249392,2,0,L|503:207,1,90,12|2,0:0|0:0,0:0:0:0:
502,199,249673,1,8,0:0:0:0:
508,170,249767,2,0,P|464:148|400:160,1,90,0|8,0:0|0:3,0:0:0:0:
169,217,250142,1,8,0:0:0:0:
169,217,250235,1,8,0:0:0:0:
169,217,250329,1,8,0:0:0:0:
292,360,250517,5,8,0:0:0:0:
317,331,250611,1,8,0:0:0:0:
330,294,250705,1,10,0:0:0:0:
327,255,250799,1,8,0:0:0:0:
311,220,250892,1,8,0:0:0:0:
80,304,251079,1,10,0:0:0:0:
80,304,251173,1,8,0:0:0:0:
80,304,251267,1,8,0:3:0:0:
228,102,251454,2,0,L|245:282,1,180,8|4,0:3|0:0,0:0:0:0:
256,192,251923,12,0,258579,0:0:0:0:
