osu file format v14

[General]
AudioFilename: audio.mp3
AudioLeadIn: 0
PreviewTime: 55020
Countdown: 0
SampleSet: Soft
StackLeniency: 0.7
Mode: 0
LetterboxInBreaks: 0
EpilepsyWarning: 1
WidescreenStoryboard: 1

[Editor]
Bookmarks: 41820
DistanceSpacing: 1
BeatDivisor: 4
GridSize: 4
TimelineZoom: 1

[Metadata]
Title:CLEAR (TV Size)
TitleUnicode:CLEAR (TV Size)
Artist:Maaya Sakamoto
ArtistUnicode:坂本真綾
Creator:- Matha -
Version:Normal
Source:カードキャプターさくら クリアカード編
Tags:Cardcaptor Captor Sakura Card Opening deppyforce agatsu Snow Zekao
BeatmapID:1830624
BeatmapSetID:875016

[Difficulty]
HPDrainRate:4
CircleSize:3.7
OverallDifficulty:4
ApproachRate:5
SliderMultiplier:1
SliderTickRate:1

[Events]
//Background and Video events
0,0,"BG.jpg",0,0
//Break Periods
//Storyboard Layer 0 (Background)
//Storyboard Layer 1 (Fail)
//Storyboard Layer 2 (Pass)
//Storyboard Layer 3 (Foreground)
//Storyboard Sound Samples

[TimingPoints]
991,769.230769230769,4,2,1,50,1,0
19452,-100,4,2,1,20,0,0
20361,363.636363636364,4,2,1,60,1,0
20542,363.636363636364,4,2,1,60,1,0
20542,-100,4,2,1,70,0,0
20930,363.636363636364,4,2,1,80,1,0
22384,-100,4,2,1,80,0,0
22729,363.636363636364,4,2,1,80,1,0
23820,363.636363636364,4,2,1,80,1,0
24183,-100,4,2,1,80,0,0
29638,-100,4,2,1,60,0,0
52092,-100,4,2,1,5,0,0
52183,-100,4,2,1,60,0,0
52456,-100,4,2,1,5,0,0
52547,-100,4,2,1,60,0,0
52930,363.636363636364,4,2,1,70,1,0
55202,-100,4,2,1,5,0,0
55293,-100,4,2,1,60,0,0
55566,-100,4,2,1,5,0,0
55630,363.636363636364,4,2,1,90,1,1
55811,363.636363636364,4,2,1,90,1,1
66901,-100,4,2,1,90,0,1
67174,-100,4,2,1,5,0,1
67265,-100,4,2,1,90,0,1
69720,-100,4,2,1,5,0,1
69811,-100,4,2,1,90,0,1
69901,-100,4,2,1,5,0,1
69992,-100,4,2,1,90,0,1
81993,363.636363636364,4,2,1,90,1,0
84379,363.636363636364,4,2,1,90,1,0
84925,363.636363636364,4,2,1,80,1,0
86288,-100,4,2,1,5,0,0
86379,-100,4,2,1,80,0,0
87426,363.636363636364,5,2,1,90,1,0
87789,-100,5,2,1,5,0,0

[Colours]
Combo1 : 247,157,202
Combo2 : 128,255,255
Combo3 : 255,255,166
Combo4 : 255,184,149
SliderBorder : 226,230,202

[HitObjects]
107,100,3298,6,0,L|189:92,1,50,0|0,1:0|0:0,0:0:0:0:
199,121,4067,6,0,L|190:256,1,100,0|0,1:0|0:0,0:0:0:0:
271,282,5606,2,0,L|388:270,1,100,0|0,1:0|0:0,0:0:0:0:
392,174,7144,6,0,B|335:149|295:171|295:171|252:196|170:154,1,200,0|0,1:0|0:0,0:0:0:0:
111,118,9452,1,0,1:0:0:0:
149,25,10221,2,0,P|195:10|276:41,1,100,0|0,1:0|0:0,0:0:0:0:
324,79,11760,2,0,P|380:95|431:82,1,100,0|0,1:0|0:0,0:0:0:0:
463,177,13298,6,0,L|511:167,2,50,0|0|0,1:0|0:0|0:0,0:0:0:0:
426,211,14452,1,0,0:0:0:0:
426,211,14837,2,0,L|354:227,1,50,0|0,1:0|0:0,0:0:0:0:
361,241,15414,2,0,L|295:255,1,50
239,269,16375,6,0,L|230:344,1,50,0|0,1:0|0:0,0:0:0:0:
224,342,16952,2,0,P|178:311|100:314,1,100
256,192,17914,12,0,19452,0:0:0:0:
111,342,20542,5,6,0:0:0:0:
203,289,20930,2,0,L|313:301,1,100,8|8,0:0|0:0,0:0:0:0:
363,220,21657,2,0,L|322:128,1,100,8|8,0:0|0:0,0:0:0:0:
279,38,22384,1,8,0:0:0:0:
189,68,22729,1,8,0:0:0:0:
189,68,22910,2,0,L|97:57,1,50,2|8,0:0|0:0,0:0:0:0:
90,74,23274,2,0,P|97:140|76:212,1,100,8|8,3:0|3:0,0:0:0:0:
52,203,23819,6,0,L|61:323,1,100,12|8,0:0|0:0,0:0:0:0:
156,327,24547,2,0,L|165:385,2,50,2|0|8,0:0|0:0|0:0,0:0:0:0:
206,240,25274,2,0,P|259:227|312:250,1,100,6|8,0:0|0:0,0:0:0:0:
330,282,25820,2,0,P|377:296|424:283,1,100,2|0,0:0|1:0,0:0:0:0:
457,244,26365,1,8,0:0:0:0:
457,244,26547,6,0,L|453:130,1,100,2|0,0:0|1:0,0:0:0:0:
411,117,27092,1,8,0:0:0:0:
327,172,27456,2,0,B|296:191|296:191|205:172,1,100,0|8,1:0|0:0,0:0:0:0:
141,140,28183,2,0,P|142:196|138:259,1,100,2|8,0:0|0:0,0:0:0:0:
106,279,28729,2,0,B|142:264|142:264|222:285,1,100,8|0,3:0|0:0,0:0:0:0:
248,296,29274,1,0,0:0:0:0:
324,231,29638,6,0,L|331:99,1,100,6|8,0:0|0:0,0:0:0:0:
303,87,30183,1,2,0:0:0:0:
303,87,30365,2,0,L|230:91,1,50,0|2,0:0|0:0,0:0:0:0:
214,57,30729,1,8,0:0:0:0:
214,57,30910,2,0,L|85:65,2,100,0|2|0,0:0|0:0|0:0,0:0:0:0:
182,152,32001,1,0,1:0:0:0:
211,247,32365,1,2,0:0:0:0:
211,247,32547,6,0,P|258:235|335:236,1,100,2|8,0:0|0:0,0:0:0:0:
344,268,33092,2,0,P|391:280|468:279,1,100,2|0,0:0|1:0,0:0:0:0:
486,257,33638,1,8,0:0:0:0:
436,170,34001,2,0,B|419:137|419:137|433:57,1,100,0|8,0:0|0:0,0:0:0:0:
335,41,34729,2,0,B|352:74|352:74|338:154,1,100,2|8,0:0|0:0,0:0:0:0:
249,176,35456,6,0,L|143:157,1,100,6|8,0:0|0:0,0:0:0:0:
60,201,36183,2,0,L|66:262,2,50,2|0|8,0:0|1:0|0:0,0:0:0:0:
24,164,36729,2,0,L|37:47,1,100,0|0,1:0|0:0,0:0:0:0:
72,31,37274,1,8,0:0:0:0:
151,91,37638,2,0,L|222:82,1,50,2|0,0:0|1:0,0:0:0:0:
243,58,38001,1,8,0:0:0:0:
322,118,38365,6,0,L|316:228,1,100,2|8,0:0|0:0,0:0:0:0:
410,255,39092,2,0,L|415:169,1,50,0|0,1:0|1:0,0:0:0:0:
435,160,39456,1,8,0:0:0:0:
435,160,39638,2,0,L|438:52,2,100,4|4|4,0:0|0:0|0:0,0:0:0:0:
503,233,40729,2,0,L|500:302,1,50,0|8,1:0|0:0,0:0:0:0:
421,343,41274,6,0,P|380:314|313:326,1,100,6|8,0:0|0:0,0:0:0:0:
296,351,41820,2,0,P|246:352|206:323,1,100,6|8,0:0|0:0,0:0:0:0:
188,277,42365,1,6,0:0:0:0:
67,187,42910,2,0,L|84:76,2,100,0|0|0,1:0|1:0|1:0,0:0:0:0:
53,237,43820,1,8,0:0:0:0:
152,231,44183,6,0,B|191:227|191:227|215:236|215:236|269:230,1,100,6|8,0:0|0:0,0:0:0:0:
327,168,44910,2,0,L|340:111,2,50,2|0|8,0:0|1:0|0:0,0:0:0:0:
351,211,45456,2,0,L|365:321,1,100,4|0,0:0|1:0,0:0:0:0:
372,359,46001,1,8,0:0:0:0:
453,300,46365,2,0,L|459:229,1,50,0|0,1:0|1:0,0:0:0:0:
462,200,46729,1,8,0:0:0:0:
384,137,47092,6,0,P|321:138|279:174,1,100,4|8,1:0|0:0,0:0:0:0:
262,198,47638,2,0,L|109:175,1,150,4|8,1:0|0:0,0:0:0:0:
65,163,48365,2,0,B|79:210|79:210|52:312,1,150,4|8,0:0|0:0,0:0:0:0:
32,353,49092,2,0,P|77:317|199:345,1,150,4|8,1:0|0:0,0:0:0:0:
258,358,50001,6,0,L|370:341,1,100,6|0,0:0|0:0,0:0:0:0:
402,253,50729,2,0,L|313:239,2,75,6|0|2,0:0|0:0|0:0,0:0:0:0:
447,229,51456,2,0,L|544:245,2,75,4|0|0,0:0|0:0|1:0,0:0:0:0:
424,184,52183,1,8,0:0:0:0:
347,117,52547,1,2,0:0:0:0:
260,176,52930,6,0,L|266:250,1,50,4|0,0:0|0:0,0:0:0:0:
252,325,53475,2,0,L|373:303,2,100,4|4|4,3:0|3:0|3:0,0:0:0:0:
169,267,54566,1,4,3:0:0:0:
169,267,54748,1,4,3:0:0:0:
95,334,55111,1,2,0:0:0:0:
32,205,55630,6,0,L|48:94,1,100,6|0,0:0|0:0,0:0:0:0:
12,69,56174,2,0,B|41:52|41:52|119:58,1,100,8|2,0:0|0:0,0:0:0:0:
154,73,56720,2,0,L|154:136,1,50,2|8,0:0|0:0,0:0:0:0:
195,150,57083,2,0,P|181:202|172:257,1,100,6|2,0:0|0:0,0:0:0:0:
158,295,57629,1,8,0:0:0:0:
237,354,57992,2,0,L|295:347,2,50,2|2|8,0:0|0:0|0:0,0:0:0:0:
192,377,58538,6,0,L|83:362,1,100,6|2,0:0|0:0,0:0:0:0:
72,317,59083,2,0,L|66:243,1,50,8|0,0:0|1:0,0:0:0:0:
51,219,59447,2,0,L|-13:213,2,50,2|2|8,0:0|0:0|0:0,0:0:0:0:
90,187,59992,2,0,B|156:180|156:180|183:200,1,100,6|2,0:0|0:0,0:0:0:0:
219,236,60538,1,8,0:0:0:0:
301,179,60901,2,0,L|307:116,1,50,0|2,1:0|0:0,0:0:0:0:
317,80,61265,1,8,0:0:0:0:
317,80,61447,6,0,P|370:110|464:66,1,150,6|8,0:0|0:0,0:0:0:0:
475,40,62174,2,0,L|466:200,1,150,0|8,1:0|0:0,0:0:0:0:
463,239,62901,2,0,B|371:212|371:212|322:236,1,150,2|8,0:0|0:0,0:0:0:0:
280,264,63629,1,2,0:0:0:0:
355,329,63992,2,0,L|357:382,2,50,2|8|2,0:0|0:0|0:0,0:0:0:0:
399,305,64538,5,12,0:0:0:0:
322,236,64901,1,8,0:0:0:0:
386,159,65265,1,12,0:0:0:0:
463,222,65629,1,8,0:0:0:0:
399,305,65992,6,0,B|364:328|364:328|292:313,1,100,6|8,0:0|3:0,0:0:0:0:
209,293,66720,2,0,L|129:284,1,50,8|2,0:0|0:0,0:0:0:0:
159,287,67265,6,0,P|175:228|171:158,1,100,6|2,0:0|0:0,0:0:0:0:
166,140,67811,2,0,L|285:150,1,100,8|2,0:0|0:0,0:0:0:0:
314,159,68356,2,0,L|309:213,1,50,2|8,0:0|0:0,0:0:0:0:
273,244,68720,2,0,L|276:360,1,100,6|2,0:0|0:0,0:0:0:0:
316,375,69265,1,8,0:0:0:0:
393,312,69629,2,0,L|395:375,2,50,2|2|8,0:0|0:0|0:0,0:0:0:0:
422,271,70174,6,0,L|419:154,1,100,6|2,0:0|0:0,0:0:0:0:
376,144,70720,2,0,L|298:149,1,50,8|2,0:0|0:0,0:0:0:0:
278,130,71083,2,0,L|208:132,2,50,2|2|8,0:0|0:0|0:0,0:0:0:0:
304,87,71629,2,0,B|325:31|325:31|259:-7,1,100,6|2,0:0|0:0,0:0:0:0:
241,22,72174,1,8,0:0:0:0:
150,59,72538,2,0,L|82:53,2,50,2|2|8,0:0|0:0|0:0,0:0:0:0:
183,95,73083,6,0,P|207:153|177:247,1,150,6|8,0:0|0:0,0:0:0:0:
149,268,73811,2,0,L|325:251,1,150,2|8,0:0|0:0,0:0:0:0:
335,286,74538,2,0,B|326:228|326:228|366:111,1,150,2|8,0:0|0:0,0:0:0:0:
373,94,75265,1,2,0:0:0:0:
442,165,75629,2,0,L|494:150,2,50,2|8|2,0:0|0:0|0:0,0:0:0:0:
419,209,76174,5,12,0:0:0:0:
322,182,76538,1,8,0:0:0:0:
234,229,76901,1,12,0:0:0:0:
147,178,77265,1,8,0:0:0:0:
64,234,77629,6,0,L|57:343,1,100,6|8,0:0|0:0,0:0:0:0:
97,364,78174,2,0,L|241:338,1,100,2|4,0:0|1:0,0:0:0:0:
243,331,78720,1,8,0:0:0:0:
340,352,79083,2,0,P|367:308|367:237,1,100,2|8,0:0|0:0,0:0:0:0:
340,221,79629,2,0,L|206:222,1,100,6|2,0:0|0:0,0:0:0:0:
189,223,80174,1,8,0:0:0:0:
189,223,80356,6,0,B|216:184|216:184|202:49,1,150,6|8,0:0|0:0,0:0:0:0:
106,70,81265,2,0,L|103:134,1,50,8|8,3:0|3:0,0:0:0:0:
66,154,81629,2,0,L|68:203,1,50,12|0,3:0|0:0,0:0:0:0:
91,248,81993,5,12,0:0:0:0:
189,223,82356,1,8,0:0:0:0:
213,319,82720,1,12,0:0:0:0:
309,292,83083,1,8,0:0:0:0:
403,324,83447,6,0,B|417:277|417:277|405:209,1,100,12|8,0:0|0:0,0:0:0:0:
352,143,84174,1,8,0:0:0:0:
247,162,84560,1,8,3:0:0:0:
166,96,84924,2,0,B|131:61|131:61|57:62,1,100,6|8,0:0|0:0,0:0:0:0:
21,143,85652,2,0,L|12:211,2,50,2|2|8,0:0|0:0|0:0,0:0:0:0:
80,61,86379,6,0,L|206:71,1,100,6|8,0:0|0:0,0:0:0:0:
212,107,86925,2,0,L|324:94,1,100,4|2,0:0|0:0,0:0:0:0:
342,74,87426,1,8,0:0:0:0:
342,74,87607,1,6,0:0:0:0:
256,192,87789,12,0,89244,0:0:0:0:
