osu file format v14

[General]
AudioFilename: audio.mp3
AudioLeadIn: 0
PreviewTime: 201208
Countdown: 1
SampleSet: Soft
StackLeniency: 0.7
Mode: 0
LetterboxInBreaks: 0
WidescreenStoryboard: 0

[Editor]
DistanceSpacing: 1.2
BeatDivisor: 4
GridSize: 8
TimelineZoom: 1.9

[Metadata]
Title:CLEAR
TitleUnicode:CLEAR
Artist:Maaya Sakamoto
ArtistUnicode:坂本真綾
Creator:Kocari
Version:CardCaptor
Source:カードキャプターさくら クリアカード編
Tags:
BeatmapID:1565026
BeatmapSetID:741895

[Difficulty]
HPDrainRate:6
CircleSize:4.5
OverallDifficulty:7.5
ApproachRate:9
SliderMultiplier:1.82
SliderTickRate:1

[Events]
//Background and Video events
0,0,"BG.jpg",0,0
//Break Periods
//Storyboard Layer 0 (Background)
//Storyboard Layer 1 (Fail)
//Storyboard Layer 2 (Pass)
//Storyboard Layer 3 (Foreground)
//Storyboard Sound Samples

[TimingPoints]
612,769.230769230769,4,2,1,60,1,0
612,-83.3333333333333,4,2,1,60,0,0
17342,-100,4,2,1,60,0,0
19980,365.853658536585,4,2,1,60,1,0
20162,365.853658536585,4,2,1,60,1,0
20527,365.853658536585,4,2,1,60,1,0
23453,-125,4,2,1,60,0,0
29307,-142.857142857143,4,2,1,60,0,0
39368,-125,4,2,1,60,0,0
39734,-117.647058823529,4,2,1,60,0,0
40100,-111.111111111111,4,2,1,60,0,0
41014,-142.857142857143,4,2,1,60,0,0
43941,-125,4,2,1,60,0,0
55100,-111.111111111111,4,2,1,60,0,0
55466,-90.9090909090908,4,2,1,60,0,0

[Colours]
Combo1 : 62,192,255
Combo2 : 255,128,192
Combo3 : 128,128,255
Combo4 : 255,128,128

[HitObjects]
88,143,612,6,0,B|53:72|53:72|129:36|129:36|203:190,1,327.599990002442
268,123,1958,1,0,0:0:0:0:
268,123,2054,1,0,0:0:0:0:
268,123,2150,2,0,L|213:19,1,109.199996667481
357,95,2919,2,0,P|322:131|257:112,1,109.199996667481
403,23,3496,1,0,0:0:0:0:
478,103,3688,6,0,L|459:222,1,109.199996667481
364,295,4458,2,0,P|350:248|379:192,1,109.199996667481
460,210,5035,1,0,0:0:0:0:
364,295,5227,2,0,L|249:276,1,109.199996667481
29,240,5996,2,0,L|41:304,1,54.5999983337403
121,270,6381,2,0,L|133:334,1,54.5999983337403
193,216,6765,6,0,P|209:164|179:103,1,109.199996667481
116,63,7342,1,0,0:0:0:0:
21,145,7535,2,0,L|87:137,1,54.5999983337403
244,107,7919,2,0,L|190:114,1,54.5999983337403
305,164,8304,2,0,P|323:132|297:43,1,109.199996667481
74,137,9073,6,0,P|61:189|83:239,1,109.199996667481
171,219,9650,1,0,0:0:0:0:
140,295,9842,2,0,L|148:348,1,54.5999983337403
171,219,10227,1,0,0:0:0:0:
239,270,10419,2,0,L|247:323,1,54.5999983337403
171,219,10804,1,0,0:0:0:0:
300,210,10996,1,0,0:0:0:0:
239,270,11188,1,0,0:0:0:0:
400,313,11381,6,0,P|379:266|401:207,1,109.199996667481
480,79,11958,2,0,P|496:129|475:178,1,109.199996667481
395,213,12535,1,0,0:0:0:0:
395,213,12727,1,0,0:0:0:0:
285,218,12919,6,0,L|408:212,1,109.199996667481
345,334,13688,2,0,L|235:339,1,109.199996667481
300,117,14458,2,0,P|309:172|280:222,1,109.199996667481
101,235,15035,2,0,P|156:226|206:255,1,109.199996667481
38,286,15996,6,0,P|20:239|39:184,1,109.199996667481
100,233,16573,2,0,P|177:257|253:229,1,163.799995001221
205,163,17342,6,0,P|257:308|294:159,1,409.5
294,159,19980,1,0,0:0:0:0:
294,159,20071,1,0,0:0:0:0:
294,159,20162,2,0,L|291:103,1,45.5
369,70,20344,2,0,L|366:14,1,45.5
338,229,20527,6,0,P|297:241|247:224,1,91
82,171,20892,2,0,P|123:183|173:166,1,91
325,271,21258,2,0,P|283:260|248:221,1,91
94,213,21624,2,0,P|135:202|170:163,1,91
213,0,21990,2,0,L|220:70,1,45.5
250,129,22173,2,0,P|291:140|341:124,1,91
439,49,22539,5,0,0:0:0:0:
466,85,22630,1,0,0:0:0:0:
476,129,22721,1,0,0:0:0:0:
467,173,22813,1,0,0:0:0:0:
445,212,22904,1,0,0:0:0:0:
442,257,22995,1,0,0:0:0:0:
459,299,23087,2,0,L|465:357,1,45.5
341,268,23270,2,0,L|335:222,1,45.5
126,349,23453,6,0,B|200:388|196:319|283:360,1,145.6
87,274,24002,1,0,0:0:0:0:
21,329,24185,2,0,P|3:296|7:251,1,72.8
154,256,24551,2,0,P|121:274|76:270,1,72.8
233,246,24917,6,0,B|252:192|252:192|252:96,1,145.6
308,46,25466,1,0,0:0:0:0:
383,244,25648,2,0,B|364:190|364:190|364:102,1,145.6
451,179,26197,1,0,0:0:0:0:
465,268,26380,6,0,P|453:300|413:326,1,72.8
342,322,26746,2,0,P|313:300|300:266,1,72.8
383,171,27112,2,0,L|383:243,1,72.8
242,347,27478,1,0,0:0:0:0:
383,244,27661,1,0,0:0:0:0:
242,347,27844,6,0,B|187:351|187:351|88:300,1,145.6
23,357,28392,1,0,0:0:0:0:
23,357,28484,1,0,0:0:0:0:
23,357,28575,2,0,L|21:276,1,72.8
106,193,28941,1,0,0:0:0:0:
106,309,29124,1,0,0:0:0:0:
10,127,29307,6,0,B|81:148|60:88|158:124,1,127.399996112061
106,193,29856,1,0,0:0:0:0:
206,89,30039,2,0,P|186:59|148:45,1,63.6999980560303
234,165,30405,2,0,P|260:148|276:120,1,63.6999980560303
345,35,30770,6,0,L|281:37,1,63.6999980560303
277,120,31136,1,0,0:0:0:0:
365,119,31319,2,0,L|450:115,1,63.6999980560303
435,32,31685,1,0,0:0:0:0:
420,203,31868,1,0,0:0:0:0:
428,116,32051,1,0,0:0:0:0:
466,265,32234,6,0,P|429:279|349:230,1,127.399996112061
243,264,32783,2,0,P|303:276|354:240,1,127.399996112061
363,152,33331,1,0,0:0:0:0:
341,367,33514,2,0,L|354:238,1,127.399996112061
363,152,34063,2,0,L|458:145,1,95.5499970840455
481,70,34429,2,0,L|417:74,1,63.6999980560303
277,25,34795,2,0,L|340:20,1,63.6999980560303
233,104,35161,6,0,P|171:115|117:83,1,127.399996112061
187,40,35709,1,0,0:0:0:0:
37,54,35892,1,0,0:0:0:0:
118,83,36075,1,0,0:0:0:0:
187,40,36258,1,0,0:0:0:0:
254,95,36441,6,0,L|240:189,1,95.5499970840455
167,239,36807,2,0,L|155:153,1,63.6999980560303
82,219,37173,2,0,L|73:282,1,63.6999980560303
2,326,37539,1,0,0:0:0:0:
116,354,37722,6,0,L|225:344,1,95.5499970840455
242,318,38087,2,0,P|276:305|308:315,1,63.6999980560303
392,379,38453,2,0,L|405:298,1,63.6999980560303
352,237,38819,1,0,0:0:0:0:
483,281,39002,2,0,L|470:200,1,63.6999980560303
477,27,39368,6,0,P|421:16|370:42,1,109.2
388,122,39734,2,0,P|443:132|494:106,1,116.025002213001
312,89,40100,2,0,L|189:99,1,122.849996250916
135,39,40466,1,0,0:0:0:0:
19,112,40648,1,0,0:0:0:0:
189,99,40831,1,0,0:0:0:0:
94,264,41014,6,0,B|109:222|109:222|109:129,1,127.399996112061
56,333,41563,2,0,P|120:340|169:290,1,127.399996112061
354,300,42112,2,0,P|292:307|245:267,1,127.399996112061
177,159,42661,2,0,L|182:248,1,63.6999980560303
316,236,43026,2,0,L|311:147,1,63.6999980560303
254,99,43392,1,0,0:0:0:0:
404,194,43575,2,0,P|444:174|465:125,1,95.5499970840455
394,8,43941,6,0,B|419:72|370:56|393:127,1,109.2
404,194,44307,2,0,L|408:273,1,72.8
329,318,44673,1,0,0:0:0:0:
407,266,44856,1,0,0:0:0:0:
458,344,45039,1,0,0:0:0:0:
329,318,45222,6,0,L|211:306,1,109.2
98,241,45587,2,0,P|132:232|166:246,1,72.8
157,358,45953,2,0,P|122:367|89:353,1,72.8
89,353,46319,1,0,0:0:0:0:
263,204,46502,1,0,0:0:0:0:
263,204,46868,6,0,L|262:115,1,72.8
300,44,47234,1,0,0:0:0:0:
485,111,47417,2,0,P|431:143|352:111,1,145.6
300,44,47966,1,0,0:0:0:0:
134,124,48148,2,0,P|188:156|267:124,1,145.6
300,44,48697,1,0,0:0:0:0:
351,244,48880,2,0,P|383:190|351:111,1,145.6
281,293,49429,1,0,0:0:0:0:
184,283,49795,6,0,L|281:293,2,97.0666666666667
315,219,50526,2,0,L|411:209,2,97.0666666666667
173,50,51258,2,0,L|270:41,2,97.0666666666667
303,114,51989,2,0,L|400:124,2,97.0666666666667
100,54,52722,6,0,L|186:49,1,72.8
0,187,53270,1,0,0:0:0:0:
53,120,53636,1,0,0:0:0:0:
100,54,54002,1,0,0:0:0:0:
19,42,54368,1,0,0:0:0:0:
45,270,54551,5,0,0:0:0:0:
45,270,54917,1,0,0:0:0:0:
111,343,55100,2,0,B|180:316|165:366|238:341,1,122.849996250916
382,311,55466,6,0,P|330:259|254:270,1,150.150004582214
