osu file format v14

[General]
AudioFilename: audio.Mp3
AudioLeadIn: 0
PreviewTime: 55044
Countdown: 0
SampleSet: Soft
StackLeniency: 0.5
Mode: 0
LetterboxInBreaks: 0
WidescreenStoryboard: 0

[Editor]
Bookmarks: 41268
DistanceSpacing: 1.1
BeatDivisor: 4
GridSize: 32
TimelineZoom: 2

[Metadata]
Title:CLEAR
TitleUnicode:CLEAR
Artist:Maaya Sakamoto
ArtistUnicode:坂本真綾
Creator:Kisses
Version:Karia's Hard
Source:カードキャプターさくら クリアカード編
Tags:Victorica Karia Cardcaptor Sakura Clear Card Arc Hen Opening
BeatmapID:1522455
BeatmapSetID:718586

[Difficulty]
HPDrainRate:5
CircleSize:4
OverallDifficulty:6
ApproachRate:8
SliderMultiplier:1.5
SliderTickRate:1

[Events]
//Background and Video events
0,0,"bg.jpg",0,0
Video,-227,"video.avi"
//Break Periods
//Storyboard Layer 0 (Background)
//Storyboard Layer 1 (Fail)
//Storyboard Layer 2 (Pass)
//Storyboard Layer 3 (Foreground)
//Storyboard Sound Samples

[TimingPoints]
991,769.230769230769,4,2,1,60,1,0
4067,-66.6666666666667,4,2,1,60,0,0
4452,-66.6666666666667,4,2,1,30,0,0
4644,-66.6666666666667,4,2,1,45,0,0
5606,-66.6666666666667,4,2,1,60,0,0
5991,-66.6666666666667,4,2,1,30,0,0
6183,-66.6666666666667,4,2,1,45,0,0
7144,-66.6666666666667,4,2,1,60,0,0
19067,-66.6666666666667,4,2,1,5,0,0
20361,363.636363636364,4,2,10,40,1,0
20542,363.636363636364,4,2,10,40,1,0
20905,363.636363636364,4,2,10,60,1,0
29632,-100,4,2,10,55,0,0
41177,-100,4,2,10,5,0,0
41268,-100,4,2,10,55,0,0
49995,-142.857142857143,4,2,10,55,0,0
50723,-125,4,2,10,55,0,0
51450,-111.111111111111,4,2,10,55,0,0
52177,-100,4,2,10,55,0,0
55632,-100,4,2,10,60,0,1
66723,-100,4,2,10,60,0,0
67268,-100,4,2,10,60,0,1
84905,-100,4,2,10,60,0,0
87632,-100,4,2,10,60,0,0
89268,-100,4,2,10,5,0,0

[Colours]
Combo1 : 255,255,128
Combo2 : 128,255,128
Combo3 : 128,255,255
Combo4 : 255,128,192
Combo5 : 255,181,106

[HitObjects]
84,334,4067,6,0,P|79:280|72:212,1,112.500004291535,2|0,0:0|0:0,0:0:0:0:
57,138,4644,1,2,0:0:0:0:
257,35,5606,6,0,P|251:86|245:157,1,112.500004291535,2|0,0:0|0:0,0:0:0:0:
232,230,6183,1,2,0:0:0:0:
439,318,7144,5,2,0:0:0:0:
439,318,8683,6,0,P|430:231|423:141,1,168.750006437302,2|0,0:0|0:0,0:0:0:0:
423,149,9452,2,0,P|338:172|251:195,1,168.750006437302,2|0,0:0|0:0,0:0:0:0:
201,254,10221,6,0,P|151:203|54:249,1,168.750006437302,2|0,0:0|0:0,0:0:0:0:
65,228,10991,2,0,P|118:168|91:93,1,168.750006437302,2|0,0:0|0:0,0:0:0:0:
7,74,11760,6,0,L|181:51,1,168.750006437302,2|0,0:0|0:0,0:0:0:0:
238,107,12529,1,2,0:0:0:0:
238,107,13298,6,0,P|266:153|226:213,1,112.500004291535,2|0,0:0|0:0,0:0:0:0:
165,352,14067,2,0,P|137:306|177:246,1,112.500004291535
291,361,14837,6,0,P|349:353|421:346,1,112.500004291535,2|0,0:0|0:0,0:0:0:0:
420,264,15414,2,0,P|364:269|308:277,1,112.500004291535,2|0,0:0|0:0,0:0:0:0:
308,277,16375,6,0,B|274:231|274:231|311:163,1,112.500004291535,2|0,0:0|0:0,0:0:0:0:
363,126,16952,2,0,B|281:173|275:92|188:138,1,168.750006437302,2|0,0:0|0:0,0:0:0:0:
132,180,17721,1,2,0:0:0:0:
256,192,17817,12,0,19067,0:0:0:0:
279,210,20361,6,0,L|286:158,2,37.5,4|4|8,0:3|0:3|0:0,0:0:0:0:
202,355,20905,6,0,B|112:344,1,75,12|4,0:0|0:3,0:0:0:0:
45,336,21268,2,0,B|135:325,1,75,8|0,0:0|0:0,0:0:0:0:
202,240,21632,6,0,P|219:206|200:159,1,75,8|4,0:0|0:3,0:0:0:0:
181,94,21995,2,0,P|173:129|189:162,1,75,8|0,0:0|0:0,0:0:0:0:
296,218,22359,5,8,0:0:0:0:
362,168,22541,2,0,L|369:83,1,75,4|8,0:3|0:0,0:0:0:0:
300,45,22905,1,4,0:3:0:0:
300,45,23086,2,0,B|363:3|363:3|449:47,1,150,8|4,0:0|0:3,0:0:0:0:
497,157,23632,5,8,0:0:0:0:
498,163,23723,1,8,0:0:0:0:
499,168,23814,2,0,P|488:241|478:321,1,150,4|8,0:0|0:0,0:0:0:0:
406,358,24359,1,0,0:0:0:0:
357,291,24541,2,0,B|322:276|322:276|278:292,1,75,10|4,0:0|0:3,0:0:0:0:
233,351,24905,2,0,B|198:366|198:366|163:353,1,75,10|4,0:0|0:3,0:0:0:0:
104,295,25268,6,0,B|75:259|75:259|105:142,1,150,10|10,0:0|0:0,0:0:0:0:
57,87,25814,1,2,0:0:0:0:
57,87,25995,2,0,B|91:68|91:68|135:81,1,75,8|0,0:0|0:0,0:0:0:0:
185,136,26359,1,10,0:0:0:0:
253,90,26541,1,2,0:0:0:0:
312,147,26723,6,0,P|306:193|301:237,1,75,8|4,0:0|0:3,0:0:0:0:
220,216,27086,2,0,P|224:253|229:290,1,75,8|0,0:0|0:0,0:0:0:0:
291,344,27450,2,0,P|327:352|367:334,1,75,8|4,0:0|0:3,0:0:0:0:
436,375,27814,2,0,P|453:342|446:299,1,75,8|0,0:0|0:0,0:0:0:0:
512,209,28177,6,0,B|461:224|461:224|424:208|424:208|368:220,1,150,10|10,0:0|0:0,0:0:0:0:
307,275,28723,1,2,0:0:0:0:
302,271,28814,1,0,0:3:0:0:
298,267,28905,2,0,P|292:226|286:182,1,75,4|4,0:3|0:3,0:0:0:0:
222,142,29268,1,10,0:0:0:0:
222,142,29450,1,2,0:0:0:0:
177,269,29632,6,0,P|114:308|50:272,1,150,4|8,0:0|0:0,0:0:0:0:
23,198,30177,2,0,P|61:202|101:206,1,75,2|0,0:0|0:0,0:0:0:0:
139,134,30541,2,0,P|101:130|61:126,1,75,2|8,0:0|0:0,0:0:0:0:
49,44,30905,6,0,P|87:48|127:52,1,75,2|0,0:0|0:0,0:0:0:0:
200,81,31268,2,0,P|232:64|286:77,1,75,2|8,0:0|0:0,0:0:0:0:
333,14,31632,2,0,P|369:10|402:27,1,75,2|0,0:0|0:0,0:0:0:0:
462,84,31995,2,0,P|458:122|454:162,1,75,2|8,0:0|0:0,0:0:0:0:
500,254,32359,5,2,0:0:0:0:
500,254,32541,2,0,P|425:241|346:230,1,150,0|10,0:0|0:0,0:0:0:0:
296,169,33086,2,0,P|262:162|219:180,1,75,2|0,0:0|0:0,0:0:0:0:
184,247,33450,2,0,P|191:292|196:332,1,75,2|8,0:0|0:0,0:0:0:0:
277,319,33814,6,0,P|272:281|266:244,1,75,2|0,0:0|0:0,0:0:0:0:
296,169,34177,1,2,0:0:0:0:
351,230,34359,2,0,P|390:240|434:222,1,75,10|0,0:0|0:0,0:0:0:0:
487,178,34723,2,0,P|490:140|494:103,1,75,2|0,0:0|0:0,0:0:0:0:
416,76,35086,2,0,P|412:113|408:150,1,75,8|0,0:0|0:0,0:0:0:0:
481,23,35450,6,0,P|423:-7|341:36,1,150,4|8,0:0|0:0,0:0:0:0:
267,14,35995,1,2,0:0:0:0:
267,14,36177,2,0,P|273:51|280:109,1,75,2|2,0:0|0:0,0:0:0:0:
333,150,36541,1,10,0:0:0:0:
270,203,36723,6,0,P|233:197|175:190,1,75,2|0,0:0|0:0,0:0:0:0:
171,271,37086,2,0,P|208:278|266:285,1,75,2|8,0:0|0:0,0:0:0:0:
246,366,37450,2,0,P|209:360|151:353,1,75,2|0,0:0|0:0,0:0:0:0:
100,312,37814,1,2,0:0:0:0:
28,351,37995,2,0,P|21:310|13:270,1,75,10|0,0:0|0:0,0:0:0:0:
102,225,38359,6,0,P|107:184|125:59,1,150,2|8,0:0|0:0,0:0:0:0:
54,29,38905,1,2,0:0:0:0:
122,77,39086,2,0,P|168:69|203:62,1,75,2|2,0:0|0:0,0:0:0:0:
259,9,39450,1,8,0:0:0:0:
319,67,39632,6,0,B|310:121|310:121|327:154|327:154|316:220,1,150,2|2,0:0|0:0,0:0:0:0:
398,355,40359,2,0,B|407:297|407:297|390:264|390:264|399:210,1,150,2|2,0:0|0:0,0:0:0:0:
460,154,40905,2,0,P|410:128|341:156,1,112.5,10|0,0:0|0:0,0:0:0:0:
343,159,41268,6,0,P|283:206|215:160,1,150,4|8,0:0|0:0,0:0:0:0:
127,104,41814,2,0,P|136:156|153:255,1,150,4|4,0:0|0:3,0:0:0:0:
69,338,42359,2,0,P|129:291|197:337,1,150,12|0,0:0|0:0,0:0:0:0:
264,352,42905,5,4,0:3:0:0:
264,352,43086,2,0,P|270:303|276:261,1,75,8|4,0:0|0:3,0:0:0:0:
186,136,43632,5,4,0:3:0:0:
186,136,43813,2,0,P|192:172|198:209,1,75,8|0,0:0|0:3,0:0:0:0:
333,221,44177,6,0,P|371:183|336:89,2,150,4|8|0,0:0|0:0|0:0,0:0:0:0:
269,168,45086,1,4,0:3:0:0:
198,209,45268,1,8,0:0:0:0:
135,145,45450,6,0,B|102:175|102:175|121:299,1,150,4|4,0:0|0:3,0:0:0:0:
185,327,45995,2,0,P|225:315|270:311,1,75,8|0,0:0|0:0,0:0:0:0:
333,275,46359,2,0,P|368:289|415:279,1,75,4|4,0:3|0:3,0:0:0:0:
486,231,46723,1,12,0:0:0:0:
405,31,47086,6,0,B|393:82|393:82|412:119|412:119|399:193,1,150,4|8,0:0|0:0,0:0:0:0:
319,183,47632,2,0,B|328:127|328:127|309:90|309:90|321:39,1,150,4|4,0:0|0:3,0:0:0:0:
215,95,48177,5,8,0:0:0:0:
215,95,48359,2,0,P|164:53|82:86,1,150,4|4,0:0|0:3,0:0:0:0:
77,158,48905,1,8,0:0:0:0:
77,158,49086,2,0,P|128:200|210:167,1,150,4|4,0:0|0:3,0:0:0:0:
281,151,49632,1,8,0:0:0:0:
281,151,49995,6,0,L|270:249,2,78.7499975967408,4|0|4,0:0|0:0|0:3,0:0:0:0:
339,90,50723,6,0,P|300:68|247:74,2,90,12|0|0,0:0|0:0|0:0,0:0:0:0:
397,153,51450,6,0,P|443:144|508:138,2,101.249996910095,4|0|4,0:0|0:0|0:3,0:0:0:0:
343,215,52177,6,0,P|320:264|357:315,2,112.5,12|0|0,0:0|0:0|0:0,0:0:0:0:
431,297,52905,5,8,0:0:0:0:
431,297,53086,1,8,0:0:0:0:
279,170,53450,6,0,B|320:205|320:205|434:180,1,150,8|8,0:0|0:0,0:0:0:0:
272,315,54177,2,0,B|231:280|231:280|117:305,1,150,8|8,0:0|0:0,0:0:0:0:
44,271,54723,1,8,0:0:0:0:
44,271,55086,5,8,0:0:0:0:
68,358,55268,1,8,0:0:0:0:
68,358,55632,6,0,P|79:279|91:198,1,150,4|4,0:0|0:3,0:0:0:0:
41,133,56177,2,0,P|83:118|128:128,1,75,8|0,0:0|0:0,0:0:0:0:
177,184,56541,1,4,0:3:0:0:
251,133,56723,2,0,P|268:100|261:55,1,75,4|8,0:3|0:0,0:0:0:0:
152,25,57086,6,0,P|162:89|177:185,1,150,4|4,0:0|0:3,0:0:0:0:
251,222,57632,2,0,P|287:228|326:210,1,75,8|0,0:0|0:0,0:0:0:0:
391,157,57995,1,4,0:3:0:0:
455,220,58177,2,0,P|447:262|440:312,1,75,4|8,0:3|0:0,0:0:0:0:
349,370,58541,6,0,P|339:306|321:197,1,150,4|4,0:0|0:3,0:0:0:0:
258,160,59086,1,8,0:0:0:0:
258,160,59268,1,0,0:0:0:0:
223,243,59450,5,2,0:0:0:0:
159,178,59632,1,2,0:0:0:0:
94,241,59814,1,10,0:0:0:0:
15,198,59995,6,0,B|0:47,1,150,4|4,0:0|0:3,0:0:0:0:
86,76,60541,2,0,P|117:55|165:56,1,75,8|4,0:0|0:3,0:0:0:0:
232,9,60905,1,0,0:0:0:0:
232,9,61086,2,0,P|262:30|299:32,1,75,4|8,0:3|0:0,0:0:0:0:
427,82,61450,6,0,P|366:97|276:118,1,150,4|4,0:0|0:3,0:0:0:0:
222,185,61995,1,8,0:0:0:0:
310,199,62177,2,0,B|338:266|284:284|312:345,1,150,2|4,0:0|0:3,0:0:0:0:
396,377,62723,5,8,0:0:0:0:
470,326,62905,1,4,0:3:0:0:
395,276,63086,5,0,0:0:0:0:
395,276,63268,2,0,P|399:235|402:200,1,75,4|8,0:3|0:0,0:0:0:0:
477,152,63632,2,0,P|412:109|342:132,1,150,2|4,0:0|0:3,0:0:0:0:
276,183,64177,5,8,0:0:0:0:
260,94,64359,1,0,0:0:0:0:
177,146,64541,6,0,L|164:64,1,75,4|0,0:3|0:0,0:0:0:0:
75,62,64905,2,0,L|86:136,1,75,8|0,0:0|0:0,0:0:0:0:
109,230,65268,6,0,L|30:218,1,75,0|4,0:0|0:3,0:0:0:0:
1,303,65632,2,0,L|75:314,1,75,8|0,0:0|0:0,0:0:0:0:
172,371,65995,5,2,0:0:0:0:
200,262,66177,1,2,0:0:0:0:
259,340,66359,2,0,L|305:333,2,37.5,8|0|0,0:0|0:0|0:0,0:0:0:0:
367,282,66723,5,8,0:0:0:0:
282,251,66905,1,8,0:0:0:0:
282,251,67268,6,0,P|361:240|442:228,1,150,4|4,0:0|0:3,0:0:0:0:
498,170,67814,2,0,P|511:138|492:87,1,75,8|0,0:0|0:0,0:0:0:0:
432,41,68177,1,4,0:3:0:0:
358,93,68359,2,0,P|363:127|369:171,1,75,4|8,0:3|0:0,0:0:0:0:
282,251,68723,6,0,P|217:276|145:218,1,150,4|4,0:0|0:3,0:0:0:0:
71,273,69268,2,0,P|60:237|72:196,1,75,8|0,0:0|0:0,0:0:0:0:
133,137,69632,1,4,0:3:0:0:
77,65,69814,2,0,P|114:59|150:52,1,75,4|8,0:3|0:0,0:0:0:0:
220,153,70177,6,0,P|285:162|393:180,1,150,4|4,0:0|0:3,0:0:0:0:
433,113,70723,1,8,0:0:0:0:
433,113,70905,1,0,0:0:0:0:
501,171,71086,5,2,0:0:0:0:
439,236,71268,1,2,0:0:0:0:
490,309,71450,1,10,0:0:0:0:
418,363,71632,6,0,P|348:352|268:342,1,150,4|4,0:0|0:3,0:0:0:0:
230,260,72177,2,0,P|191:265|149:269,1,75,8|4,0:0|0:3,0:0:0:0:
89,330,72541,1,0,0:0:0:0:
89,330,72723,2,0,P|52:333|19:316,1,75,4|8,0:3|0:0,0:0:0:0:
0,183,73086,6,0,P|55:142|145:195,1,150,4|4,0:0|0:3,0:0:0:0:
213,138,73632,1,8,0:0:0:0:
213,138,73814,2,0,P|204:202|190:295,1,150,2|4,0:0|0:3,0:0:0:0:
252,352,74359,5,8,0:0:0:0:
332,311,74541,1,4,0:3:0:0:
414,348,74723,5,0,0:0:0:0:
414,348,74905,2,0,P|409:309|405:270,1,75,4|8,0:3|0:0,0:0:0:0:
484,229,75268,2,0,P|496:155|508:80,1,150,2|4,0:0|0:3,0:0:0:0:
443,17,75814,5,8,0:0:0:0:
354,30,75995,1,0,0:0:0:0:
415,106,76177,6,0,L|333:119,1,75,4|0,0:0|0:0,0:0:0:0:
270,61,76541,2,0,L|196:50,1,75,8|0,0:0|0:0,0:0:0:0:
110,100,76905,6,0,P|95:135|114:184,1,75,0|4,0:0|0:3,0:0:0:0:
178,218,77268,2,0,P|185:254|170:287,1,75,8|0,0:0|0:3,0:0:0:0:
97,374,77632,6,0,B|62:355|62:355|50:220,1,150,4|8,0:3|0:0,0:0:0:0:
102,169,78177,2,0,P|157:127|248:164,1,150,4|4,0:3|0:3,0:0:0:0:
283,218,78723,1,8,0:0:0:0:
442,85,79086,6,0,P|434:141|420:244,1,150,4|8,0:0|0:0,0:0:0:0:
471,328,79632,2,0,P|428:280|341:312,1,150,4|4,0:0|0:3,0:0:0:0:
231,358,80177,5,8,0:0:0:0:
231,358,80359,2,0,P|221:287|208:195,1,150,4|4,0:0|0:3,0:0:0:0:
298,231,80905,2,0,P|305:187|312:149,1,75,8|0,0:0|0:0,0:0:0:0:
254,86,81268,1,4,0:3:0:0:
339,58,81450,1,8,0:0:0:0:
344,61,81541,1,8,0:0:0:0:
348,63,81632,1,8,0:0:0:0:
508,175,81995,6,0,P|466:182|426:190,1,75,12|0,0:0|0:0,0:0:0:0:
347,162,82359,2,0,P|389:169|429:177,1,75,8|0,0:0|0:0,0:0:0:0:
512,264,82723,6,0,P|470:271|430:279,1,75,8|0,0:0|0:0,0:0:0:0:
351,251,83086,2,0,P|393:258|433:266,1,75,8|0,0:0|0:0,0:0:0:0:
319,338,83450,5,4,0:3:0:0:
250,279,83632,2,0,B|234:245|234:245|250:192,1,75,4|8,0:3|0:0,0:0:0:0:
274,124,83995,1,0,0:0:0:0:
274,124,84177,2,0,L|190:137,1,75,4|0,0:3|0:3,0:0:0:0:
142,205,84541,1,8,0:0:0:0:
47,107,84723,5,8,0:0:0:0:
43,111,84814,1,8,0:0:0:0:
39,115,84905,2,0,P|51:192|64:279,1,150,4|8,0:0|0:0,0:0:0:0:
129,309,85450,1,0,0:0:0:0:
174,240,85632,2,0,P|209:224|259:242,1,75,8|4,0:0|0:3,0:0:0:0:
288,299,85995,2,0,P|324:305|357:289,1,75,8|0,0:0|0:0,0:0:0:0:
428,245,86359,6,0,B|468:182|468:182|423:116,1,150,4|0,0:3|0:0,0:0:0:0:
333,64,86905,2,0,P|347:146|360:242,1,150,4|0,0:0|0:0,0:0:0:0:
302,274,87450,1,8,0:0:0:0:
206,190,87632,5,4,0:0:0:0:
256,192,87723,12,0,89268,0:0:0:0:
