osu file format v14

[General]
AudioFilename: audio.Mp3
AudioLeadIn: 0
PreviewTime: 55020
Countdown: 0
SampleSet: Soft
StackLeniency: 0.5
Mode: 0
LetterboxInBreaks: 0
WidescreenStoryboard: 1

[Editor]
DistanceSpacing: 1.1
BeatDivisor: 4
GridSize: 8
TimelineZoom: 1

[Metadata]
Title:CLEAR
TitleUnicode:CLEAR
Artist:Maaya Sakamoto
ArtistUnicode:坂本真綾
Creator:Kaitjuh
Version:Insane
Source:カードキャプターさくら クリアカード編
Tags:Cardcaptor Sakura Clear Card Arc Hen Opening CrystilonZ
BeatmapID:1515003
BeatmapSetID:717049

[Difficulty]
HPDrainRate:6
CircleSize:4
OverallDifficulty:7.5
ApproachRate:9
SliderMultiplier:1.4
SliderTickRate:1

[Events]
//Background and Video events
0,0,"bg.jpg",0,0
Video,-366,"video.avi"
//Break Periods
//Storyboard Layer 0 (Background)
//Storyboard Layer 1 (Fail)
//Storyboard Layer 2 (Pass)
//Storyboard Layer 3 (Foreground)
//Storyboard Sound Samples

[TimingPoints]
991,769.230769230769,4,2,1,30,1,0
991,-50,4,2,1,30,0,0
20361,363.636363636364,4,2,1,60,1,0
20542,363.636363636364,4,2,1,60,1,0
20814,-100,4,2,1,5,0,0
20930,363.636363636364,4,2,1,60,1,0
22729,363.636363636364,4,2,1,60,1,0
23456,-83.3333333333333,4,2,1,60,0,0
23820,363.636363636364,4,2,1,60,1,0
30001,-100,4,2,1,40,0,0
41274,-100,4,2,1,45,0,0
43820,-100,4,2,1,50,0,0
44183,-100,4,2,1,45,0,0
46729,-100,4,2,1,50,0,0
47092,-100,4,2,1,45,0,0
49638,-66.6666666666667,4,2,1,50,0,0
50001,-100,4,2,1,45,0,0
52930,363.636363636364,4,2,1,45,1,0
55202,-100,4,2,1,5,0,0
55293,-100,4,2,1,45,0,0
55384,-100,4,2,1,5,0,0
55630,363.636363636364,4,2,1,60,1,1
55630,-83.3333333333333,4,2,1,60,0,1
55811,363.636363636364,4,2,1,60,1,1
55811,-83.3333333333333,4,2,1,60,0,1
66720,-83.3333333333333,4,2,1,60,0,0
66811,-83.3333333333333,4,2,1,5,0,0
66901,-83.3333333333333,4,2,1,60,0,0
66992,-83.3333333333333,4,2,1,5,0,0
67265,-83.3333333333333,4,2,1,60,0,1
81629,-83.3333333333333,4,2,1,60,0,0
81993,363.636363636364,4,2,1,60,1,1
81993,-83.3333333333333,4,2,1,60,0,1
84379,363.636363636364,4,2,1,60,1,1
84379,-83.3333333333333,4,2,1,60,0,1
84925,363.636363636364,4,2,1,60,1,1
84925,-83.3333333333333,4,2,1,60,0,1
87426,363.636363636364,5,2,1,60,1,1
87426,-83.3333333333333,5,2,1,60,0,1
87607,-83.3333333333333,5,2,1,60,0,0
89244,-83.3333333333333,4,2,1,5,0,0

[Colours]
Combo1 : 255,255,128
Combo2 : 128,255,128
Combo3 : 128,255,255
Combo4 : 255,128,192
Combo5 : 255,181,106

[HitObjects]
256,192,991,12,2,2529,0:0:0:0:
110,194,3298,5,2,0:0:0:0:
130,271,3491,1,2,0:0:0:0:
167,139,3875,1,2,0:0:0:0:
110,194,4067,6,0,P|76:201|41:194,2,70,0|0|0,0:0|0:0|0:0,0:0:0:0:
147,62,4644,1,0,0:0:0:0:
187,216,4837,5,2,0:0:0:0:
167,139,5029,1,2,0:0:0:0:
130,271,5414,1,2,0:0:0:0:
187,216,5606,6,0,P|221:208|255:216,2,70,0|0|0,0:0|0:0|0:0,0:0:0:0:
150,348,6183,1,0,0:0:0:0:
167,139,6375,1,2,0:0:0:0:
187,216,6567,1,2,0:0:0:0:
339,258,6952,1,2,0:0:0:0:
383,192,7144,6,0,P|351:178|317:179,2,70,0|2|2,0:0|0:0|0:0,0:0:0:0:
372,330,7721,1,2,0:0:0:0:
261,251,7914,1,2,0:0:0:0:
339,258,8106,1,0,0:0:0:0:
273,114,8298,1,2,0:0:0:0:
183,244,8491,1,2,0:0:0:0:
432,176,8683,6,0,B|336:216|338:133|224:182,1,210,0|0,0:0|0:0,0:0:0:0:
183,244,9452,2,0,P|231:152|181:62,1,210,2|2,0:0|0:0,0:0:0:0:
102,53,10221,6,0,P|105:90|125:125,1,70,0|2,0:0|0:0,0:0:0:0:
205,154,10606,1,0,0:0:0:0:
353,103,10798,2,0,P|315:90|260:92,1,70,2|0,0:0|0:0,0:0:0:0:
187,219,11183,1,0,0:0:0:0:
187,219,11375,2,0,P|190:182|210:147,1,70,2|0,0:0|0:0,0:0:0:0:
67,282,11760,6,0,P|25:294|-12:284,1,70,2|2,0:0|0:0,0:0:0:0:
102,184,12144,1,0,0:0:0:0:
154,343,12337,2,0,P|202:353|250:339,1,70,2|0,0:0|0:0,0:0:0:0:
345,244,12721,1,0,0:0:0:0:
345,244,12914,2,0,P|309:246|255:284,1,70,2|2,0:0|0:0,0:0:0:0:
444,111,13298,5,2,0:0:0:0:
368,39,13683,1,2,0:0:0:0:
283,92,14067,1,2,0:0:0:0:
204,27,14452,1,2,0:0:0:0:
71,176,14837,6,0,P|89:214|117:153,1,140,2|2,0:0|0:0,0:0:0:0:
232,237,15414,2,0,P|214:275|186:214,1,140,2|2,0:0|0:0,0:0:0:0:
438,58,16375,6,0,L|445:219,1,140,2|2,0:0|0:0,0:0:0:0:
240,193,16952,2,0,B|336:233|334:150|448:199,1,210,2|2,0:0|0:0,0:0:0:0:
258,309,17721,2,0,P|232:75|125:217,1,560,2|0,0:0|0:0,0:0:0:0:
124,215,19356,1,0,0:0:0:0:
124,215,19452,1,2,0:0:0:0:
133,267,20361,6,0,L|98:267,1,35,0|0,0:0|0:0,0:0:0:0:
204,211,20542,2,0,B|247:189|247:189|302:202,1,105,8|0,0:0|0:0,0:0:0:0:
334,214,20930,6,0,L|341:304,1,70,6|0,0:0|0:0,0:0:0:0:
426,108,21293,2,0,L|431:38,1,70,10|0,0:0|0:0,0:0:0:0:
313,235,21657,2,0,L|318:304,1,70,6|0,0:0|0:0,0:0:0:0:
454,91,22020,2,0,L|459:21,1,70,10|0,0:0|0:0,0:0:0:0:
298,255,22384,5,6,0:0:0:0:
483,204,22566,1,2,0:0:0:0:
483,204,22657,1,0,0:0:0:0:
483,204,22729,1,8,0:0:0:0:
292,118,22910,1,2,0:0:0:0:
330,349,23092,5,0,0:0:0:0:
296,351,23183,1,0,0:0:0:0:
261,345,23274,1,10,0:0:0:0:
230,328,23365,1,0,0:0:0:0:
206,302,23456,2,0,P|204:281|216:248,1,41.9999987182618
213,105,23638,2,0,P|196:110|176:128,1,41.9999987182618,2|0,0:0|0:0,0:0:0:0:
346,185,23820,6,0,P|372:145|355:61,1,105,4|0,0:0|0:0,0:0:0:0:
397,76,24183,2,0,L|478:69,1,70,8|0,0:0|0:0,0:0:0:0:
298,259,24547,1,0,0:0:0:0:
258,82,24729,1,0,0:0:0:0:
434,150,24910,1,10,0:0:0:0:
216,191,25092,1,0,0:0:0:0:
384,356,25274,6,0,L|468:354,1,70,2|0,0:0|0:0,0:0:0:0:
337,162,25638,1,8,0:0:0:0:
200,295,25820,2,0,L|47:290,1,140,2|0,0:0|0:0,0:0:0:0:
266,217,26365,2,0,L|182:215,1,70,10|2,0:0|0:0,0:0:0:0:
360,354,26729,5,0,0:0:0:0:
337,162,26910,1,0,0:0:0:0:
246,382,27092,1,8,0:0:0:0:
442,237,27274,1,0,0:0:0:0:
196,215,27456,2,0,P|229:235|276:238,1,70,0|0,0:0|0:0,0:0:0:0:
112,143,27820,2,0,P|78:161|52:200,1,70,10|0,0:0|0:0,0:0:0:0:
217,107,28183,5,2,0:0:0:0:
30,67,28365,1,0,0:0:0:0:
98,262,28547,1,14,0:0:0:0:
141,16,28729,1,2,0:0:0:0:
141,16,28820,1,0,0:0:0:0:
141,16,28910,1,0,0:0:0:0:
18,52,29092,1,0,0:0:0:0:
235,100,29274,1,10,0:0:0:0:
94,276,29456,1,2,0:0:0:0:
141,16,29638,5,4,0:0:0:0:
141,16,30001,1,8,0:0:0:0:
77,102,30183,1,2,0:0:0:0:
127,246,30365,2,0,P|141:213|134:168,1,70,2|2,0:0|0:0,0:0:0:0:
77,102,30729,1,8,0:0:0:0:
141,16,30910,1,2,0:0:0:0:
237,150,31092,6,0,L|306:151,1,70,0|2,0:0|0:0,0:0:0:0:
221,308,31456,2,0,P|207:275|214:230,1,70,8|2,0:0|0:0,0:0:0:0:
403,154,31820,1,0,0:0:0:0:
352,237,32001,1,2,0:0:0:0:
357,68,32183,1,8,0:0:0:0:
454,71,32365,1,2,0:0:0:0:
306,151,32547,6,0,B|257:173|257:173|182:145,1,105,2|0,0:0|0:0,0:0:0:0:
179,136,32910,1,8,0:0:0:0:
161,297,33092,2,0,P|144:260|155:212,1,70,2|0,0:0|0:0,0:0:0:0:
179,136,33456,1,2,0:0:0:0:
50,285,33638,1,8,0:0:0:0:
50,113,33820,6,0,L|63:189,1,70,2|0,0:0|0:0,0:0:0:0:
50,285,34183,1,2,0:0:0:0:
179,136,34365,2,0,L|192:212,1,70,10|0,0:0|0:0,0:0:0:0:
75,83,34729,1,2,0:0:0:0:
61,181,34910,1,0,0:0:0:0:
186,41,35092,2,0,P|225:35|260:43,1,70,8|0,0:0|0:0,0:0:0:0:
466,125,35456,6,0,P|426:141|329:97,1,140,4|8,0:0|0:0,0:0:0:0:
412,39,36001,1,2,0:0:0:0:
418,214,36183,1,2,0:0:0:0:
466,125,36365,1,2,0:0:0:0:
290,198,36547,1,10,0:0:0:0:
452,309,36729,6,0,P|460:268|444:221,1,70,2|0,0:0|0:0,0:0:0:0:
290,198,37092,2,0,P|317:176|351:167,1,70,2|8,0:0|0:0,0:0:0:0:
333,361,37456,2,0,P|301:348|276:325,1,70,2|0,0:0|0:0,0:0:0:0:
358,266,37820,1,2,0:0:0:0:
174,358,38001,2,0,P|168:323|176:289,1,70,10|0,0:0|0:0,0:0:0:0:
350,164,38365,5,0,0:0:0:0:
350,164,38547,1,0,0:0:0:0:
175,54,38729,2,0,L|269:49,1,70,8|2,0:0|0:0,0:0:0:0:
266,50,39001,1,0,0:0:0:0:
288,50,39092,1,2,0:0:0:0:
117,131,39274,1,2,0:0:0:0:
79,42,39456,1,8,0:0:0:0:
310,50,39638,5,2,0:0:0:0:
332,50,40001,5,2,0:0:0:0:
354,50,40365,5,2,0:0:0:0:
236,10,40729,5,2,0:0:0:0:
428,90,40910,2,0,B|450:114|450:114|452:153|475:181,1,105,4|0,0:0|0:0,0:0:0:0:
502,203,41274,6,0,L|375:204,1,105,4|0,0:0|0:0,0:0:0:0:
297,157,41638,2,0,L|349:156,1,35,8|0,0:0|0:0,0:0:0:0:
434,287,41820,2,0,L|307:288,1,105,4|0,0:0|0:0,0:0:0:0:
229,241,42183,2,0,L|281:240,1,35,0|0,0:0|0:0,0:0:0:0:
366,371,42365,1,12,0:0:0:0:
195,324,42547,6,0,L|112:324,1,70,2|0,0:0|0:0,0:0:0:0:
51,164,42910,2,0,L|51:246,1,70,2|8,0:0|0:0,0:0:0:0:
187,306,43274,6,0,L|85:307,1,70,2|0,0:0|0:0,0:0:0:0:
65,176,43638,1,2,0:0:0:0:
211,33,43820,2,0,B|205:69|205:69|212:90|212:90|200:156,1,105,8|0,0:0|0:0,0:0:0:0:
180,161,44183,6,0,P|238:137|302:173,1,140,6|8,0:0|0:0,0:0:0:0:
305,66,44729,1,0,0:0:0:0:
380,104,44910,2,0,P|387:67|380:22,1,70,2|2,0:0|0:0,0:0:0:0:
462,128,45274,1,10,0:0:0:0:
406,259,45456,6,0,P|399:222|406:177,1,70,6|0,0:0|0:0,0:0:0:0:
443,342,45820,2,0,P|406:349|361:342,1,70,2|8,0:0|0:0,0:0:0:0:
242,267,46183,2,0,P|276:260|310:263,1,70,2|0,0:0|0:0,0:0:0:0:
191,352,46547,1,2,0:0:0:0:
147,191,46729,2,0,P|112:184|78:187,1,70,8|0,0:0|0:0,0:0:0:0:
62,195,47001,1,0,0:0:0:0:
47,204,47092,6,0,B|56:128,1,70,6|0,0:0|0:0,0:0:0:0:
118,10,47456,1,10,0:0:0:0:
118,270,47638,2,0,P|161:276|229:200,1,140,6|2,0:0|0:0,0:0:0:0:
281,75,48183,1,10,0:0:0:0:
425,320,48365,6,0,P|382:326|314:250,1,140,6|0,0:0|0:0,0:0:0:0:
281,75,48910,1,10,0:0:0:0:
61,319,49092,2,0,B|101:317|101:317|123:305|123:305|197:302,1,140,6|2,0:0|0:0,0:0:0:0:
281,75,49638,1,10,0:0:0:0:
238,299,49820,1,0,0:0:0:0:
147,132,50001,6,0,P|95:124|44:137,2,105,6|0|0,0:0|0:0|0:0,0:0:0:0:
300,206,50729,2,0,P|248:213|197:200,2,105,8|0|0,0:0|0:0|0:0,0:0:0:0:
458,37,51456,5,2,0:0:0:0:
326,188,51729,1,0,0:0:0:0:
390,377,52001,1,0,0:0:0:0:
435,249,52183,5,8,0:0:0:0:
183,309,52456,1,0,0:0:0:0:
257,60,52729,1,0,0:0:0:0:
336,148,52930,5,12,0:0:0:0:
193,190,53111,1,4,0:0:0:0:
399,207,53475,5,2,0:0:0:0:
130,131,53839,5,2,0:0:0:0:
419,123,54202,5,2,0:0:0:0:
111,216,54566,5,4,0:0:0:0:
419,123,54748,1,4,0:0:0:0:
46,157,55111,6,0,L|94:135,1,35,10|0,0:0|0:0,0:0:0:0:
80,319,55293,2,0,L|32:297,1,35,10|0,0:0|0:0,0:0:0:0:
48,304,55630,6,0,P|120:328|216:294,1,167.999994873047,6|0,0:0|0:0,0:0:0:0:
327,148,56174,2,0,P|286:179|233:185,1,83.9999974365235,8|0,0:0|0:0,0:0:0:0:
195,85,56538,1,2,0:0:0:0:
410,184,56720,2,0,P|417:133|396:84,1,83.9999974365235,2|8,0:0|0:0,0:0:0:0:
305,354,57083,6,0,B|376:340|376:340|397:320|397:320|494:301,1,167.999994873047,6|0,0:0|0:0,0:0:0:0:
244,278,57629,2,0,L|326:261,1,83.9999974365235,8|0,0:0|0:0,0:0:0:0:
211,372,57992,1,2,0:0:0:0:
226,177,58174,1,2,0:0:0:0:
305,354,58356,1,8,0:0:0:0:
51,292,58538,6,0,B|117:238|117:238|222:271,1,167.999994873047,4|2,0:0|0:0,0:0:0:0:
136,335,59083,1,10,0:0:0:0:
67,143,59265,1,0,0:0:0:0:
123,297,59447,1,2,0:0:0:0:
129,66,59629,1,2,0:0:0:0:
4,231,59811,1,10,0:0:0:0:
219,155,59992,6,0,B|303:128|303:189|395:154,1,167.999994873047,6|0,0:0|0:0,0:0:0:0:
266,315,60538,2,0,P|255:266|268:204,1,83.9999974365235,8|0,0:0|0:0,0:0:0:0:
470,104,60901,1,2,0:0:0:0:
403,262,61083,1,0,0:0:0:0:
344,81,61265,1,10,0:0:0:0:
503,252,61447,6,0,P|436:272|362:188,1,167.999994873047,6|2,0:0|0:0,0:0:0:0:
344,81,61992,1,8,0:0:0:0:
149,329,62174,2,0,P|216:349|290:265,1,167.999994873047,6|2,0:0|0:0,0:0:0:0:
147,103,62720,1,10,0:0:0:0:
112,312,62901,1,2,0:0:0:0:
30,139,63083,5,2,0:0:0:0:
257,199,63265,2,0,P|271:158|261:97,1,83.9999974365235,2|8,0:0|0:0,0:0:0:0:
332,251,63629,2,0,P|359:170|339:51,1,167.999994873047,6|2,0:0|0:0,0:0:0:0:
176,147,64174,1,10,0:0:0:0:
334,52,64356,1,2,0:0:0:0:
193,275,64538,6,0,L|101:260,1,83.9999974365235,2|0,0:0|0:0,0:0:0:0:
319,275,64901,2,0,L|411:260,1,83.9999974365235,10|0,0:0|0:0,0:0:0:0:
158,296,65265,2,0,L|38:276,1,83.9999974365235,2|0,0:0|0:0,0:0:0:0:
354,296,65629,2,0,L|473:276,1,83.9999974365235,10|0,0:0|0:0,0:0:0:0:
186,62,65992,5,2,0:0:0:0:
255,299,66174,1,2,0:0:0:0:
326,62,66356,1,8,0:0:0:0:
359,38,66447,1,0,0:0:0:0:
400,43,66538,2,0,P|429:47|462:58,1,41.9999987182618,0|0,0:0|0:0,0:0:0:0:
361,185,66720,6,0,L|292:204,1,41.9999987182618,10|0,0:0|0:0,0:0:0:0:
160,193,66901,2,0,L|119:181,1,41.9999987182618,10|0,0:0|0:0,0:0:0:0:
119,181,67265,6,0,P|127:265|85:361,1,167.999994873047,6|0,0:0|0:0,0:0:0:0:
39,142,67811,1,8,0:0:0:0:
210,284,67992,1,0,0:0:0:0:
201,89,68174,1,2,0:0:0:0:
20,308,68356,2,0,P|3:261|7:211,1,83.9999974365235,2|8,0:0|0:0,0:0:0:0:
104,30,68720,6,0,B|123:69|111:98|111:98|124:120|124:120|114:162|139:209,1,167.999994873047,6|0,0:0|0:0,0:0:0:0:
302,84,69265,1,8,0:0:0:0:
135,228,69447,1,0,0:0:0:0:
345,231,69629,1,2,0:0:0:0:
215,44,69811,2,0,P|207:85|215:126,1,83.9999974365235,2|8,0:0|0:0,0:0:0:0:
453,73,70174,6,0,B|412:47|412:47|348:45|296:88,1,167.999994873047,6|0,0:0|0:0,0:0:0:0:
224,257,70720,1,10,0:0:0:0:
260,98,70901,1,0,0:0:0:0:
310,306,71083,1,2,0:0:0:0:
176,120,71265,1,2,0:0:0:0:
404,96,71447,1,10,0:0:0:0:
177,212,71629,6,0,B|132:216|99:183|99:183|72:224|8:219,1,167.999994873047,6|0,0:0|0:0,0:0:0:0:
108,360,72174,2,0,L|105:260,1,83.9999974365235,8|0,0:0|0:0,0:0:0:0:
38,115,72538,1,2,0:0:0:0:
13,306,72720,1,2,0:0:0:0:
176,120,72901,1,10,0:0:0:0:
286,330,73083,6,0,P|352:348|414:263,1,167.999994873047,6|2,0:0|0:0,0:0:0:0:
379,137,73629,1,10,0:0:0:0:
194,336,73811,2,0,P|128:354|66:269,1,167.999994873047,6|2,0:0|0:0,0:0:0:0:
161,128,74356,1,10,0:0:0:0:
220,319,74538,1,2,0:0:0:0:
308,76,74720,5,2,0:0:0:0:
190,223,74901,1,2,0:0:0:0:
377,252,75083,1,8,0:0:0:0:
250,16,75265,2,0,P|330:-5|390:59,1,167.999994873047,6|0,0:0|0:0,0:0:0:0:
277,245,75811,2,0,L|298:138,1,83.9999974365235,10|0,0:0|0:0,0:0:0:0:
163,281,76174,6,0,L|179:363,1,83.9999974365235,6|0,0:0|0:0,0:0:0:0:
67,186,76538,2,0,L|83:103,1,83.9999974365235,10|0,0:0|0:0,0:0:0:0:
188,297,76901,2,0,L|204:379,1,83.9999974365235,2|0,0:0|0:0,0:0:0:0:
42,164,77265,2,0,L|58:81,1,83.9999974365235,10|0,0:0|0:0,0:0:0:0:
285,237,77629,6,0,L|397:236,1,83.9999974365235,2|0,0:0|0:0,0:0:0:0:
409,235,77901,1,0,0:0:0:0:
451,235,77992,1,10,0:0:0:0:
258,78,78174,1,4,0:0:0:0:
235,71,78538,2,0,L|185:54,1,41.9999987182618,4|0,0:0|0:0,0:0:0:0:
96,28,78720,2,0,L|123:168,1,125.999996154785,8|0,0:0|0:0,0:0:0:0:
83,233,79083,6,0,P|146:189|249:227,1,167.999994873047,6|8,0:0|0:0,0:0:0:0:
439,288,79629,2,0,B|359:321|359:247|276:297,1,167.999994873047,6|0,0:0|0:0,0:0:0:0:
278,295,80083,1,0,0:0:0:0:
278,295,80174,1,10,0:0:0:0:
421,93,80356,6,0,P|369:141|377:63,1,167.999994873047,6|0,0:0|0:0,0:0:0:0:
449,219,80901,2,0,P|401:234|336:226,1,83.9999974365235,12|0,0:0|0:0,0:0:0:0:
406,16,81265,1,8,0:3:0:0:
193,154,81447,1,8,0:0:0:0:
232,167,81538,1,8,0:0:0:0:
274,168,81629,2,0,P|277:98|261:32,1,125.999996154785,8|0,0:0|0:0,0:0:0:0:
226,26,81992,6,0,L|122:45,1,83.9999974365235,6|0,0:0|0:0,0:0:0:0:
358,122,82356,2,0,L|462:103,1,83.9999974365235,10|0,0:0|0:0,0:0:0:0:
190,13,82720,2,0,L|72:34,1,83.9999974365235,6|0,0:0|0:0,0:0:0:0:
394,135,83083,2,0,L|511:113,1,83.9999974365235,10|0,0:0|0:0,0:0:0:0:
279,14,83447,5,6,0:0:0:0:
230,212,83629,1,0,0:0:0:0:
218,252,83720,1,0,0:0:0:0:
206,292,83811,1,8,0:0:0:0:
292,158,83993,2,0,P|255:133|211:134,1,83.9999974365235,2|0,0:0|0:0,0:0:0:0:
144,346,84379,1,2,0:0:0:0:
177,369,84469,1,0,0:0:0:0:
219,373,84560,2,0,L|274:354,1,41.9999987182618,8|0,0:0|0:0,0:0:0:0:
347,225,84742,2,0,L|292:244,1,41.9999987182618,2|0,0:0|0:0,0:0:0:0:
431,288,84925,6,0,P|458:222|426:156,1,125.999996154785,6|0,0:0|0:0,0:0:0:0:
416,138,85288,2,0,L|311:146,1,83.9999974365235,8|0,0:0|0:0,0:0:0:0:
187,25,85652,1,0,0:0:0:0:
234,203,85834,1,0,0:0:0:0:
294,26,86015,2,0,L|399:18,1,83.9999974365235,8|0,0:0|0:0,0:0:0:0:
113,221,86379,5,6,0:0:0:0:
187,25,86561,2,0,P|194:68|184:116,1,83.9999974365235,0|8,0:0|0:0,0:0:0:0:
40,311,86925,2,0,B|24:222|24:222|47:139,1,167.999994873047,6|0,0:0|0:0,0:0:0:0:
252,232,87426,1,8,0:0:0:0:
98,70,87607,1,6,0:0:0:0:
256,192,87789,12,0,89244,0:0:0:0:
