osu file format v14

[General]
AudioFilename: audio.Mp3
AudioLeadIn: 0
PreviewTime: 55020
Countdown: 0
SampleSet: Soft
StackLeniency: 0.5
Mode: 0
LetterboxInBreaks: 0
WidescreenStoryboard: 1

[Editor]
DistanceSpacing: 1.2
BeatDivisor: 4
GridSize: 16
TimelineZoom: 1

[Metadata]
Title:CLEAR
TitleUnicode:CLEAR
Artist:Maaya Sakamoto
ArtistUnicode:坂本真綾
Creator:Kaitjuh
Version:Secure!
Source:カードキャプターさくら クリアカード編
Tags:Cardcaptor Sakura Clear Card Arc Hen Opening CrystilonZ
BeatmapID:1516382
BeatmapSetID:717049

[Difficulty]
HPDrainRate:7
CircleSize:4.2
OverallDifficulty:8.5
ApproachRate:9.2
SliderMultiplier:1.4
SliderTickRate:1

[Events]
//Background and Video events
0,0,"bg.jpg",0,0
Video,-366,"video.avi"
//Break Periods
//Storyboard Layer 0 (Background)
//Storyboard Layer 1 (Fail)
//Storyboard Layer 2 (Pass)
//Storyboard Layer 3 (Foreground)
//Storyboard Sound Samples

[TimingPoints]
991,769.230769230769,4,2,1,30,1,0
991,-50,4,2,1,30,0,0
20361,363.636363636364,4,2,1,60,1,0
20542,363.636363636364,4,2,1,60,1,0
20814,-100,4,2,1,5,0,0
20930,363.636363636364,4,2,1,60,1,0
22729,363.636363636364,4,2,1,60,1,0
23456,-83.3333333333333,4,2,1,60,0,0
23820,363.636363636364,4,2,1,60,1,0
30001,-100,4,2,1,40,0,0
41274,-100,4,2,1,45,0,0
43820,-66.6666666666667,4,2,1,50,0,0
44183,-100,4,2,1,45,0,0
46729,-66.6666666666667,4,2,1,50,0,0
47092,-100,4,2,1,45,0,0
49638,-66.6666666666667,4,2,1,50,0,0
50001,-100,4,2,1,45,0,0
52930,363.636363636364,4,2,1,45,1,0
55202,-100,4,2,1,5,0,0
55293,-100,4,2,1,45,0,0
55384,-100,4,2,1,5,0,0
55630,363.636363636364,4,2,1,60,1,1
55630,-83.3333333333333,4,2,1,60,0,1
55811,363.636363636364,4,2,1,60,1,1
55811,-83.3333333333333,4,2,1,60,0,1
66720,-83.3333333333333,4,2,1,60,0,0
66811,-83.3333333333333,4,2,1,5,0,0
66901,-83.3333333333333,4,2,1,60,0,0
66992,-83.3333333333333,4,2,1,5,0,0
67265,-83.3333333333333,4,2,1,60,0,1
81629,-166.666666666667,4,2,1,60,0,0
81993,363.636363636364,4,2,1,60,1,1
81993,-83.3333333333333,4,2,1,60,0,1
84379,363.636363636364,4,2,1,60,1,1
84379,-83.3333333333333,4,2,1,60,0,1
84925,363.636363636364,4,2,1,60,1,1
84925,-83.3333333333333,4,2,1,60,0,1
87426,363.636363636364,5,2,1,60,1,1
87426,-83.3333333333333,5,2,1,60,0,1
87607,-83.3333333333333,5,2,1,60,0,0
89244,-83.3333333333333,4,2,1,5,0,0

[Colours]
Combo1 : 255,255,128
Combo2 : 128,255,128
Combo3 : 128,255,255
Combo4 : 255,128,192
Combo5 : 255,181,106

[HitObjects]
256,192,991,12,2,2529,0:0:0:0:
85,138,3298,5,2,0:0:0:0:
116,278,3491,1,2,0:0:0:0:
116,278,3875,1,2,0:0:0:0:
85,138,4067,6,0,P|126:123|165:124,1,70,0|0,0:0|0:0,0:0:0:0:
257,191,4452,2,0,P|291:188|323:175,1,70,0|0,0:0|0:0,0:0:0:0:
356,101,4837,1,2,0:0:0:0:
396,241,5029,1,2,0:0:0:0:
396,241,5414,1,2,0:0:0:0:
356,101,5606,6,0,P|315:86|276:87,1,70,0|0,0:0|0:0,0:0:0:0:
180,157,5991,2,0,P|165:198|166:237,1,70,0|0,0:0|0:0,0:0:0:0:
205,291,6375,1,2,0:0:0:0:
74,189,6567,1,2,0:0:0:0:
74,189,6952,1,2,0:0:0:0:
205,291,7144,6,0,L|287:282,1,70,0|2,0:0|0:0,0:0:0:0:
382,197,7529,1,2,0:0:0:0:
326,349,7721,1,2,0:0:0:0:
331,136,7914,1,2,0:0:0:0:
354,273,8106,1,0,0:0:0:0:
461,183,8298,1,2,0:0:0:0:
252,149,8491,1,2,0:0:0:0:
326,349,8683,6,0,L|307:210,1,140
307,210,9452,5,2,0:0:0:0:
242,139,9644,1,2,0:0:0:0:
335,118,9837,1,2,0:0:0:0:
214,231,10029,6,0,P|169:239|130:227,1,70,2|0,0:0|0:0,0:0:0:0:
138,84,10414,2,0,P|167:118|176:158,1,70,2|0,0:0|0:0,0:0:0:0:
50,223,10798,2,0,P|65:180|95:152,1,70,2|0,0:0|0:0,0:0:0:0:
145,234,11183,1,0,0:0:0:0:
87,310,11375,1,2,0:0:0:0:
81,162,11567,1,0,0:0:0:0:
237,232,11760,5,2,0:0:0:0:
237,232,11952,2,0,L|310:236,1,70,2|0,0:0|0:0,0:0:0:0:
422,202,12337,2,0,P|427:164|410:115,1,70,2|0,0:0|0:0,0:0:0:0:
383,43,12721,1,0,0:0:0:0:
420,134,12914,1,2,0:0:0:0:
481,57,13106,1,2,0:0:0:0:
322,120,13298,5,2,0:0:0:0:
224,106,13683,1,2,0:0:0:0:
126,92,14067,1,2,0:0:0:0:
28,78,14452,1,2,0:0:0:0:
90,259,14837,6,0,B|149:295|149:295|239:272,1,140,2|2,0:0|0:0,0:0:0:0:
422,259,15414,2,0,B|363:295|363:295|273:272,1,140,2|2,0:0|0:0,0:0:0:0:
256,21,16375,6,0,L|256:161,1,140,2|2,0:0|0:0,0:0:0:0:
175,131,16952,2,0,P|256:74|339:143,1,210,2|2,0:0|0:0,0:0:0:0:
59,210,17721,2,0,B|75:275|157:292|239:259|256:160|256:160|272:259|355:292|437:275|453:210,1,560,2|0,0:0|0:0,0:0:0:0:
452,210,19356,1,0,0:0:0:0:
452,210,19452,1,2,0:0:0:0:
78,163,20361,5,0,0:0:0:0:
79,215,20451,1,0,0:0:0:0:
80,267,20542,2,0,P|127:287|194:270,1,105,8|0,0:0|0:0,0:0:0:0:
211,257,20930,5,6,0:0:0:0:
241,382,21111,1,0,0:0:0:0:
348,186,21293,5,10,0:0:0:0:
336,332,21475,1,0,0:0:0:0:
257,98,21657,5,6,0:0:0:0:
287,270,21839,1,0,0:0:0:0:
461,52,22020,5,10,0:0:0:0:
429,258,22202,1,0,0:0:0:0:
146,34,22384,5,6,0:0:0:0:
337,145,22566,1,2,0:0:0:0:
379,143,22657,1,0,0:0:0:0:
412,142,22729,1,8,0:0:0:0:
215,287,22910,6,0,L|162:290,1,35,2|0,0:0|0:0,0:0:0:0:
84,225,23092,1,0,0:0:0:0:
66,255,23183,1,0,0:0:0:0:
59,289,23274,1,10,0:0:0:0:
64,324,23365,1,0,0:0:0:0:
81,355,23456,2,0,L|134:352,1,41.9999987182618
243,191,23638,2,0,L|199:192,1,41.9999987182618,2|0,0:0|0:0,0:0:0:0:
332,355,23819,6,0,L|455:344,1,105,4|0,0:0|0:0,0:0:0:0:
478,341,24183,1,8,0:0:0:0:
411,154,24365,1,0,0:0:0:0:
375,260,24547,1,0,0:0:0:0:
301,180,24729,1,0,0:0:0:0:
471,82,24910,6,0,P|423:63|349:91,1,105,10|0,0:0|0:0,0:0:0:0:
338,98,25274,2,0,L|242:100,1,70,2|0,0:0|0:0,0:0:0:0:
233,99,25547,1,0,0:0:0:0:
198,100,25638,1,8,0:0:0:0:
35,224,25820,2,0,B|90:218|90:218|121:232|121:232|176:227,1,140,2|0,0:0|0:0,0:0:0:0:
7,149,26365,2,0,L|93:138,1,70,10|2,0:0|0:0,0:0:0:0:
248,363,26729,5,0,0:0:0:0:
283,147,26910,1,0,0:0:0:0:
129,306,27092,1,8,0:0:0:0:
355,256,27274,1,0,0:0:0:0:
242,55,27456,5,0,0:0:0:0:
254,241,27638,1,0,0:0:0:0:
414,30,27820,1,10,0:0:0:0:
463,216,28001,1,0,0:0:0:0:
283,147,28183,6,0,P|243:145|189:163,1,70,2|0,0:0|0:0,0:0:0:0:
143,295,28547,1,14,0:0:0:0:
145,76,28729,1,2,0:0:0:0:
145,76,28820,1,0,0:0:0:0:
145,76,28910,1,0,0:0:0:0:
22,244,29092,1,0,0:0:0:0:
261,242,29274,1,10,0:0:0:0:
143,34,29456,1,2,0:0:0:0:
141,332,29638,5,4,0:0:0:0:
141,332,30001,1,8,0:0:0:0:
77,273,30183,1,2,0:0:0:0:
209,247,30365,2,0,L|290:253,1,70,2|2,0:0|0:0,0:0:0:0:
57,354,30729,1,8,0:0:0:0:
179,168,30910,6,0,L|260:174,1,70,2|0,0:0|0:0,0:0:0:0:
376,53,31274,2,0,L|292:60,1,70,2|8,0:0|0:0,0:0:0:0:
430,174,31638,2,0,L|499:168,1,70,2|0,0:0|0:0,0:0:0:0:
487,72,32001,1,2,0:0:0:0:
381,264,32183,2,0,L|311:268,1,70,8|2,0:0|0:0,0:0:0:0:
89,183,32547,6,0,P|135:210|205:187,1,105,2|0,0:0|0:0,0:0:0:0:
215,186,32910,1,8,0:0:0:0:
41,326,33092,2,0,L|36:239,1,70,2|0,0:0|0:0,0:0:0:0:
152,120,33456,1,2,0:0:0:0:
206,292,33638,1,8,0:0:0:0:
259,99,33820,6,0,P|219:90|174:103,1,70,2|0,0:0|0:0,0:0:0:0:
292,20,34183,1,2,0:0:0:0:
326,178,34365,2,0,P|366:187|411:174,1,70,10|0,0:0|0:0,0:0:0:0:
457,112,34729,1,2,0:0:0:0:
422,269,34910,1,0,0:0:0:0:
366,92,35092,1,8,0:0:0:0:
485,201,35274,1,0,0:0:0:0:
450,358,35456,6,0,B|379:357|379:357|327:296,1,140,4|8,0:0|0:0,0:0:0:0:
272,187,36001,1,2,0:0:0:0:
156,323,36183,1,2,0:0:0:0:
176,220,36365,1,2,0:0:0:0:
252,290,36547,1,10,0:0:0:0:
78,179,36729,6,0,L|83:271,1,70,2|0,0:0|0:0,0:0:0:0:
224,143,37092,2,0,L|219:235,1,70,2|8,0:0|0:0,0:0:0:0:
41,115,37456,2,0,L|46:207,1,70,2|0,0:0|0:0,0:0:0:0:
102,24,37820,1,2,0:0:0:0:
257,148,38001,2,0,P|294:156|338:151,1,70,10|0,0:0|0:0,0:0:0:0:
410,19,38365,5,0,0:0:0:0:
410,19,38547,1,0,0:0:0:0:
448,215,38729,2,0,P|460:176|455:129,1,70,8|2,0:0|0:0,0:0:0:0:
455,129,39001,1,0,0:0:0:0:
450,112,39092,1,2,0:0:0:0:
325,153,39274,1,2,0:0:0:0:
502,50,39456,1,8,0:0:0:0:
366,267,39638,5,2,0:0:0:0:
332,275,40001,5,2,0:0:0:0:
298,283,40365,5,2,0:0:0:0:
428,325,40729,5,2,0:0:0:0:
196,251,40910,2,0,B|148:244|148:244|125:273|88:280,1,105,4|0,0:0|0:0,0:0:0:0:
46,331,41274,6,0,L|43:222,1,105,4|0,0:0|0:0,0:0:0:0:
40,190,41638,1,8,0:0:0:0:
131,36,41820,1,4,0:0:0:0:
139,180,42001,2,0,L|136:110,1,70,2|0,0:0|0:0,0:0:0:0:
142,256,42365,1,12,0:0:0:0:
226,54,42547,6,0,P|261:48|296:51,1,70,2|0,0:0|0:0,0:0:0:0:
469,128,42910,2,0,P|434:134|399:130,1,70,2|8,0:0|0:0,0:0:0:0:
250,70,43274,2,0,P|285:64|320:67,1,70,2|0,0:0|0:0,0:0:0:0:
493,144,43638,2,0,L|495:184,1,35,2|0,0:0|0:0,0:0:0:0:
372,271,43820,6,0,B|376:212|368:154|368:154|416:201,1,157.500006008148,8|0,0:0|0:0,0:0:0:0:
428,332,44183,6,0,B|369:350|369:350|268:313,1,140,6|8,0:0|0:0,0:0:0:0:
207,164,44729,1,0,0:0:0:0:
205,305,44910,1,2,0:0:0:0:
329,237,45092,1,2,0:0:0:0:
162,94,45274,1,10,0:0:0:0:
14,266,45456,6,0,P|48:274|82:265,1,70,6|0,0:0|0:0,0:0:0:0:
53,77,45820,2,0,P|46:112|63:157,1,70,2|8,0:0|0:0,0:0:0:0:
243,115,46183,2,0,P|209:107|175:116,1,70,2|0,0:0|0:0,0:0:0:0:
205,305,46547,2,0,P|209:283|205:255,1,35,2|0,0:0|0:0,0:0:0:0:
59,325,46729,6,0,B|27:349|27:349|84:340|154:348,1,157.500006008148,8|0,0:0|0:0,0:0:0:0:
213,382,47092,6,0,L|304:383,1,70,6|0,0:0|0:0,0:0:0:0:
335,279,47456,1,10,0:0:0:0:
480,278,47638,2,0,L|383:279,1,70,6|0,0:0|0:0,0:0:0:0:
307,199,48001,1,2,0:0:0:0:
370,347,48183,1,10,0:0:0:0:
360,124,48365,6,0,P|396:103|440:103,1,70,6|0,0:0|0:0,0:0:0:0:
494,150,48729,1,0,0:0:0:0:
274,112,48910,1,10,0:0:0:0:
352,319,49092,2,0,P|316:340|272:340,1,70,6|0,0:0|0:0,0:0:0:0:
101,264,49456,2,0,L|51:267,1,35,2|0,0:0|0:0,0:0:0:0:
171,328,49638,6,0,B|188:243|188:243|179:202|129:179,1,157.500006008148,10|0,0:0|0:0,0:0:0:0:
118,166,50001,6,0,L|105:56,2,105,6|0|0,0:0|0:0|0:0,0:0:0:0:
246,220,50729,6,0,L|233:330,2,105,8|0|0,0:0|0:0|0:0,0:0:0:0:
432,47,51456,5,2,0:0:0:0:
345,196,51729,1,0,0:0:0:0:
424,349,52001,1,0,0:0:0:0:
412,11,52183,5,8,0:0:0:0:
307,191,52456,1,0,0:0:0:0:
402,374,52729,1,0,0:0:0:0:
139,156,52930,5,12,0:0:0:0:
372,133,53111,1,4,0:0:0:0:
70,97,53475,5,2,0:0:0:0:
441,192,53839,5,2,0:0:0:0:
70,287,54202,5,2,0:0:0:0:
441,192,54566,5,4,0:0:0:0:
70,97,54748,1,4,0:0:0:0:
269,345,55111,6,0,P|297:345|326:337,1,35,10|0,0:0|0:0,0:0:0:0:
279,32,55293,2,0,P|251:32|222:40,1,35,10|0,0:0|0:0,0:0:0:0:
223,41,55630,6,0,B|297:81|297:81|374:48,1,167.999994873047,6|0,0:0|0:0,0:0:0:0:
174,123,56174,1,8,0:0:0:0:
412,34,56356,2,0,L|413:85,1,41.9999987182618
413,196,56538,1,2,0:0:0:0:
301,4,56720,1,2,0:0:0:0:
271,242,56901,1,8,0:0:0:0:
493,149,57083,6,0,B|419:109|419:109|341:141,1,167.999994873047,6|0,0:0|0:0,0:0:0:0:
227,326,57629,2,0,L|320:322,1,83.9999974365235,8|0,0:0|0:0,0:0:0:0:
351,320,57901,1,0,0:0:0:0:
393,318,57992,1,2,0:0:0:0:
132,281,58174,1,2,0:0:0:0:
412,222,58356,1,8,0:0:0:0:
95,205,58538,6,0,B|154:203|154:203|194:223|194:223|277:219,1,167.999994873047,4|2,0:0|0:0,0:0:0:0:
97,302,59083,1,10,0:0:0:0:
93,108,59265,1,0,0:0:0:0:
12,256,59447,1,2,0:0:0:0:
209,130,59629,1,2,0:0:0:0:
2,23,59811,1,10,0:0:0:0:
291,210,59992,6,0,P|320:144|292:54,1,167.999994873047,6|0,0:0|0:0,0:0:0:0:
409,175,60538,2,0,P|414:124|405:78,1,83.9999974365235,8|0,0:0|0:0,0:0:0:0:
379,297,60901,1,2,0:0:0:0:
505,253,61083,1,0,0:0:0:0:
409,91,61265,1,10,0:0:0:0:
289,330,61447,6,0,P|221:305|193:220,1,167.999994873047,6|2,0:0|0:0,0:0:0:0:
379,297,61992,1,8,0:0:0:0:
201,130,62174,2,0,P|133:155|105:240,1,167.999994873047,6|2,0:0|0:0,0:0:0:0:
379,297,62720,1,10,0:0:0:0:
379,84,62901,1,2,0:0:0:0:
280,238,63083,5,2,0:0:0:0:
480,241,63265,1,2,0:0:0:0:
377,8,63447,1,8,0:0:0:0:
161,166,63629,2,0,B|243:202|243:127|339:179,1,167.999994873047,6|2,0:0|0:0,0:0:0:0:
93,284,64174,2,0,P|86:243|102:187,1,83.9999974365235,10|2,0:0|0:0,0:0:0:0:
226,12,64538,5,2,0:0:0:0:
310,216,64720,1,0,0:0:0:0:
327,13,64901,5,10,0:0:0:0:
213,220,65083,1,0,0:0:0:0:
127,84,65265,5,2,0:0:0:0:
408,129,65447,1,0,0:0:0:0:
126,162,65629,5,10,0:0:0:0:
409,51,65811,1,0,0:0:0:0:
83,337,65992,5,2,0:0:0:0:
256,79,66174,1,2,0:0:0:0:
429,337,66356,1,8,0:0:0:0:
367,373,66447,1,0,0:0:0:0:
311,327,66538,2,0,L|302:269,1,41.9999987182618,0|0,0:0|0:0,0:0:0:0:
179,29,66720,6,0,L|170:87,1,41.9999987182618,10|0,0:0|0:0,0:0:0:0:
112,306,66901,2,0,L|103:364,1,41.9999987182618,10|0,0:0|0:0,0:0:0:0:
100,377,67265,6,0,P|205:348|209:380,1,167.999994873047,6|0,0:0|0:0,0:0:0:0:
70,183,67811,1,8,0:0:0:0:
206,232,67992,2,0,L|256:222,1,41.9999987182618
343,231,68174,1,2,0:0:0:0:
159,150,68356,1,2,0:0:0:0:
322,32,68538,1,8,0:0:0:0:
369,324,68720,6,0,B|430:266|430:266|420:173,1,167.999994873047,6|0,0:0|0:0,0:0:0:0:
322,32,69265,2,0,L|333:125,1,83.9999974365235,8|0,0:0|0:0,0:0:0:0:
335,156,69538,1,0,0:0:0:0:
340,198,69629,1,2,0:0:0:0:
222,46,69811,1,2,0:0:0:0:
426,31,69992,1,8,0:0:0:0:
214,256,70174,6,0,P|127:281|42:235,1,167.999994873047,6|0,0:0|0:0,0:0:0:0:
136,7,70720,1,10,0:0:0:0:
139,182,70901,1,0,0:0:0:0:
42,33,71083,1,2,0:0:0:0:
254,145,71265,1,2,0:0:0:0:
0,148,71447,1,10,0:0:0:0:
280,42,71629,6,0,L|459:29,1,167.999994873047,6|0,0:0|0:0,0:0:0:0:
263,226,72174,2,0,P|248:189|254:124,1,83.9999974365235,8|0,0:0|0:0,0:0:0:0:
425,244,72538,1,2,0:0:0:0:
296,360,72720,1,2,0:0:0:0:
347,140,72901,1,10,0:0:0:0:
65,306,73083,6,0,B|103:335|103:335|232:304,1,167.999994873047,6|2,0:0|0:0,0:0:0:0:
256,124,73629,1,10,0:0:0:0:
447,306,73811,2,0,B|409:335|409:335|280:304,1,167.999994873047,6|2,0:0|0:0,0:0:0:0:
204,49,74356,1,10,0:0:0:0:
258,229,74538,1,2,0:0:0:0:
308,49,74720,6,0,P|349:35|405:46,1,83.9999974365235,2|2,0:0|0:0,0:0:0:0:
341,230,75083,1,8,0:0:0:0:
80,146,75265,2,0,B|162:110|162:185|258:133,1,167.999994873047,6|0,0:0|0:0,0:0:0:0:
123,239,75811,2,0,P|82:253|26:242,1,83.9999974365235,10|0,0:0|0:0,0:0:0:0:
202,39,76174,5,6,0:0:0:0:
123,239,76356,1,0,0:0:0:0:
96,36,76538,5,10,0:0:0:0:
315,106,76720,1,0,0:0:0:0:
50,120,76901,5,2,0:0:0:0:
283,24,77083,1,0,0:0:0:0:
443,217,77265,5,10,0:0:0:0:
201,110,77447,1,0,0:0:0:0:
201,110,77538,1,0,0:0:0:0:
201,110,77629,5,2,0:0:0:0:
247,330,77811,1,0,0:0:0:0:
326,51,77992,1,10,0:0:0:0:
109,277,78174,5,4,0:0:0:0:
109,277,78538,2,0,L|47:279,1,41.9999987182618,4|0,0:0|0:0,0:0:0:0:
0,219,78720,1,8,0:0:0:0:
235,355,78901,1,0,0:0:0:0:
235,355,78992,1,0,0:0:0:0:
235,355,79083,6,0,P|289:269|280:214,1,125.999996154785,6|0,0:0|0:0,0:0:0:0:
264,130,79447,2,0,L|278:193,1,41.9999987182618,8|0,0:0|0:0,0:0:0:0:
184,102,79629,2,0,P|244:46|321:67,1,167.999994873047,6|0,0:0|0:0,0:0:0:0:
320,66,80083,1,0,0:0:0:0:
320,66,80174,1,10,0:0:0:0:
468,176,80356,6,0,B|406:193|351:174|351:174|364:142|399:126,1,167.999994873047,6|0,0:0|0:0,0:0:0:0:
510,259,80901,1,12,0:0:0:0:
432,56,81083,1,0,0:0:0:0:
390,267,81265,2,8,L|431:263,1,41.9999987182618,8|0,0:3|0:0,0:0:0:0:
322,333,81447,1,8,0:0:0:0:
281,337,81538,1,8,0:0:0:0:
240,341,81629,6,0,L|172:346,1,62.9999980773926,8|0,0:0|0:0,0:0:0:0:
135,348,81993,5,6,0:0:0:0:
94,107,82174,2,0,L|89:62,1,41.9999987182618,0|0,0:0|0:0,0:0:0:0:
211,320,82356,5,10,0:0:0:0:
189,77,82538,2,0,L|188:32,1,41.9999987182618,0|0,0:0|0:0,0:0:0:0:
289,299,82720,5,6,0:0:0:0:
286,56,82902,2,0,L|288:10,1,41.9999987182618,0|0,0:0|0:0,0:0:0:0:
367,284,83083,5,10,0:0:0:0:
384,42,83265,2,0,L|390:-3,1,41.9999987182618,0|0,0:0|0:0,0:0:0:0:
445,269,83447,5,6,0:0:0:0:
480,51,83629,1,0,0:0:0:0:
480,51,83720,1,0,0:0:0:0:
480,51,83811,1,8,0:0:0:0:
346,150,83993,6,0,P|390:161|436:142,1,83.9999974365235,2|0,0:0|0:0,0:0:0:0:
244,278,84379,1,2,0:0:0:0:
266,243,84469,1,0,0:0:0:0:
258,203,84560,1,8,0:0:0:0:
225,178,84651,1,0,0:0:0:0:
185,182,84742,1,2,0:0:0:0:
158,213,84833,1,0,0:0:0:0:
159,254,84924,6,0,P|98:278|27:262,1,125.999996154785,6|0,0:0|0:0,0:0:0:0:
8,240,85288,1,8,0:0:0:0:
151,343,85470,1,0,0:0:0:0:
87,158,85652,1,0,0:0:0:0:
45,355,85834,1,0,0:0:0:0:
250,296,86015,2,0,P|259:250|250:205,1,83.9999974365235,8|0,0:0|0:0,0:0:0:0:
343,35,86379,6,0,L|349:135,1,83.9999974365235,6|0,0:0|0:0,0:0:0:0:
350,159,86652,1,0,0:0:0:0:
353,201,86743,1,8,0:0:0:0:
205,74,86925,6,0,B|138:61|138:61|108:78|108:78|24:65,1,167.999994873047,6|0,0:0|0:0,0:0:0:0:
154,195,87426,2,0,L|152:124,1,41.9999987182618,8|0,0:0|0:0,0:0:0:0:
87,275,87607,5,6,0:0:0:0:
256,192,87789,12,0,89244,0:0:0:0:
