osu file format v14

[General]
AudioFilename: audio.Mp3
AudioLeadIn: 0
PreviewTime: 55020
Countdown: 0
SampleSet: Soft
StackLeniency: 0.5
Mode: 0
LetterboxInBreaks: 0
WidescreenStoryboard: 1

[Editor]
DistanceSpacing: 1
BeatDivisor: 4
GridSize: 8
TimelineZoom: 1

[Metadata]
Title:CLEAR
TitleUnicode:CLEAR
Artist:Maaya Sakamoto
ArtistUnicode:坂本真綾
Creator:Kaitjuh
Version:Normal
Source:カードキャプターさくら クリアカード編
Tags:Cardcaptor Sakura Clear Card Arc Hen Opening CrystilonZ
BeatmapID:1516719
BeatmapSetID:717049

[Difficulty]
HPDrainRate:4
CircleSize:3.3
OverallDifficulty:4
ApproachRate:5
SliderMultiplier:1
SliderTickRate:1

[Events]
//Background and Video events
0,0,"bg.jpg",0,0
Video,-366,"video.avi"
//Break Periods
//Storyboard Layer 0 (Background)
//Storyboard Layer 1 (Fail)
//Storyboard Layer 2 (Pass)
//Storyboard Layer 3 (Foreground)
//Storyboard Sound Samples

[TimingPoints]
991,769.230769230769,4,2,1,30,1,0
991,-50,4,2,1,30,0,0
20361,363.636363636364,4,2,1,60,1,0
20542,363.636363636364,4,2,1,60,1,0
20814,-100,4,2,1,5,0,0
20930,363.636363636364,4,2,1,60,1,0
22729,363.636363636364,4,2,1,60,1,0
23820,363.636363636364,4,2,1,60,1,0
30001,-100,4,2,1,40,0,0
41274,-100,4,2,1,45,0,0
43820,-100,4,2,1,50,0,0
44183,-100,4,2,1,45,0,0
46729,-100,4,2,1,50,0,0
47092,-100,4,2,1,45,0,0
49638,-100,4,2,1,50,0,0
50001,-100,4,2,1,45,0,0
52930,363.636363636364,4,2,1,45,1,0
55202,-100,4,2,1,5,0,0
55293,-100,4,2,1,45,0,0
55384,-100,4,2,1,5,0,0
55630,363.636363636364,4,2,1,60,1,1
55630,-100,4,2,1,60,0,1
55811,363.636363636364,4,2,1,60,1,1
55811,-100,4,2,1,60,0,1
66720,-100,4,2,1,60,0,0
66811,-100,4,2,1,5,0,0
66901,-100,4,2,1,60,0,0
66992,-100,4,2,1,5,0,0
67265,-100,4,2,1,60,0,1
81629,-100,4,2,1,60,0,0
81993,363.636363636364,4,2,1,60,1,1
81993,-100,4,2,1,60,0,1
83993,-106.382978723404,4,2,1,60,0,1
84379,363.636363636364,4,2,1,60,1,1
84379,-100,4,2,1,60,0,1
84925,363.636363636364,4,2,1,60,1,1
84925,-100,4,2,1,60,0,1
87426,363.636363636364,5,2,1,60,1,1
87426,-100,5,2,1,60,0,1
87607,-100,5,2,1,60,0,0
89244,-100,4,2,1,5,0,0

[Colours]
Combo1 : 255,255,128
Combo2 : 128,255,128
Combo3 : 128,255,255
Combo4 : 255,128,192
Combo5 : 255,181,106

[HitObjects]
256,192,991,12,2,2529,0:0:0:0:
475,126,4067,6,0,P|390:79|307:126,1,200,0|2,0:0|0:0,0:0:0:0:
190,289,5606,2,0,P|108:336|17:280,1,200,0|2,0:0|0:0,0:0:0:0:
69,95,7144,6,0,P|110:78|180:97,1,100,2|0,0:0|0:0,0:0:0:0:
247,142,7914,2,0,P|295:151|341:133,1,100,2|2,0:0|0:0,0:0:0:0:
415,65,8683,1,2,0:0:0:0:
384,262,9452,1,2,0:0:0:0:
228,136,10221,6,0,L|113:129,1,100,2|0,0:0|0:0,0:0:0:0:
28,122,10991,2,0,B|67:213|67:213|172:220,1,200,2|2,0:0|0:0,0:0:0:0:
267,228,12144,1,0,0:0:0:0:
345,289,12529,2,0,B|364:217|364:217|329:144,1,150,2|0,0:0|0:0,0:0:0:0:
302,107,13298,6,0,P|292:55|314:-4,2,100,2|2|2,0:0|0:0|0:0,0:0:0:0:
387,156,14452,1,2,0:0:0:0:
303,205,14837,2,0,B|244:208|244:208|210:230|210:230|136:233,1,150,2|2,0:0|0:0,0:0:0:0:
59,235,15798,1,2,0:0:0:0:
112,94,16375,6,0,B|175:51|175:51|246:101,2,150,2|2|2,0:0|0:0|0:0,0:0:0:0:
75,128,17721,1,2,0:0:0:0:
256,192,17914,12,2,19452,0:0:0:0:
83,14,20930,6,0,L|205:20,1,100,6|10,0:0|0:0,0:0:0:0:
282,23,21657,2,0,P|299:69|289:117,1,100,6|10,0:0|0:0,0:0:0:0:
196,152,22384,2,0,P|193:176|196:201,1,50,6|2,0:0|0:0,0:0:0:0:
257,274,22910,2,0,L|363:268,2,100,2|10|2,0:0|0:0|0:0,0:0:0:0:
218,305,23820,6,0,L|112:311,1,100,4|8,0:0|0:0,0:0:0:0:
33,363,24547,2,0,P|18:319|29:263,1,100,0|10,0:0|0:0,0:0:0:0:
107,208,25274,2,0,P|122:164|73:67,2,150,2|2|10,0:0|0:0|0:0,0:0:0:0:
25,266,26729,6,0,P|66:300|129:306,1,100,0|8,0:0|0:0,0:0:0:0:
196,256,27456,2,0,P|237:222|300:216,1,100,0|10,0:0|0:0,0:0:0:0:
364,269,28183,2,0,B|424:311|424:311|487:268,2,150,2|2|10,0:0|0:0|0:0,0:0:0:0:
425,189,29638,6,0,L|421:87,1,100,4|8,0:0|0:0,0:0:0:0:
352,15,30365,2,0,P|297:3|239:29,1,100,2|8,0:0|0:0,0:0:0:0:
216,107,31092,2,0,P|168:120|120:107,1,100,0|8,0:0|0:0,0:0:0:0:
52,34,31820,1,0,0:0:0:0:
29,131,32183,1,8,0:0:0:0:
95,206,32547,6,0,B|112:275|112:275|86:368,2,150,2|2|8,0:0|0:0|0:0,0:0:0:0:
29,131,34001,2,0,P|77:108|135:115,1,100,0|10,0:0|0:0,0:0:0:0:
190,184,34729,6,0,B|242:208|290:184|290:184|338:160|391:184,1,200,2|4,0:0|0:0,0:0:0:0:
464,239,35820,1,8,0:0:0:0:
420,329,36183,2,0,L|314:332,1,100,2|10,0:0|0:0,0:0:0:0:
235,278,36910,2,0,L|135:275,1,100,0|8,0:0|0:0,0:0:0:0:
57,211,37638,1,0,0:0:0:0:
74,112,38001,1,10,0:0:0:0:
168,77,38365,6,0,L|270:71,1,100,0|8,0:0|0:0,0:0:0:0:
336,143,39092,2,0,L|386:146,1,50,2|2,0:0|0:0,0:0:0:0:
486,151,39638,2,0,B|494:100|494:100|479:46,2,100,2|2|2,0:0|0:0|0:0,0:0:0:0:
427,232,40729,2,0,L|417:287,1,50,2|4,0:0|0:0,0:0:0:0:
335,336,41274,6,0,P|381:374|472:366,2,150,4|4|12,0:0|0:0|0:0,0:0:0:0:
304,296,42547,1,2,0:0:0:0:
228,230,42910,2,0,L|116:233,1,100,2|2,0:0|0:0,0:0:0:0:
36,274,43638,2,0,L|32:211,1,50,2|8,0:0|0:0,0:0:0:0:
21,124,44183,6,0,B|66:103|114:127|114:127|162:151|214:127,1,200,6|2,0:0|0:0,0:0:0:0:
298,74,45274,2,0,P|324:68|357:72,1,50,10|6,0:0|0:0,0:0:0:0:
428,131,45820,2,0,P|447:78|436:22,2,100,2|2|2,0:0|0:0|0:0,0:0:0:0:
395,168,46729,1,8,0:0:0:0:
312,227,47092,6,0,L|148:238,1,150,6|6,0:0|0:0,0:0:0:0:
62,241,48001,2,0,P|64:213|52:179,1,50,2|10,0:0|0:0,0:0:0:0:
47,143,48365,2,0,P|96:103|185:88,1,150,6|10,0:0|0:0,0:0:0:0:
228,99,49092,1,6,0:0:0:0:
318,55,49456,2,0,P|349:49|381:55,1,50,2|10,0:0|0:0,0:0:0:0:
446,111,50001,6,0,L|449:288,1,150,6|0,0:0|0:0,0:0:0:0:
438,310,50729,2,0,B|363:333|361:272|274:305,1,150,8|0,0:0|0:0,0:0:0:0:
255,333,51456,2,0,L|252:156,1,150,2|0,0:0|0:0,0:0:0:0:
249,133,52183,2,0,P|191:99|112:112,1,150,8|0,0:0|0:0,0:0:0:0:
88,162,52930,6,0,L|88:221,1,50,12|4,0:0|0:0,0:0:0:0:
178,255,53475,1,2,0:0:0:0:
268,212,53839,1,2,0:0:0:0:
351,266,54202,1,2,0:0:0:0:
437,214,54566,2,0,L|437:155,1,50,4|4,0:0|0:0,0:0:0:0:
458,66,55111,2,0,P|430:64|398:71,1,50,10|10,0:0|0:0,0:0:0:0:
344,134,55630,6,0,P|271:153|198:138,1,150,6|8,0:0|0:0,0:0:0:0:
106,99,56538,2,0,L|107:154,1,50,2|2,0:0|0:0,0:0:0:0:
114,249,57083,2,0,P|187:234|259:252,1,150,6|8,0:0|0:0,0:0:0:0:
329,322,57992,2,0,P|360:326|388:318,1,50,2|2,0:0|0:0,0:0:0:0:
432,237,58538,6,0,B|418:186|418:186|429:118,1,100,4|2,0:0|0:0,0:0:0:0:
466,110,59083,2,0,P|470:79|462:51,1,50,10|0,0:0|0:0,0:0:0:0:
429,26,59447,2,0,P|398:22|370:30,1,50,2|2,0:0|0:0,0:0:0:0:
347,64,59811,1,10,0:0:0:0:
317,104,59992,2,0,L|161:126,1,150,6|8,0:0|0:0,0:0:0:0:
77,83,60901,2,0,P|69:134|99:199,1,100,2|10,0:0|0:0,0:0:0:0:
123,209,61447,6,0,L|108:335,2,100,6|2|6,0:0|0:0|0:0,0:0:0:0:
173,123,62538,1,2,0:0:0:0:
219,104,62720,2,0,P|242:99|272:101,1,50,10|2,0:0|0:0,0:0:0:0:
305,133,63083,2,0,P|329:134|354:129,1,50,2|2,0:0|0:0,0:0:0:0:
442,79,63629,2,0,P|454:119|438:187,1,100,6|2,0:0|0:0,0:0:0:0:
410,212,64174,2,0,L|405:268,1,50,10|2,0:0|0:0,0:0:0:0:
370,298,64538,5,2,0:0:0:0:
271,317,64901,1,10,0:0:0:0:
205,240,65265,1,2,0:0:0:0:
238,144,65629,1,10,0:0:0:0:
337,124,65992,2,0,L|400:126,1,50,2|2,0:0|0:0,0:0:0:0:
436,132,66356,2,0,P|458:183|440:265,1,100,8|10,0:0|0:0,0:0:0:0:
436,272,66901,1,10,0:0:0:0:
357,333,67265,6,0,L|214:330,1,100,6|0,0:0|0:0,0:0:0:0:
206,330,67811,1,8,0:0:0:0:
119,279,68174,2,0,P|116:254|120:220,1,50,2|2,0:0|0:0,0:0:0:0:
166,141,68720,2,0,L|265:138,1,100,6|0,0:0|0:0,0:0:0:0:
316,138,69265,1,8,0:0:0:0:
415,150,69629,2,0,P|415:125|409:100,1,50,2|2,0:0|0:0,0:0:0:0:
329,40,70174,6,0,B|282:20|282:20|205:32,1,100,6|0,0:0|0:0,0:0:0:0:
198,63,70720,2,0,P|166:63|131:38,1,50,10|0,0:0|0:0,0:0:0:0:
114,20,71083,2,0,P|90:11|65:13,1,50,2|2,0:0|0:0,0:0:0:0:
45,58,71447,1,10,0:0:0:0:
52,107,71629,2,0,B|79:181|28:170|56:260,1,150,6|8,0:0|0:0,0:0:0:0:
138,308,72538,2,0,P|121:329|83:348,2,50,2|2|10,0:0|0:0|0:0,0:0:0:0:
173,272,73083,6,0,P|216:249|274:257,1,100,6|2,0:0|0:0,0:0:0:0:
353,302,73811,2,0,P|402:306|445:283,1,100,6|2,0:0|0:0,0:0:0:0:
484,251,74356,2,0,L|488:190,1,50,10|2,0:0|0:0,0:0:0:0:
452,165,74720,2,0,L|448:104,1,50,2|2,0:0|0:0,0:0:0:0:
389,34,75265,2,0,P|339:24|254:54,1,100,6|0,0:0|0:0,0:0:0:0:
255,68,75811,2,0,P|220:75|176:67,1,50,10|0,0:0|0:0,0:0:0:0:
160,52,76174,5,6,0:0:0:0:
91,125,76538,1,10,0:0:0:0:
160,197,76901,1,2,0:0:0:0:
90,268,77265,1,10,0:0:0:0:
154,344,77629,2,0,L|289:341,1,100,2|10,0:0|0:0,0:0:0:0:
304,341,78174,1,4,0:0:0:0:
387,285,78538,2,0,P|391:255|380:225,1,50,4|8,0:0|0:0,0:0:0:0:
363,138,79083,6,0,B|313:119|313:119|253:143,1,100,6|8,0:0|0:0,0:0:0:0:
231,169,79629,2,0,P|152:198|85:150,1,150,6|10,0:0|0:0,0:0:0:0:
65,130,80356,2,0,L|65:281,1,150,6|12,0:0|0:0,0:0:0:0:
81,378,81265,2,0,L|16:381,2,50,8|8|8,0:3|0:0|0:0,0:0:0:0:
160,317,81993,5,6,0:0:0:0:
236,381,82356,1,10,0:0:0:0:
305,308,82720,1,6,0:0:0:0:
373,380,83083,1,10,0:0:0:0:
442,307,83447,5,6,0:0:0:0:
408,269,83629,2,0,P|402:205|417:167,1,100,2|2,0:0|0:0,0:0:0:0:
456,75,84379,2,0,P|392:69|354:84,1,100,2|2,0:0|0:0,0:0:0:0:
330,121,84924,6,0,L|217:128,1,100,6|8,0:0|0:0,0:0:0:0:
168,48,85652,1,0,0:0:0:0:
125,138,86015,1,8,0:0:0:0:
184,218,86379,2,0,B|126:231|126:231|87:219|87:219|15:237,1,150,6|6,0:0|0:0,0:0:0:0:
10,366,87426,2,0,L|58:354,1,50,8|6,0:0|0:0,0:0:0:0:
256,192,87789,12,0,89244,0:0:0:0:
