osu file format v14

[General]
AudioFilename: audio.Mp3
AudioLeadIn: 0
PreviewTime: 55020
Countdown: 0
SampleSet: Soft
StackLeniency: 0.5
Mode: 0
LetterboxInBreaks: 0
WidescreenStoryboard: 1

[Editor]
DistanceSpacing: 1
BeatDivisor: 4
GridSize: 8
TimelineZoom: 1

[Metadata]
Title:CLEAR
TitleUnicode:CLEAR
Artist:Maaya Sakamoto
ArtistUnicode:坂本真綾
Creator:Kaitjuh
Version:Advanced
Source:カードキャプターさくら クリアカード編
Tags:Cardcaptor Sakura Clear Card Arc Hen Opening CrystilonZ
BeatmapID:1535733
BeatmapSetID:717049

[Difficulty]
HPDrainRate:4
CircleSize:3.7
OverallDifficulty:5
ApproachRate:6
SliderMultiplier:1.1
SliderTickRate:1

[Events]
//Background and Video events
0,0,"bg.jpg",0,0
Video,-366,"video.avi"
//Break Periods
//Storyboard Layer 0 (Background)
//Storyboard Layer 1 (Fail)
//Storyboard Layer 2 (Pass)
//Storyboard Layer 3 (Foreground)
//Storyboard Sound Samples

[TimingPoints]
991,769.230769230769,4,2,1,30,1,0
991,-50,4,2,1,30,0,0
20361,363.636363636364,4,2,1,60,1,0
20542,363.636363636364,4,2,1,60,1,0
20814,-100,4,2,1,5,0,0
20930,363.636363636364,4,2,1,60,1,0
20930,-83.3333333333333,4,2,1,60,0,0
22729,363.636363636364,4,2,1,60,1,0
22729,-83.3333333333333,4,2,1,60,0,0
23820,363.636363636364,4,2,1,60,1,0
30001,-100,4,2,1,40,0,0
41274,-100,4,2,1,45,0,0
43820,-100,4,2,1,50,0,0
44183,-100,4,2,1,45,0,0
46729,-100,4,2,1,50,0,0
47092,-100,4,2,1,45,0,0
49638,-100,4,2,1,50,0,0
50001,-100,4,2,1,45,0,0
52930,363.636363636364,4,2,1,45,1,0
55202,-100,4,2,1,5,0,0
55293,-100,4,2,1,45,0,0
55384,-100,4,2,1,5,0,0
55630,363.636363636364,4,2,1,60,1,1
55630,-90.9090909090909,4,2,1,60,0,1
55811,363.636363636364,4,2,1,60,1,1
55811,-90.9090909090909,4,2,1,60,0,1
66720,-90.9090909090909,4,2,1,60,0,0
66811,-90.9090909090909,4,2,1,5,0,0
66901,-90.9090909090909,4,2,1,60,0,0
66992,-90.9090909090909,4,2,1,5,0,0
67265,-90.9090909090909,4,2,1,60,0,1
81629,-90.9090909090909,4,2,1,60,0,0
81993,363.636363636364,4,2,1,60,1,1
81993,-83.3333333333333,4,2,1,60,0,1
84379,363.636363636364,4,2,1,60,1,1
84379,-83.3333333333333,4,2,1,60,0,1
84925,363.636363636364,4,2,1,60,1,1
84925,-90.9090909090909,4,2,1,60,0,1
86925,-83.3333333333333,4,2,1,60,0,1
87426,363.636363636364,5,2,1,60,1,1
87426,-90.9090909090909,5,2,1,60,0,1
87607,-90.9090909090909,5,2,1,60,0,0
89244,-90.9090909090909,4,2,1,5,0,0

[Colours]
Combo1 : 255,255,128
Combo2 : 128,255,128
Combo3 : 128,255,255
Combo4 : 255,128,192
Combo5 : 255,181,106

[HitObjects]
256,192,991,12,2,2529,0:0:0:0:
58,336,3298,6,0,P|59:294|73:258,1,55,2|2,0:0|0:0,0:0:0:0:
136,200,3875,1,2,0:0:0:0:
136,200,4067,2,0,P|186:214|251:193,1,110,0|0,0:0|0:0,0:0:0:0:
324,127,4837,6,0,L|379:127,1,55,2|2,0:0|0:0,0:0:0:0:
478,79,5414,1,2,0:0:0:0:
478,79,5606,2,0,P|488:133|466:195,1,110,0|0,0:0|0:0,0:0:0:0:
374,235,6375,2,0,L|370:300,1,55,2|2,0:0|0:0,0:0:0:0:
279,352,6952,1,2,0:0:0:0:
279,352,7144,6,0,P|213:359|160:344,1,110,0|2,0:0|0:0,0:0:0:0:
127,314,7721,1,2,0:0:0:0:
127,314,7914,2,0,L|56:317,1,55,2|0,0:0|0:0,0:0:0:0:
24,289,8298,2,0,P|15:263|21:218,1,55,2|2,0:0|0:0,0:0:0:0:
41,187,8683,6,0,B|112:147|112:147|214:171,1,165,2|0,0:0|0:0,0:0:0:0:
214,216,9452,2,0,B|295:235|295:235|366:195,1,165
385,143,10221,6,0,P|367:210|433:274,1,165,2|0,0:0|0:0,0:0:0:0:
482,264,10990,2,0,L|295:299,1,165,2|0,0:0|0:0,0:0:0:0:
274,326,11760,6,0,P|206:365|140:317,1,165,2|0,0:0|0:0,0:0:0:0:
167,271,12529,2,0,B|186:189|186:189|146:118,1,165,2|2,0:0|0:0,0:0:0:0:
98,91,13298,6,0,P|148:103|210:78,1,110,2|2,0:0|0:0,0:0:0:0:
289,17,14067,2,0,P|340:-1|393:10,1,110,2|2,0:0|0:0,0:0:0:0:
474,85,14837,2,0,L|465:224,1,110,2|2,0:0|0:0,0:0:0:0:
504,235,15414,2,0,P|450:223|399:241,1,110,2|2,0:0|0:0,0:0:0:0:
252,316,16375,6,0,P|200:334|147:322,1,110,2|2,0:0|0:0,0:0:0:0:
105,287,16952,2,0,L|109:89,1,165,2|2,0:0|0:0,0:0:0:0:
136,74,17721,1,2,0:0:0:0:
256,192,17914,12,2,19452,0:0:0:0:
127,219,20930,6,0,P|162:225|212:200,1,65.9999979858399,6|0,0:0|0:0,0:0:0:0:
244,158,21293,2,0,P|250:123|225:73,1,65.9999979858399,10|0,0:0|0:0,0:0:0:0:
183,41,21657,2,0,P|148:35|98:60,1,65.9999979858399,6|0,0:0|0:0,0:0:0:0:
66,102,22020,2,0,P|60:137|85:187,1,65.9999979858399,10|0,0:0|0:0,0:0:0:0:
127,219,22384,6,0,P|162:225|212:200,1,65.9999979858399,6|2,0:0|0:0,0:0:0:0:
244,158,22729,1,8,0:0:0:0:
307,205,22910,2,0,B|353:210|353:210|385:195|385:195|458:202,2,131.99999597168,2|10|2,0:0|0:0|0:0,0:0:0:0:
244,158,23820,6,0,P|232:99|255:52,1,110,4|8,0:0|0:0,0:0:0:0:
383,43,24547,2,0,L|455:57,1,55,0|0,0:0|0:0,0:0:0:0:
496,107,24910,1,10,0:0:0:0:
397,195,25274,6,0,B|373:247|373:247|381:318,1,110,2|8,0:0|0:0,0:0:0:0:
450,333,25820,2,0,P|375:300|297:319,1,165,2|10,0:0|0:0,0:0:0:0:
242,374,26547,1,2,0:0:0:0:
242,374,26729,6,0,L|124:371,1,110,0|8,0:0|0:0,0:0:0:0:
38,277,27456,2,0,P|36:244|56:204,1,55,0|0,0:0|0:0,0:0:0:0:
97,165,27820,1,10,0:0:0:0:
192,256,28183,6,0,L|264:257,1,55,2|0,0:0|0:0,0:0:0:0:
309,207,28547,1,14,0:0:0:0:
369,156,28729,2,0,P|424:143|475:177,1,110,2|0,0:0|0:0,0:0:0:0:
501,241,29274,2,0,L|497:300,1,55,10|2,0:0|0:0,0:0:0:0:
426,365,29638,5,4,0:0:0:0:
314,294,30001,2,0,L|255:290,1,55,8|2,0:0|0:0,0:0:0:0:
183,309,30365,1,2,0:0:0:0:
183,309,30547,2,0,P|143:311|118:307,1,55,2|8,0:0|0:0,0:0:0:0:
61,267,30910,6,0,L|66:184,1,55,2|0,0:0|0:0,0:0:0:0:
38,137,31274,2,0,P|70:130|109:147,1,55,2|8,0:0|0:0,0:0:0:0:
144,196,31638,2,0,P|170:201|197:194,1,55,2|0,0:0|0:0,0:0:0:0:
272,165,32001,2,0,L|275:219,1,55,2|8,0:0|0:0,0:0:0:0:
323,287,32365,1,2,0:0:0:0:
323,287,32547,6,0,L|454:280,1,110,2|8,0:0|0:0,0:0:0:0:
501,323,33092,2,0,P|481:276|486:217,1,110,2|2,0:0|0:0,0:0:0:0:
506,140,33638,1,8,0:0:0:0:
432,109,33820,6,0,B|377:95|378:129|313:119,1,110,2|2,0:0|0:0,0:0:0:0:
268,67,34365,1,10,0:0:0:0:
268,67,34547,1,0,0:0:0:0:
216,131,34729,2,0,L|219:198,1,55,2|0,0:0|0:0,0:0:0:0:
147,74,35092,2,0,L|150:6,1,55,8|0,0:0|0:0,0:0:0:0:
87,140,35456,6,0,L|94:276,1,110,4|8,0:0|0:0,0:0:0:0:
34,304,36001,1,2,0:0:0:0:
98,360,36183,1,2,0:0:0:0:
98,360,36365,1,2,0:0:0:0:
156,300,36547,1,10,0:0:0:0:
229,332,36729,6,0,P|257:337|288:328,1,55,2|0,0:0|0:0,0:0:0:0:
335,270,37092,2,0,P|340:242|331:211,1,55,2|8,0:0|0:0,0:0:0:0:
273,164,37456,2,0,P|245:159|214:168,1,55,2|0,0:0|0:0,0:0:0:0:
167,226,37820,1,2,0:0:0:0:
102,180,38001,2,0,L|95:111,1,55,10|0,0:0|0:0,0:0:0:0:
53,61,38365,5,0,0:0:0:0:
53,61,38547,1,0,0:0:0:0:
116,12,38729,2,0,L|205:18,1,55,8|2,0:0|0:0,0:0:0:0:
225,79,39092,1,2,0:0:0:0:
225,79,39274,2,0,L|279:75,1,55,2|8,0:0|0:0,0:0:0:0:
357,31,39638,5,2,0:0:0:0:
370,54,40001,5,2,0:0:0:0:
383,77,40365,5,2,0:0:0:0:
396,100,40729,5,2,0:0:0:0:
362,171,40910,2,0,L|307:174,1,55,4|0,0:0|0:0,0:0:0:0:
203,192,41274,6,0,L|312:203,1,110,4|8,0:0|0:0,0:0:0:0:
316,284,41820,2,0,L|206:272,1,110,4|0,0:0|0:0,0:0:0:0:
210,353,42365,2,0,L|264:358,1,55,12|2,0:0|0:0,0:0:0:0:
413,299,42910,6,0,P|417:242|393:172,2,110,2|2|2,0:0|0:0|0:0,0:0:0:0:
349,351,43820,2,0,L|294:345,1,55,8|0,0:0|0:0,0:0:0:0:
226,297,44183,6,0,B|168:273|170:324|101:297,1,110,6|8,0:0|0:0,0:0:0:0:
62,246,44729,1,0,0:0:0:0:
18,312,44910,2,0,P|18:339|26:365,2,55,2|2|10,0:0|0:0|0:0,0:0:0:0:
62,246,45456,6,0,P|68:215|61:184,1,55,6|0,0:0|0:0,0:0:0:0:
10,133,45820,2,0,P|6:105|12:79,1,55,2|8,0:0|0:0,0:0:0:0:
81,39,46183,2,0,L|146:49,1,55,2|0,0:0|0:0,0:0:0:0:
193,103,46547,1,2,0:0:0:0:
275,95,46729,2,0,L|340:85,1,55,8|0,0:0|0:0,0:0:0:0:
393,18,47092,6,0,P|386:75|412:121,1,110,6|10,0:0|0:0,0:0:0:0:
488,140,47638,2,0,P|458:187|391:196,1,110,6|2,0:0|0:0,0:0:0:0:
337,156,48183,1,10,0:0:0:0:
335,239,48365,6,0,P|377:276|457:269,1,110,6|0,0:0|0:0,0:0:0:0:
505,250,48910,1,10,0:0:0:0:
494,331,49092,2,0,P|450:361|391:361,1,110,6|2,0:0|0:0,0:0:0:0:
313,344,49638,1,10,0:0:0:0:
313,344,49820,1,0,0:0:0:0:
235,378,50001,6,0,L|130:376,2,82.5,6|0|0,0:0|0:0|0:0,0:0:0:0:
214,300,50729,2,0,L|109:298,2,82.5,8|0|0,0:0|0:0|0:0,0:0:0:0:
193,222,51456,2,0,L|88:220,2,82.5,2|0|0,0:0|0:0|0:0,0:0:0:0:
172,144,52183,2,0,L|67:142,2,82.5,8|0|0,0:0|0:0|0:0,0:0:0:0:
228,64,52930,5,12,0:0:0:0:
228,64,53111,1,4,0:0:0:0:
270,141,53475,5,2,0:0:0:0:
338,85,53839,5,2,0:0:0:0:
378,163,54202,5,2,0:0:0:0:
454,118,54566,5,4,0:0:0:0:
454,118,54747,1,4,0:0:0:0:
408,248,55111,5,10,0:0:0:0:
455,328,55293,1,10,0:0:0:0:
455,328,55630,6,0,P|401:341|341:312,1,121.000003692627,6|0,0:0|0:0,0:0:0:0:
291,240,56174,2,0,P|256:236|219:246,1,60.5000018463135,8|0,0:0|0:0,0:0:0:0:
170,308,56538,1,2,0:0:0:0:
82,282,56720,2,0,L|68:217,1,60.5000018463135,2|8,0:0|0:0,0:0:0:0:
87,133,57083,6,0,P|133:102|199:109,1,121.000003692627,6|0,0:0|0:0,0:0:0:0:
276,150,57629,2,0,P|311:154|348:144,1,60.5000018463135,8|0,0:0|0:0,0:0:0:0:
395,81,57992,1,2,0:0:0:0:
478,115,58174,2,0,L|486:184,1,60.5000018463135,2|8,0:0|0:0,0:0:0:0:
474,265,58538,6,0,B|426:270|426:270|400:258|400:258|337:265,1,121.000003692627,4|2,0:0|0:0,0:0:0:0:
288,323,59083,2,0,P|255:331|209:328,1,60.5000018463135,10|0,0:0|0:0,0:0:0:0:
148,286,59447,2,0,P|140:256|139:226,1,60.5000018463135,2|2,0:0|0:0,0:0:0:0:
170,140,59811,1,10,0:0:0:0:
170,140,59992,6,0,B|229:148|229:148|287:119,1,121.000003692627,6|0,0:0|0:0,0:0:0:0:
318,35,60538,1,8,0:0:0:0:
318,35,60720,1,0,0:0:0:0:
400,70,60901,2,0,L|423:144,1,60.5000018463135,2|0,0:0|0:0,0:0:0:0:
361,198,61264,1,10,0:0:0:0:
416,276,61447,6,0,P|360:295|305:274,1,121.000003692627,6|2,0:0|0:0,0:0:0:0:
248,198,61992,1,8,0:0:0:0:
193,276,62174,2,0,P|248:295|304:274,1,121.000003692627,6|2,0:0|0:0,0:0:0:0:
361,198,62720,2,0,L|356:123,1,60.5000018463135,10|2,0:0|0:0,0:0:0:0:
304,63,63083,5,2,0:0:0:0:
237,124,63265,2,0,L|153:128,1,60.5000018463135,2|8,0:0|0:0,0:0:0:0:
101,179,63629,2,0,B|146:215|146:215|224:212,1,121.000003692627,6|2,0:0|0:0,0:0:0:0:
300,207,64174,1,10,0:0:0:0:
300,207,64356,1,2,0:0:0:0:
376,255,64538,6,0,L|454:250,1,60.5000018463135,2|0,0:0|0:0,0:0:0:0:
394,170,64901,2,0,L|472:165,1,60.5000018463135,10|0,0:0|0:0,0:0:0:0:
315,126,65265,2,0,L|237:121,1,60.5000018463135,2|0,0:0|0:0,0:0:0:0:
297,41,65629,2,0,L|219:36,1,60.5000018463135,10|0,0:0|0:0,0:0:0:0:
167,96,65992,1,2,0:0:0:0:
90,46,66174,1,2,0:0:0:0:
78,136,66356,6,0,L|30:142,3,30.2500009231568,8|0|0|0,0:0|0:0|0:0|0:0,0:0:0:0:
20,125,66720,1,10,0:0:0:0:
38,229,66901,1,10,0:0:0:0:
38,229,67265,6,0,L|172:216,1,121.000003692627,6|0,0:0|0:0,0:0:0:0:
220,284,67811,2,0,P|258:294|294:290,1,60.5000018463135,8|0,0:0|0:0,0:0:0:0:
364,261,68174,2,0,P|374:222|370:186,1,60.5000018463135,2|2,0:0|0:0,0:0:0:0:
369,110,68538,1,8,0:0:0:0:
369,110,68720,6,0,P|315:140|255:124,1,121.000003692627,6|0,0:0|0:0,0:0:0:0:
189,69,69265,2,0,P|158:69|130:78,1,60.5000018463135,8|0,0:0|0:0,0:0:0:0:
96,162,69629,2,0,P|96:192|105:220,1,60.5000018463135,2|2,0:0|0:0,0:0:0:0:
178,275,69992,1,8,0:0:0:0:
124,348,70174,6,0,B|179:364|179:364|258:336,1,121.000003692627,6|0,0:0|0:0,0:0:0:0:
284,263,70720,1,10,0:0:0:0:
284,263,70901,1,0,0:0:0:0:
365,304,71083,2,0,P|398:311|440:293,1,60.5000018463135,2|2,0:0|0:0,0:0:0:0:
394,217,71447,1,10,0:0:0:0:
451,146,71629,6,0,P|388:126|320:164,1,121.000003692627,6|0,0:0|0:0,0:0:0:0:
268,202,72174,2,0,L|186:205,1,60.5000018463135,8|0,0:0|0:0,0:0:0:0:
165,123,72538,1,2,0:0:0:0:
115,200,72720,1,2,0:0:0:0:
157,281,72901,1,10,0:0:0:0:
156,280,73083,6,0,L|278:279,1,121.000003692627,6|2,0:0|0:0,0:0:0:0:
368,269,73629,1,10,0:0:0:0:
354,360,73811,2,0,P|302:334|277:266,1,121.000003692627,6|2,0:0|0:0,0:0:0:0:
314,195,74356,2,0,L|384:178,1,60.5000018463135,10|2,0:0|0:0,0:0:0:0:
424,105,74720,5,2,0:0:0:0:
333,103,74901,2,0,P|340:68|371:29,1,60.5000018463135,2|8,0:0|0:0,0:0:0:0:
277,0,75265,2,0,P|250:51|246:111,1,121.000003692627,6|0,0:0|0:0,0:0:0:0:
302,185,75811,2,0,P|270:202|227:199,1,60.5000018463135,10|0,0:0|0:0,0:0:0:0:
168,157,76174,6,0,L|88:156,1,60.5000018463135,6|0,0:0|0:0,0:0:0:0:
43,221,76538,2,0,L|42:301,1,60.5000018463135,10|0,0:0|0:0,0:0:0:0:
107,346,76901,2,0,L|187:347,1,60.5000018463135,2|0,0:0|0:0,0:0:0:0:
232,282,77265,2,0,L|233:202,1,60.5000018463135,10|0,0:0|0:0,0:0:0:0:
296,346,77629,5,2,0:0:0:0:
296,346,77811,1,0,0:0:0:0:
363,286,77992,1,10,0:0:0:0:
431,345,78174,2,0,P|451:292|432:231,1,121.000003692627,4|4,0:0|0:0,0:0:0:0:
347,199,78720,2,0,L|352:130,1,60.5000018463135,8|0,0:0|0:0,0:0:0:0:
385,54,79083,6,0,B|320:25|319:77|264:50,1,121.000003692627,6|8,0:0|0:0,0:0:0:0:
178,36,79629,2,0,P|220:50|155:106,1,181.500005538941,6|10,0:0|0:0,0:0:0:0:
83,48,80356,6,0,P|63:103|82:162,1,121.000003692627,6|0,0:0|0:0,0:0:0:0:
164,196,80901,2,0,P|170:236|153:270,1,60.5000018463135,12|0,0:0|0:0,0:0:0:0:
90,308,81265,1,8,0:3:0:0:
90,308,81447,2,0,L|49:313,2,30.2500009231568,8|8|8,0:0|0:0|0:0,0:0:0:0:
262,364,81993,6,0,P|304:363|341:341,1,65.9999979858399,6|0,0:0|0:0,0:0:0:0:
387,276,82356,2,0,P|386:234|364:197,1,65.9999979858399,10|0,0:0|0:0,0:0:0:0:
299,151,82720,2,0,P|257:152|220:174,1,65.9999979858399,6|0,0:0|0:0,0:0:0:0:
174,239,83083,2,0,P|175:281|197:318,1,65.9999979858399,10|0,0:0|0:0,0:0:0:0:
262,364,83447,6,0,P|304:363|341:341,1,65.9999979858399,6|0,0:0|0:0,0:0:0:0:
387,276,83811,1,8,0:0:0:0:
472,326,83993,2,0,P|485:289|480:250,1,65.9999979858399,2|0,0:0|0:0,0:0:0:0:
409,179,84379,2,0,P|369:176|333:192,1,65.9999979858399,2|8,0:0|0:0,0:0:0:0:
279,260,84742,1,2,0:0:0:0:
279,260,84925,6,0,P|219:278|160:254,1,121.000003692627,6|8,0:0|0:0,0:0:0:0:
63,109,85652,2,0,L|67:178,1,60.5000018463135,0|0,0:0|0:0,0:0:0:0:
71,260,86015,1,8,0:0:0:0:
173,109,86379,6,0,L|242:105,1,60.5000018463135,6|0,0:0|0:0,0:0:0:0:
326,100,86743,1,8,0:0:0:0:
271,22,86925,2,0,P|233:101|277:177,1,181.500005538941,6|8,0:0|0:0,0:0:0:0:
367,180,87607,1,6,0:0:0:0:
256,192,87789,12,0,89244,0:0:0:0:
