osu file format v14

[General]
AudioFilename: audio.mp3
AudioLeadIn: 0
PreviewTime: 54995
Countdown: 0
SampleSet: Soft
StackLeniency: 0.7
Mode: 0
LetterboxInBreaks: 0
WidescreenStoryboard: 1

[Editor]
Bookmarks: 991,89244
DistanceSpacing: 1.2
BeatDivisor: 4
GridSize: 4
TimelineZoom: 1

[Metadata]
Title:CLEAR
TitleUnicode:CLEAR
Artist:Maaya Sakamoto
ArtistUnicode:坂本真綾
Creator:Gero
Version:Normal
Source:カードキャプターさくら クリアカード編
Tags:Cardcaptor Captor Sakura Clear Card Lanturn -Sh1n1- Sekaii Sekai-nyan Sotarks Opening TV Size
BeatmapID:1517523
BeatmapSetID:718454

[Difficulty]
HPDrainRate:4
CircleSize:3.5
OverallDifficulty:4
ApproachRate:5
SliderMultiplier:1.2
SliderTickRate:1

[Events]
//Background and Video events
Video,-227,"Video.avi"
0,0,"BGero1.jpg",0,0
//Break Periods
//Storyboard Layer 0 (Background)
//Storyboard Layer 1 (Fail)
//Storyboard Layer 2 (Pass)
//Storyboard Layer 3 (Foreground)
//Storyboard Sound Samples

[TimingPoints]
991,769.230769230769,4,2,22,50,1,0
991,-83.3333333333333,4,2,22,50,0,0
17721,-83.3333333333333,4,2,22,60,0,0
20361,363.636363636364,4,2,22,60,1,0
20542,363.636363636364,4,2,22,60,1,0
20930,363.636363636364,4,2,22,80,1,0
22729,363.636363636364,4,2,22,80,1,0
23820,363.636363636364,4,2,22,80,1,0
39638,-100,4,2,22,70,0,0
41274,-100,4,2,22,80,0,0
52930,363.636363636364,4,2,22,80,1,0
55630,363.636363636364,4,2,22,90,1,1
55630,-100,4,2,22,90,0,1
55811,363.636363636364,4,2,22,90,1,1
55811,-100,4,2,22,90,0,1
67174,-100,4,2,22,90,0,0
67265,-100,4,2,22,90,0,1
79083,-100,4,2,22,90,0,0
81993,363.636363636364,4,2,22,90,1,0
84379,363.636363636364,4,2,22,90,1,0
84925,363.636363636364,4,2,22,90,1,0
87426,363.636363636364,5,2,22,90,1,0
87698,-100,4,2,22,5,0,0

[Colours]
Combo1 : 244,208,83
Combo2 : 243,131,223
Combo3 : 225,148,77
Combo4 : 77,204,150

[HitObjects]
392,20,991,6,0,B|324:61|256:20|256:20|188:61|120:20,1,287.999991210938,2|0,0:0|0:0,0:0:0:0:
256,272,4067,5,6,0:0:0:0:
306,137,4837,2,0,P|256:120|206:137,2,107.999996704102,2|0|0,0:0|0:0|0:0,0:0:0:0:
356,192,6375,2,0,P|406:209|456:192,2,107.999996704102,2|2|2,0:0|0:0|0:0,0:0:0:0:
306,247,7914,2,0,P|256:230|206:247,2,107.999996704102,2|2|0,0:0|0:0|0:0,0:0:0:0:
354,304,9452,2,0,L|379:278,2,35.9999989013672,2|0|0,0:0|0:0|0:0,0:0:0:0:
402,361,10221,6,0,L|478:284,2,107.999996704102,0|2|2,0:0|0:0|0:0,0:0:0:0:
354,304,11760,2,0,L|277:380,2,107.999996704102,2|2|0,0:0|0:0|0:0,0:0:0:0:
306,247,13298,1,2,0:0:0:0:
356,192,13683,1,2,0:0:0:0:
306,137,14067,2,0,P|272:127|238:137,2,71.9999978027344,2|2|2,0:0|0:0|0:0,0:0:0:0:
356,82,15221,1,2,0:0:0:0:
356,82,15414,1,2,0:0:0:0:
406,137,15798,1,0,0:0:0:0:
476,218,16375,6,0,B|491:270|491:270|476:322,2,107.999996704102,2|2|2,0:0|0:0|0:0,0:0:0:0:
450,192,17721,2,0,B|381:136|301:188|297:192|293:196|213:248|144:192,1,323.999990112305,2|0,0:0|0:0,0:0:0:0:
144,192,20930,5,6,0:0:0:0:
256,100,21293,1,10,0:0:0:0:
368,192,21657,1,10,0:0:0:0:
256,284,22020,1,10,0:0:0:0:
144,192,22384,5,10,0:0:0:0:
92,243,22566,2,0,B|75:224|67:192|67:192|75:160|92:141,1,113.5,2|2,1:0|1:0,0:0:0:0:
144,88,23092,2,0,L|144:28,2,60,12|2|0,0:0|0:0|1:0,0:0:0:0:
195,141,23638,1,10,0:0:0:0:
247,87,23819,6,0,B|308:87|308:87|349:128,2,120,4|8|8,1:0|0:0|0:0,0:0:0:0:
144,192,24910,1,10,0:0:0:0:
247,297,25274,2,0,B|308:297|308:297|349:256,2,120,10|10|10,0:0|0:0|0:0,0:0:0:0:
144,192,26365,1,10,0:0:0:0:
40,90,26729,6,0,P|57:65|81:47,1,60,10|0,0:0|1:0,0:0:0:0:
144,88,27092,2,0,B|192:88|192:88|212:96|212:96|262:96,1,120,8|8,0:0|0:0,0:0:0:0:
380,12,27820,1,10,0:0:0:0:
498,96,28183,6,0,B|464:129|464:129|456:132|456:132|461:137|461:137|453:140|453:140|418:174,1,120,4|12,3:0|0:0,0:0:0:0:
474,222,28729,2,0,P|405:173|336:222,1,180,0|8,1:0|0:0,0:0:0:0:
256,356,29638,6,0,P|200:374|144:356,1,120,4|10,1:0|0:0,0:0:0:0:
92,304,30183,1,0,0:0:0:0:
143,252,30365,2,0,L|79:150,1,120,2|8,0:0|0:0,0:0:0:0:
181,48,31092,2,0,B|232:48|256:7|256:7|280:48|331:48,2,180,0|2|8,1:0|1:0|0:0,0:0:0:0:
256,172,32547,6,0,B|278:228|278:228|256:284,1,120,0|10,1:0|0:0,0:0:0:0:
200,330,33092,2,0,B|256:352|256:352|312:330,1,120,2|2,1:0|1:0,0:0:0:0:
368,283,33638,1,8,0:0:0:0:
424,330,33820,2,0,L|473:156,1,180,2|10,0:0|0:0,0:0:0:0:
351,79,34729,2,0,L|367:136,1,60,2|0,1:0|1:0,0:0:0:0:
312,185,35092,1,10,0:0:0:0:
199,95,35456,6,0,P|140:96|91:128,1,120,4|8,1:0|0:0,0:0:0:0:
52,192,36001,1,2,1:0:0:0:
91,255,36183,2,0,P|140:287|199:288,1,120,2|10,0:0|0:0,0:0:0:0:
256,240,36729,2,0,B|283:282|264:320|264:320|299:320,1,120,2|2,1:0|1:0,0:0:0:0:
350,373,37274,1,8,0:0:0:0:
401,320,37456,2,0,B|425:277|405:237|401:233|397:229|377:189|401:146,1,180,2|10,1:0|0:0,0:0:0:0:
502,44,38365,6,0,L|324:20,1,180,2|2,1:0|0:0,0:0:0:0:
256,45,39092,1,2,1:0:0:0:
188,19,39274,1,2,1:0:0:0:
256,148,39638,6,0,B|280:156|293:192|293:192|280:228|256:236,1,120,6|6,1:0|1:0,0:0:0:0:
372,320,40365,2,0,B|348:312|335:276|335:276|348:240|372:232,1,120,6|2,1:0|1:0,0:0:0:0:
436,192,40910,1,14,0:0:0:0:
320,100,41274,6,0,B|248:100|248:100|192:100|157:150,1,180,4|4,1:0|1:0,0:0:0:0:
96,192,42001,1,2,0:0:0:0:
200,292,42365,1,14,0:0:0:0:
200,292,42547,2,0,P|256:311|312:292,1,120,2|2,0:0|1:0,0:0:0:0:
362,239,43092,1,8,0:0:0:0:
412,292,43274,2,0,P|472:239|412:186,1,180,2|8,1:0|0:0,0:0:0:0:
310,86,44183,6,0,B|256:60|256:60|202:86,1,120,4|8,1:0|0:0,0:0:0:0:
256,222,44910,2,0,L|256:162,2,60,2|2|10,1:0|1:0|0:0,0:0:0:0:
200,268,45456,2,0,B|256:289|256:289|312:268,1,120,2|2,1:0|1:0,0:0:0:0:
368,316,46001,1,8,0:0:0:0:
424,268,46183,2,0,P|442:212|424:156,1,120,2|2,0:0|1:0,0:0:0:0:
368,108,46729,1,8,0:0:0:0:
248,192,47092,6,0,B|308:192,2,60,6|0|10,1:0|0:0|0:0,0:0:0:0:
176,192,47638,1,6,1:0:0:0:
52,264,48001,2,0,B|20:264|20:264|0:283,2,60,2|10|6,1:0|0:0|1:0,0:0:0:0:
52,120,48729,2,0,B|20:120|20:120|0:100,2,60,2|10|6,1:0|0:0|1:0,0:0:0:0:
176,192,49456,1,2,1:0:0:0:
176,192,49638,1,10,0:0:0:0:
300,120,50001,6,0,B|238:122|238:122|306:186|306:186|266:286|266:286|370:234|370:234|474:286|474:286|434:186|434:186|502:122|502:122|410:118|410:118|370:42|370:42|327:123,1,966.7,6|14,1:0|0:0,0:0:0:0:
128,192,53475,6,0,B|98:192|98:192|68:192,1,60,4|0,3:0|0:0,0:0:0:0:
20,248,53839,2,0,B|20:212|3:192|3:192|20:172|20:136,1,120,4|4,3:0|3:0,0:0:0:0:
98,11,54566,1,8,0:0:0:0:
98,11,54748,1,8,0:0:0:0:
172,136,55111,1,10,0:0:0:0:
172,136,55293,1,6,1:0:0:0:
246,11,55630,6,0,B|335:11|335:11|399:75,1,180,6|8,1:0|0:0,0:0:0:0:
492,192,56538,2,0,L|449:234,1,60,2|2,1:0|1:0,0:0:0:0:
398,287,56901,1,8,0:0:0:0:
347,234,57083,2,0,B|284:234|284:234|226:234|193:297,1,180,6|8,1:0|0:0,0:0:0:0:
60,248,57992,2,0,P|41:192|60:136,1,120,2|8,1:0|0:0,0:0:0:0:
6,85,58538,6,0,P|60:62|114:85,1,120,6|2,1:0|1:0,0:0:0:0:
168,136,59083,1,8,0:0:0:0:
256,20,59447,1,2,1:0:0:0:
344,136,59811,1,10,0:0:0:0:
344,136,59992,2,0,P|372:220|344:304,1,180,6|8,1:0|0:0,0:0:0:0:
228,220,60901,2,0,B|196:220|196:220|148:220|122:260,1,120,2|10,0:0|0:0,0:0:0:0:
125,333,61447,6,0,P|100:279|49:249,1,120,6|2,1:0|1:0,0:0:0:0:
2,192,61992,1,8,0:0:0:0:
49,134,62174,2,0,P|100:104|125:51,1,120,6|2,1:0|1:0,0:0:0:0:
192,16,62720,2,0,B|224:16|224:16|243:35,1,60,10|2,0:0|1:0,0:0:0:0:
299,86,63083,2,0,B|380:86|380:86|388:90|388:90|396:94|396:94|477:94,2,180,2|2|10,0:0|1:0|0:0,0:0:0:0:
196,192,64538,5,2,1:0:0:0:
299,298,64901,1,14,0:0:0:0:
402,192,65265,1,2,1:0:0:0:
299,86,65629,1,14,0:0:0:0:
196,192,65992,1,2,1:0:0:0:
196,192,66174,2,0,B|153:216|113:196|109:192|105:188|65:168|22:192,1,180,2|8,1:0|0:0,0:0:0:0:
65,254,66901,1,4,1:0:0:0:
169,352,67265,6,0,B|212:376|252:356|256:352|260:348|300:328|343:352,1,180,6|8,1:0|0:0,0:0:0:0:
404,220,68174,2,0,B|414:192|414:192|404:164,1,60,2|2,1:0|1:0,0:0:0:0:
352,112,68538,1,8,0:0:0:0:
403,60,68720,2,0,B|388:40|352:28|316:40|298:60|298:60|235:60,1,180,6|8,1:0|0:0,0:0:0:0:
132,160,69629,2,0,B|132:192|132:192|112:211,1,60,2|0,1:0|1:0,0:0:0:0:
60,263,69992,1,8,0:0:0:0:
112,314,70174,6,0,B|173:313|173:313|214:354,1,120,6|2,1:0|1:0,0:0:0:0:
256,292,70720,2,0,B|285:285|285:285|314:292,1,60,8|2,0:0|0:0,0:0:0:0:
355,229,71083,2,0,B|384:236|384:236|413:229,2,60,2|2|10,1:0|1:0|0:0,0:0:0:0:
383,161,71629,2,0,P|361:107|311:76,1,120,6|0,1:0|1:0,0:0:0:0:
256,128,72174,1,8,0:0:0:0:
157,237,72538,2,0,B|128:244|128:244|99:237,2,60,2|0|10,0:0|1:0|0:0,0:0:0:0:
197,299,73083,6,0,B|232:299|256:287|256:287|280:299|314:299,1,120,6|2,1:0|1:0,0:0:0:0:
356,360,73629,1,8,0:0:0:0:
398,300,73811,2,0,L|483:215,1,120,2|2,1:0|1:0,0:0:0:0:
432,161,74356,2,0,L|474:118,1,60,10|2,0:0|1:0,0:0:0:0:
423,63,74720,2,0,B|388:23|388:23|314:23|314:23|279:63,2,180,2|2|10,0:0|1:0|0:0,0:0:0:0:
351,188,76174,6,0,B|351:248|351:248|330:304,1,120,14|10,0:0|0:0,0:0:0:0:
181,304,76901,2,0,B|161:248|161:248|161:188,1,120,14|10,0:0|0:0,0:0:0:0:
256,84,77629,1,14,0:0:0:0:
351,188,77992,1,10,0:0:0:0:
351,188,78174,2,0,B|351:248|351:248|330:304,1,120,2|0,1:0|1:0,0:0:0:0:
381,355,78720,1,8,0:0:0:0:
500,276,79083,6,0,B|500:224|526:192|526:192|500:160|500:108,2,180,4|4|8,1:0|1:0|0:0,0:0:0:0:
427,276,80356,2,0,P|399:191|427:108,1,180,4|8,1:0|0:0,0:0:0:0:
308,192,81265,2,0,B|276:192|256:217|256:217|236:192|204:192,1,120,0|8,1:0|0:0,0:0:0:0:
85,108,81992,5,14,0:0:0:0:
204,24,82356,2,0,B|236:24|256:49|256:49|276:24|308:24,1,120,10|10,0:0|0:0,0:0:0:0:
427,108,83083,1,10,0:0:0:0:
308,192,83447,5,10,0:0:0:0:
308,192,83629,2,0,B|276:192|256:217|256:217|236:192|204:192,1,120,2|2,1:0|1:0,0:0:0:0:
85,108,84379,1,2,1:0:0:0:
85,108,84560,2,0,B|56:100|56:100|27:108,1,60,8|8,0:0|0:0,0:0:0:0:
56,176,84924,6,0,L|126:341,1,180,4|0,1:0|0:0,0:0:0:0:
192,376,85652,1,8,0:0:0:0:
256,248,86015,1,10,0:0:0:0:
320,376,86379,6,0,B|356:376|356:376|400:376|426:337,1,120,10|10,0:0|0:0,0:0:0:0:
478,286,86925,2,0,B|442:286|442:286|398:286|371:247,1,120,6|0,1:0|1:0,0:0:0:0:
332,209,87426,6,0,L|371:164,1,60,10|6,0:0|1:0,0:0:0:0:
256,192,87698,12,0,89244,0:0:0:0:
